VERSION	0.00.00	1.04.00
FES_MODE	0
BPM_DEF	133.000	133.000	133.000	133.000
MET_DEF	4	4
RESOLUTION	384
CLK_DEF	384
COMPATIBLE_CODE	MA2

BPM	0	0	133.000
MET	0	0	4	4

NMSTR	1	240	2
NMSCL	1	240	2	96	240	0
NMSTR	1	240	5
NMSCR	1	240	5	96	240	7
CNSSL	2	192	0	0	120	4
CNSSR	2	192	7	0	120	3
NMTAP	3	0	5
NMSTR	3	48	4
NMSCR	3	48	4	96	48	7
NMTAP	3	96	3
NMHLD	3	144	2	96
EXTAP	3	240	0
NMTAP	3	288	0
NMTAP	3	336	1
NMTAP	4	0	2
NMTAP	4	48	3
NMTAP	4	96	1
NMTAP	4	96	4
NMTAP	4	144	1
NMSTR	4	192	2
NMSI_	4	192	2	96	48	4
NMTAP	4	240	4
NMTAP	4	288	5
NMTAP	5	0	5
NMSTR	5	48	4
NMSCR	5	48	4	96	48	7
NMTAP	5	96	3
NMHLD	5	144	2	96
EXTAP	5	240	0
NMTAP	5	288	0
NMTAP	5	336	1
NMTAP	6	0	2
NMTAP	6	0	4
NMTAP	6	48	1
NMSTR	6	96	0
NMSV_	6	96	0	96	48	3
NMSV_	6	96	0	96	48	5
NMTAP	6	144	1
NMTAP	6	144	7
EXTAP	6	288	3
EXTAP	6	288	5
NMTAP	7	0	2
NMSTR	7	48	3
NMSCL	7	48	3	96	48	0
NMTAP	7	96	4
NMHLD	7	144	5	96
EXTAP	7	240	7
NMTAP	7	288	6
NMTAP	7	336	5
NMTAP	8	0	2
NMTAP	8	0	4
NMTAP	8	48	5
NMTAP	8	96	3
NMTAP	8	96	6
NMTAP	8	144	4
NMSTR	8	192	5
NMSV_	8	192	5	96	48	3
NMTAP	8	240	4
NMTAP	8	288	3
NMTAP	9	0	2
NMSTR	9	48	3
NMSI_	9	48	3	96	48	7
NMTAP	9	96	4
NMHLD	9	144	5	96
EXTAP	9	240	7
NMTAP	9	288	6
NMTAP	9	336	2
NMTAP	9	336	5
NMTAP	10	0	4
NMTAP	10	32	4
NMTAP	10	48	3
NMTAP	10	96	2
NMTAP	10	96	5
NMTAP	10	144	2
NMTAP	10	144	5
NMTAP	10	192	3
NMTAP	10	224	3
NMTAP	10	240	4
BRTAP	10	288	1
BRTAP	10	288	6
NMSTR	11	0	5
NMSI_	11	0	5	96	48	0
NMTAP	11	48	5
NMTAP	11	96	1
NMHLD	11	176	2	64
NMTAP	11	240	3
NMTAP	11	288	2
NMTAP	11	336	1
NMTAP	11	336	4
NMSTR	12	0	5
NMSCL	12	0	5	96	48	2
NMTAP	12	48	5
NMTAP	12	96	0
NMHLD	12	176	1	64
NMTAP	12	240	0
NMTAP	12	288	2
NMTAP	12	288	7
NMTAP	12	336	6
NMSTR	13	0	1
NMSI_	13	0	1	96	48	4
NMTAP	13	48	1
NMTAP	13	96	4
NMHLD	13	176	6	64
NMTAP	13	240	4
NMTAP	13	288	4
NMTAP	13	336	3
NMTAP	14	0	2
NMTAP	14	0	4
NMTAP	14	48	2
NMTAP	14	96	3
NMTAP	14	96	5
NMTAP	14	144	5
NMTAP	14	192	2
NMTAP	14	192	4
NMTAP	14	240	1
NMTAP	14	288	0
NMTAP	14	288	6
NMTAP	14	336	1
NMTAP	14	336	5
NMTAP	15	0	2
NMTAP	15	48	3
NMHLD	15	96	1	80
NMTAP	15	96	4
NMTAP	15	176	3
NMTAP	15	224	3
NMTAP	15	240	2
NMTAP	15	288	1
NMTAP	15	288	4
NMTAP	15	336	0
NMTAP	16	0	7
NMTAP	16	48	7
NMTAP	16	96	3
NMHLD	16	96	6	80
NMTAP	16	176	4
NMTAP	16	224	4
NMTAP	16	240	5
NMTAP	16	288	3
NMTAP	16	288	6
NMTAP	16	336	2
NMTAP	16	336	5
NMTAP	17	0	4
NMTAP	17	48	4
NMTAP	17	96	0
NMHLD	17	96	5	80
NMTAP	17	176	7
NMTAP	17	224	7
NMTAP	17	240	6
NMTAP	17	288	0
NMTAP	17	288	5
NMTAP	17	336	4
NMTAP	18	0	2
NMTAP	18	0	4
NMSTR	18	48	1
NMSI_	18	48	1	96	48	3
NMSTR	18	48	5
NMSI_	18	48	5	96	48	3
NMTAP	18	96	0
NMTAP	18	96	6
EXTAP	18	144	1
EXTAP	18	144	5
BRTAP	18	240	7
BRTAP	18	288	0
BRTAP	18	288	6
NMSTR	19	0	2
NMSI_	19	0	2	96	48	7
NMTAP	19	0	4
NMTAP	19	48	2
NMTAP	19	96	6
NMHLD	19	176	5	64
NMTAP	19	240	4
NMTAP	19	288	5
NMTAP	19	336	3
NMTAP	19	336	6
NMSTR	20	0	2
NMSCR	20	0	2	96	48	5
NMTAP	20	48	2
NMTAP	20	96	7
NMHLD	20	176	6	64
NMTAP	20	240	4
NMTAP	20	288	4
NMTAP	20	336	3
NMTAP	20	336	5
NMSTR	21	0	6
NMSI_	21	0	6	96	48	2
NMTAP	21	48	6
NMTAP	21	96	0
NMHLD	21	176	1	64
NMTAP	21	240	2
NMTAP	21	288	3
NMTAP	21	336	3
NMTAP	22	0	1
NMTAP	22	0	3
NMTAP	22	48	2
NMTAP	22	96	3
NMTAP	22	96	4
NMTAP	22	144	5
NMTAP	22	192	4
NMTAP	22	192	6
NMTAP	22	240	7
NMTAP	22	288	0
NMTAP	22	288	6
NMTAP	22	336	1
NMTAP	23	0	2
NMTAP	23	0	3
NMTAP	23	48	3
NMTAP	23	48	4
NMTAP	23	96	4
NMHLD	23	96	5	80
NMTAP	23	176	7
NMTAP	23	224	7
NMTAP	23	240	6
NMTAP	23	288	0
NMTAP	23	336	5
NMTAP	24	0	4
NMTAP	24	0	5
NMTAP	24	48	3
NMTAP	24	48	4
NMHLD	24	96	2	80
NMTAP	24	96	3
NMTAP	24	176	0
NMTAP	24	224	0
NMTAP	24	240	1
NMTAP	24	288	2
NMTAP	24	288	7
NMTAP	24	336	5
NMTAP	25	0	6
NMTAP	25	0	7
NMTAP	25	48	0
NMTAP	25	48	7
NMTAP	25	96	0
NMHLD	25	96	1	80
NMTAP	25	176	3
NMTAP	25	224	3
NMTAP	25	240	2
NMTAP	25	288	1
NMTAP	25	288	4
NMTAP	25	336	0
NMTAP	26	0	1
NMTAP	26	0	7
NMSTR	26	48	2
NMSI_	26	48	2	96	48	7
NMSTR	26	48	6
NMSI_	26	48	6	96	48	4
EXTAP	26	144	2
EXTAP	26	144	6
BRTAP	26	240	0
BRTAP	26	288	1
BRTAP	26	288	7
NMSTR	27	0	6
NMSCL	27	0	6	96	72	3
NMSTR	27	72	3
NMSI_	27	72	3	96	56	7
NMTAP	27	144	1
NMSTR	27	192	1
NMSCL	27	192	1	96	48	6
NMTAP	27	264	5
NMTAP	27	336	3
CNSI_	27	336	6	0	48	2
NMTAP	28	0	3
NMTAP	28	72	1
NMTAP	28	72	3
NMHLD	28	144	4	96
NMTAP	28	144	6
NMTAP	28	240	5
NMTAP	28	288	2
NMTAP	28	320	2
NMTAP	28	336	3
NMSTR	29	0	1
NMSCR	29	0	1	96	48	4
NMTAP	29	0	4
NMTAP	29	72	7
CNSI_	29	144	4	0	48	0
NMTAP	29	144	6
NMSTR	29	192	6
NMSCR	29	192	6	96	48	1
NMTAP	29	264	2
CNSI_	29	336	1	0	48	5
NMTAP	29	336	4
NMTAP	30	0	4
NMTAP	30	72	6
NMTAP	30	72	7
NMTAP	30	144	0
NMHLD	30	144	5	96
NMTAP	30	240	4
NMTAP	30	288	3
NMTAP	30	288	4
NMTAP	30	336	2
NMTAP	30	336	3
NMSTR	31	0	1
NMSCL	31	0	1	96	48	6
NMTAP	31	72	4
NMTAP	31	144	5
CNSI_	31	144	6	0	48	2
NMSTR	31	192	5
NMSCR	31	192	5	96	48	0
NMTAP	31	264	1
CNSI_	31	336	0	0	48	4
NMTAP	31	336	3
BXTAP	32	0	3
BXTAP	32	72	4
BXTAP	32	72	5
BXHLD	32	144	2	96
BXTAP	32	144	3
NMTAP	32	240	0
NMTAP	32	288	7
NMTAP	32	336	0
NMTAP	32	336	6
NMTAP	33	0	1
NMTAP	33	0	5
NMTAP	33	48	2
NMTAP	33	48	4
NMTAP	33	96	3
NMTAP	33	96	5
NMTAP	33	144	4
NMTAP	33	144	6
NMHLD	33	192	3	48
NMHLD	33	192	7	48
NMHLD	33	264	2	48
NMHLD	33	264	6	48
NMSTR	33	336	1
BRSCR	33	336	1	96	48	4
NMSTR	33	336	5
BRSCR	33	336	5	96	48	0
NMTAP	34	48	1
NMTAP	34	48	5
BRTAP	34	144	2
BRTAP	34	144	6
NMTAP	34	240	3
NMTAP	34	240	4
NMHLD	34	288	1	96
NMTAP	34	288	5
NMSTR	35	0	6
NMSCL	35	0	6	96	72	3
NMSTR	35	72	3
NMSI_	35	72	3	96	56	0
NMTAP	35	144	2
NMHLD	35	192	1	80
NMTAP	35	272	7
NMSTR	35	336	0
NMSI_	35	336	0	96	48	3
NMSTR	35	336	6
NMSCL	35	336	6	96	48	3
NMTAP	36	48	0
NMTAP	36	48	6
EXTAP	36	144	2
EXTAP	36	144	4
NMTAP	36	192	1
NMTAP	36	192	5
NMTAP	36	240	1
NMTAP	36	240	5
NMTAP	36	288	2
NMTAP	36	320	2
NMTAP	36	336	3
NMSTR	37	0	1
NMSV_	37	0	1	96	48	4
NMTAP	37	0	4
NMTAP	37	72	5
CNSI_	37	144	4	0	48	7
NMTAP	37	144	6
NMHLD	37	192	6	72
NMTAP	37	264	0
NMSTR	37	336	1
NMSV_	37	336	1	96	48	4
NMSTR	37	336	7
NMSI_	37	336	7	96	48	4
NMTAP	38	48	1
NMTAP	38	48	7
EXTAP	38	144	3
EXTAP	38	144	5
NMTAP	38	192	2
NMTAP	38	192	6
NMSTR	38	240	7
NMSCL	38	240	7	96	48	4
NMTAP	38	288	0
NMTAP	38	288	1
NMTAP	38	336	7
NMTAP	39	0	1
NMTAP	39	48	2
NMTAP	39	48	3
NMTAP	39	96	2
NMTAP	39	96	3
NMTAP	39	144	6
NMTAP	39	192	3
NMTAP	39	192	5
NMSTR	39	240	2
NMSI_	39	240	2	96	48	5
NMTAP	39	240	4
NMTAP	39	336	2
NMSTR	39	336	7
NMSCL	39	336	7	96	48	4
NMSTR	40	48	2
NMSCL	40	48	2	96	48	7
NMTAP	40	48	7
NMTAP	40	144	2
NMSTR	40	144	5
NMSI_	40	144	5	96	48	2
NMTAP	40	240	1
NMTAP	40	240	5
NMTAP	40	336	0
NMTAP	41	0	0
NMHLD	41	0	6	96
NMTAP	41	96	4
NMTAP	41	144	4
NMTAP	41	192	3
NMTAP	41	192	5
NMTAP	41	240	2
NMTAP	41	240	4
NMTAP	41	288	1
NMTAP	41	288	3
BRHLD	41	336	0	96
BRTAP	41	336	4
NMTAP	42	48	3
NMTAP	42	96	2
NMSTR	42	96	4
NMSCR	42	96	4	96	96	2
NMTAP	42	144	3
NMTAP	42	144	5
NMTAP	42	192	4
BRTAP	42	192	6
NMTAP	43	0	6
NMTAP	43	48	7
NMTAP	43	96	0
NMSTR	43	144	1
NMSCL	43	144	1	96	48	7
NMTAP	43	144	6
NMTTP	43	240	0	B	0	M1
NMTTP	43	240	1	B	0	M1
NMTAP	43	336	3
NMSTR	43	336	5
NMSCL	43	336	5	96	48	3
NMTTP	44	48	4	B	0	M1
NMTTP	44	48	5	B	0	M1
NMTAP	44	144	1
NMTAP	44	192	1
NMHLD	44	192	3	96
NMTAP	44	240	2
NMHLD	44	288	1	96
NMTAP	44	336	2
NMTAP	45	0	3
NMTAP	45	48	3
NMTAP	45	96	4
NMTAP	45	144	3
NMSTR	45	144	5
NMSCR	45	144	5	96	96	0
NMSTR	45	240	0
NMSCR	45	240	0	96	96	3
NMSTR	45	336	3
NMSI_	45	336	3	96	48	7
NMTAP	46	48	0
NMTAP	46	96	0
NMTAP	46	144	0
NMTAP	46	144	6
NMTAP	46	192	1
NMHLD	46	192	5	96
NMTAP	46	240	2
NMHLD	46	288	1	96
NMTAP	46	336	4
NMTAP	47	0	5
NMSTR	47	48	2
NMSCL	47	48	2	96	48	0
NMSTR	47	48	6
NMSCL	47	48	6	96	48	4
NMTAP	47	96	3
NMTAP	47	96	7
NMTAP	47	144	2
NMTAP	47	144	6
NMTAP	47	240	3
NMTAP	47	240	7
NMTAP	47	288	0
NMTAP	47	288	4
NMSTR	47	336	1
NMSCR	47	336	1	96	48	4
NMHLD	47	336	5	96
NMSTR	48	48	1
NMSI_	48	48	1	96	48	5
NMTAP	48	144	1
NMTAP	48	144	7
NMTAP	48	192	7
NMTAP	48	240	6
NMTAP	48	288	1
NMTAP	48	288	5
NMTAP	48	336	2
NMTAP	48	336	4
NMHLD	49	0	1	72
NMTAP	49	0	3
NMTAP	49	72	0
NMSTR	49	144	2
NMSI_	49	144	2	96	48	7
NMTAP	49	144	7
NMTAP	49	240	3
NMTAP	49	336	0
EXSTR	49	336	6
NMSCL	49	336	6	96	48	4
NMTAP	50	48	4
EXSTR	50	48	6
NMSCR	50	48	6	96	48	0
NMTAP	50	144	2
EXSTR	50	144	6
NMSI_	50	144	6	96	48	2
NMTAP	50	240	1
NMTAP	50	240	6
NMHLD	50	288	1	96
BRSTR	51	0	3
NMSI_	51	0	3	96	48	1
NMTAP	51	48	4
NMSTR	51	96	5
NMSI_	51	96	5	96	48	7
NMTAP	51	144	6
NMSTR	51	192	3
NMSI_	51	192	3	96	48	0
NMTAP	51	240	2
NMSTR	51	288	4
NMSI_	51	288	4	96	48	7
NMTAP	51	336	5
NMSTR	52	0	2
NMSI_	52	0	2	96	48	0
NMTAP	52	48	1
NMSTR	52	96	3
NMSI_	52	96	3	96	48	7
NMTAP	52	144	4
NMTAP	52	192	1
NMTAP	52	240	1
NMTAP	52	288	0
NMTAP	52	288	6
NMTAP	52	336	4
NMSTR	53	0	5
NMSI_	53	0	5	96	48	3
NMTAP	53	48	6
NMSTR	53	96	1
NMSI_	53	96	1	96	48	7
NMTAP	53	144	2
NMSTR	53	192	5
NMSI_	53	192	5	96	48	3
NMTAP	53	240	6
NMSTR	53	288	1
NMSI_	53	288	1	96	48	7
NMTAP	53	336	2
NMSTR	54	0	6
NMSI_	54	0	6	96	48	3
NMTAP	54	48	5
NMSTR	54	96	2
NMSI_	54	96	2	96	48	7
NMTAP	54	144	1
NMTAP	54	192	5
NMTAP	54	240	5
NMTAP	54	288	0
NMTAP	54	288	6
NMTAP	54	336	0
NMTAP	54	336	6
NMSTR	55	0	1
NMSI_	55	0	1	96	48	4
NMTAP	55	48	1
NMTAP	55	96	0
NMTAP	55	144	7
NMSTR	55	192	6
NMSI_	55	192	6	96	48	3
NMTAP	55	240	6
NMTAP	55	288	0
NMTAP	55	336	1
NMSTR	56	0	2
NMSI_	56	0	2	96	48	5
NMTAP	56	48	2
NMSTR	56	96	6
NMSI_	56	96	6	96	48	1
NMTAP	56	144	6
NMSTR	56	192	4
NMSI_	56	192	4	96	48	0
NMTAP	56	240	4
NMSTR	56	288	7
NMSCL	56	288	7	96	96	2
BXTAP	57	0	1
NMTAP	57	96	0
NMTAP	57	144	0
NMTAP	57	192	7
NMTAP	57	240	1
NMTAP	57	240	6
NMTAP	57	288	3
NMTAP	57	288	4
NMTAP	57	336	2
NMTAP	57	336	5
NMTAP	58	0	0
NMSTR	58	0	7
NMSI_	58	0	7	96	48	3
NMSTR	58	96	0
NMSI_	58	96	0	96	48	5
NMTAP	58	96	7
NMSTR	58	192	0
NMSCR	58	192	0	96	48	3
NMSTR	58	192	7
NMSCL	58	192	7	96	48	4
NMTAP	58	288	0
NMTAP	58	288	7
EXTAP	59	0	2
EXTAP	59	0	5
BRTAP	59	96	0
BRTAP	59	96	7
NMTAP	59	192	2
NMTAP	59	192	3
NMTAP	59	240	1
NMTAP	59	288	2
NMTAP	59	288	3
NMTAP	59	336	5
NMTAP	60	0	2
NMTAP	60	0	4
NMTAP	60	48	1
NMTAP	60	96	2
NMTAP	60	96	4
NMTAP	60	144	5
NMTAP	60	192	2
NMTAP	60	192	3
NMTAP	60	240	1
BXTAP	60	288	2
BXTAP	60	288	3
NMTAP	60	336	4
NMTAP	61	0	3
NMTAP	61	0	5
NMTAP	61	48	6
NMTAP	61	96	3
NMTAP	61	96	5
NMTAP	61	144	7
NMTAP	61	192	2
NMTAP	61	192	4
NMTAP	61	240	1
NMTAP	61	288	2
NMTAP	61	288	4
NMTAP	61	336	0
NMSTR	62	0	1
NMSI_	62	0	1	96	48	4
NMTAP	62	0	3
NMTAP	62	48	4
NMTAP	62	96	1
NMTAP	62	96	5
NMTAP	62	144	7
NMTAP	62	192	0
NMTAP	62	192	6
NMTAP	62	240	0
NMTAP	62	240	6
BRTAP	62	288	1
BRHLD	62	288	5	96
NMTAP	63	0	3
NMTAP	63	48	6
NMTAP	63	96	3
NMTAP	63	96	5
NMTAP	63	144	1
NMTAP	63	192	2
NMTAP	63	192	4
NMTAP	63	240	5
NMTAP	63	288	2
NMTAP	63	288	4
NMTAP	63	336	1
NMTAP	64	0	2
NMTAP	64	0	3
NMTAP	64	48	4
NMTAP	64	96	2
NMTAP	64	96	3
NMTAP	64	144	1
NMTAP	64	192	2
NMTAP	64	192	4
NMTAP	64	240	5
BRTAP	64	288	2
BRTAP	64	288	4
NMTAP	64	336	1
NMTAP	65	0	4
NMTAP	65	0	5
NMTAP	65	48	6
NMTAP	65	96	4
NMTAP	65	96	5
NMTAP	65	144	7
NMTAP	65	192	2
NMTAP	65	192	3
NMTAP	65	240	1
NMTAP	65	288	2
NMTAP	65	288	3
NMTAP	65	336	0
NMSTR	66	0	0
NMSI_	66	0	0	96	48	4
NMSTR	66	0	7
NMSI_	66	0	7	96	48	3
NMTAP	66	48	1
NMTAP	66	48	6
NMTAP	66	96	0
NMTAP	66	96	7
NMSTR	66	192	1
NMSI_	66	192	1	96	48	4
NMSTR	66	192	6
NMSI_	66	192	6	96	48	3
NMTAP	66	240	2
NMTAP	66	240	5
NMTAP	66	288	1
NMTAP	66	288	6
BRTAP	67	0	1
BRSTR	67	0	5
NMSI_	67	0	5	96	48	3
NMTAP	67	48	6
NMSTR	67	96	1
NMSI_	67	96	1	96	48	5
NMTAP	67	96	5
NMTAP	67	144	0
NMTAP	67	192	1
NMTAP	67	192	6
NMTAP	67	240	7
NMTAP	67	288	2
NMTAP	67	288	6
NMTAP	67	336	3
NMTAP	67	336	5
NMTAP	68	0	2
NMTAP	68	0	4
NMTAP	68	48	0
NMTAP	68	48	6
NMTAP	68	96	1
NMTAP	68	96	5
NMTAP	68	144	2
NMTAP	68	144	4
NMTAP	68	192	3
NMSTR	68	192	5
NMSI_	68	192	5	96	48	0
NMTAP	68	240	2
NMTAP	68	240	6
NMTAP	68	288	3
NMSTR	68	288	5
NMSI_	68	288	5	96	48	3
BRSTR	69	0	1
NMSI_	69	0	1	96	48	7
BRTAP	69	0	5
NMTAP	69	48	2
NMTAP	69	96	1
NMSTR	69	96	5
NMSI_	69	96	5	96	48	1
NMTAP	69	144	4
NMTAP	69	192	2
NMTAP	69	192	5
NMTAP	69	240	3
NMTAP	69	288	2
NMTAP	69	288	6
NMTAP	69	336	1
NMTAP	69	336	7
NMTAP	70	0	0
NMTAP	70	0	6
NMTAP	70	48	2
NMTAP	70	48	4
NMTAP	70	96	1
NMTAP	70	96	5
NMTAP	70	144	0
NMTAP	70	144	7
NMSTR	70	192	1
NMSI_	70	192	1	96	48	4
NMSTR	70	192	6
NMSI_	70	192	6	96	48	3
NMTAP	70	240	2
NMTAP	70	240	5
NMSTR	70	288	1
NMSI_	70	288	1	96	48	7
NMTAP	70	288	6
BRTAP	71	0	1
NMSTR	71	0	5
NMSI_	71	0	5	96	48	1
NMTAP	71	48	6
NMSTR	71	96	3
NMSI_	71	96	3	96	48	0
NMTAP	71	96	5
NMTAP	71	144	2
NMTAP	71	192	3
NMSTR	71	192	6
NMSI_	71	192	6	96	48	2
NMTAP	71	240	5
NMTAP	71	288	6
NMSTR	71	288	7
NMSI_	71	288	7	96	48	3
NMTAP	71	336	0
NMSTR	72	0	4
NMSI_	72	0	4	96	48	0
NMTAP	72	0	7
NMTAP	72	48	5
NMSTR	72	96	2
NMSI_	72	96	2	96	48	6
NMTAP	72	96	4
NMTAP	72	144	1
NMTAP	72	192	2
NMSTR	72	192	7
NMSCL	72	192	7	96	48	4
NMTAP	72	240	0
BRTAP	72	288	1
NMTAP	72	288	7
NMTAP	73	0	2
NMTAP	73	32	2
NMTAP	73	48	3
NMTAP	73	96	1
NMTAP	73	96	4
NMTAP	73	144	5
NMTAP	73	176	5
NMTAP	73	192	4
NMTAP	73	240	3
NMTAP	73	240	6
NMTAP	73	288	0
NMTAP	73	320	0
NMTAP	73	336	7
NMTAP	73	368	7
NMTAP	74	0	0
NMTAP	74	48	1
NMTAP	74	48	6
NMTAP	74	96	2
NMTAP	74	96	5
NMTAP	74	144	3
NMTAP	74	176	3
NMSTR	74	192	4
NMSI_	74	192	4	96	48	0
NMSI_	74	192	4	96	48	0
NMTAP	74	240	3
NMTAP	74	240	5
CNSCL	74	336	0	0	48	6
CNSCR	74	336	0	0	48	2

T_REC_TAP	519
T_REC_BRK	21
T_REC_XTP	16
T_REC_BXX	7
T_REC_HLD	33
T_REC_XHO	0
T_REC_BHO	2
T_REC_BXH	1
T_REC_STR	92
T_REC_BST	3
T_REC_XST	3
T_REC_XBS	0
T_REC_TTP	4
T_REC_THO	0
T_REC_SLD	98
T_REC_BSL	2
T_REC_ALL	801
T_NUM_TAP	634
T_NUM_BRK	36
T_NUM_HLD	33
T_NUM_SLD	98
T_NUM_ALL	801
T_JUDGE_TAP	665
T_JUDGE_HLD	68
T_JUDGE_SLD	100
T_JUDGE_ALL	833
TTM_EACHPAIRS	202
TTM_SCR_TAP	317000
TTM_SCR_BRK	93600
TTM_SCR_HLD	33000
TTM_SCR_SLD	147000
TTM_SCR_ALL	590600
TTM_SCR_S	569400
TTM_SCR_SS	587000
TTM_RAT_ACV	10061

