VERSION	0.00.00	1.04.00
FES_MODE	0
BPM_DEF	133.000	133.000	133.000	133.000
MET_DEF	4	4
RESOLUTION	384
CLK_DEF	384
COMPATIBLE_CODE	MA2

BPM	0	0	133.000
MET	0	0	4	4

NMHLD	3	0	6	96
NMTAP	3	96	4
NMTAP	3	192	7
NMTAP	3	240	7
NMTAP	3	288	0
NMHLD	4	0	1	96
NMTAP	4	96	0
NMTAP	4	192	0
NMTAP	4	192	1
NMTAP	4	288	2
NMTAP	4	288	3
NMHLD	5	0	1	96
NMTAP	5	96	3
NMTAP	5	192	0
NMTAP	5	240	0
NMTAP	5	288	7
NMHLD	6	0	6	96
NMTAP	6	96	7
NMTAP	6	192	3
NMTAP	6	192	5
NMTAP	6	288	4
NMTAP	6	288	5
NMHLD	7	0	6	96
NMTAP	7	96	4
NMTAP	7	192	7
NMTAP	7	240	7
NMTAP	7	288	0
NMHLD	8	0	1	96
NMTAP	8	96	0
NMTAP	8	192	0
NMTAP	8	192	1
NMTAP	8	288	2
NMTAP	8	288	3
NMHLD	9	0	1	96
NMTAP	9	96	3
NMTAP	9	192	0
NMTAP	9	240	0
NMTAP	9	288	7
NMHLD	10	0	6	96
NMTAP	10	96	7
NMTAP	10	192	4
NMTAP	10	192	5
NMTAP	10	240	4
NMTAP	10	240	5
NMTAP	10	288	3
NMTAP	10	288	6
NMSTR	11	0	2
NMSCL	11	0	2	96	96	7
NMSTR	11	192	6
NMSCL	11	192	6	96	96	3
NMTAP	12	0	1
NMSTR	12	96	0
NMSSL	12	96	0	96	144	4
NMHLD	13	0	5	96
NMTAP	13	96	4
NMHLD	13	192	2	96
NMTAP	13	288	3
NMHLD	14	0	7	96
NMTAP	14	96	6
NMHLD	14	192	0	96
NMTAP	14	288	1
NMSTR	15	0	6
NMSCL	15	0	6	96	96	3
NMSTR	15	192	2
NMSCL	15	192	2	96	96	7
NMHLD	16	0	6	96
NMHLD	16	96	4	96
NMHLD	16	192	3	96
NMTAP	16	288	1
NMSTR	17	0	0
NMSI_	17	0	0	96	96	3
NMSTR	17	192	7
NMSI_	17	192	7	96	96	4
NMHLD	18	0	2	96
NMHLD	18	96	0	96
NMHLD	18	192	7	96
NMTAP	18	288	5
NMTAP	19	0	4
NMTAP	19	0	6
NMTAP	19	96	3
NMTAP	19	192	2
NMTAP	19	192	4
NMTAP	19	288	5
NMSTR	20	0	4
NMSI_	20	0	4	96	96	0
NMTAP	20	0	6
NMSTR	20	192	7
NMSI_	20	192	7	96	96	3
NMHLD	21	0	2	672
NMTAP	21	96	3
NMTAP	21	192	3
NMTAP	21	288	3
NMTTP	22	0	3	E	0	M1
NMTTP	22	96	4	E	0	M1
NMTTP	22	192	5	E	0	M1
NMTTP	22	288	6	E	0	M1
NMSTR	23	0	7
NMSI_	23	0	7	96	96	3
NMSTR	23	192	1
NMSI_	23	192	1	96	96	5
NMHLD	24	0	6	96
NMTAP	24	96	4
NMTAP	24	192	3
NMTAP	24	192	5
NMTAP	24	288	2
NMTAP	24	288	6
NMTAP	25	0	1
NMTAP	25	48	1
NMTAP	25	96	3
NMTAP	25	192	6
NMTAP	25	240	6
NMSTR	25	288	4
NMSUL	25	288	4	96	192	3
EXTAP	26	288	2
EXTAP	26	288	5
NMSTR	27	0	1
NMSI_	27	0	1	96	96	5
NMSTR	27	192	6
NMSI_	27	192	6	96	96	2
NMHLD	28	0	1	288
NMHLD	28	192	3	96
NMSTR	29	0	2
NMSI_	29	0	2	96	96	6
NMSTR	29	192	5
NMSI_	29	192	5	96	96	1
NMTAP	30	0	0
NMSTR	30	96	0
NMSUR	30	96	0	96	96	4
NMHLD	31	0	4	96
NMHLD	31	0	5	96
NMHLD	31	192	2	96
NMHLD	31	192	3	96
NMTAP	32	0	2
NMTAP	32	0	3
NMTAP	32	96	4
NMTAP	32	96	5
NMTAP	32	192	2
NMTAP	32	192	3
BXTAP	32	288	4
BXTAP	32	288	5
NMSTR	33	0	6
NMSCL	33	0	6	96	96	3
NMSTR	33	192	2
NMSCL	33	192	2	96	96	7
NMHLD	34	0	5	96
NMSTR	34	96	4
NMSF_	34	96	4	96	96	0
NMTAP	35	0	1
NMTAP	35	0	3
NMTAP	35	96	1
NMTAP	35	96	3
NMTAP	35	192	4
NMTAP	35	192	6
NMTAP	35	288	4
NMSTR	35	288	6
NMSXL	35	288	6	96	240	3
NMHLD	36	288	2	96
NMTAP	37	0	3
NMTAP	37	96	2
NMTAP	37	96	3
NMTAP	37	192	4
NMTAP	37	192	5
NMTAP	37	288	4
NMTAP	37	288	5
NMTTP	38	0	3	B	0	M1
NMTTP	38	0	3	E	0	M1
NMTTP	38	0	4	E	0	M1
NMTTP	38	96	1	B	0	M1
NMTTP	38	96	1	E	0	M1
NMTTP	38	96	2	E	0	M1
NMTTP	38	192	0	E	0	M1
NMTTP	38	192	7	B	0	M1
NMTTP	38	192	7	E	0	M1
NMTTP	38	288	5	B	0	M1
NMTTP	38	288	5	E	0	M1
NMTTP	38	288	6	E	0	M1
NMSTR	39	0	3
NMSCL	39	0	3	96	72	1
NMSTR	39	192	4
NMSCR	39	192	4	96	72	6
NMSTR	40	0	3
NMSCL	40	0	3	96	96	0
NMSTR	40	192	4
NMSCR	40	192	4	96	96	7
EXHLD	41	0	0	96
NMTAP	41	96	7
NMTAP	41	144	7
NMTAP	41	192	7
NMTAP	41	288	2
NMTAP	41	288	5
NMSTR	42	0	6
NMSCR	42	0	6	96	96	1
BXTAP	42	288	0
BXTAP	42	288	7
NMTAP	43	0	1
NMTAP	43	48	1
NMTAP	43	96	3
NMHLD	43	144	2	96
NMHLD	43	240	0	96
NMHLD	43	336	7	96
NMHLD	44	48	5	96
NMTAP	44	144	3
NMTAP	44	240	4
NMTAP	44	240	5
NMTAP	44	288	4
NMTAP	44	288	5
NMTAP	45	0	6
NMTAP	45	48	6
NMTAP	45	96	4
NMHLD	45	144	5	96
NMHLD	45	240	7	96
NMHLD	45	336	0	96
NMSTR	46	48	2
NMSXL	46	48	2	96	96	3
CNSI_	46	240	3	0	96	0
NMTAP	47	0	6
NMHLD	47	48	6	96
NMTAP	47	144	7
NMTAP	47	240	2
NMTAP	47	288	2
NMTAP	47	336	3
NMTAP	48	48	1
NMTAP	48	48	4
NMTAP	48	144	4
NMTAP	48	144	5
NMTAP	48	192	4
NMTAP	48	192	5
NMTAP	48	288	3
NMTAP	48	288	6
EXTAP	49	0	2
EXTAP	49	0	4
EXTAP	49	72	1
EXTAP	49	72	5
BRTAP	49	144	1
BRTAP	49	144	5
NMSTR	49	240	0
NMSCR	49	240	0	96	240	7
NMTTP	49	336	0	C	1	M1
EXTAP	50	288	1
EXTAP	50	288	6
NMTAP	51	0	0
NMHLD	51	0	7	96
NMTAP	51	96	4
NMHLD	51	192	0	96
NMTAP	51	192	6
NMTAP	51	288	3
NMTAP	52	0	1
NMHLD	52	0	7	96
NMTAP	52	96	4
NMTAP	52	192	0
NMTAP	52	192	6
NMTAP	52	288	2
NMTAP	52	288	4
NMHLD	53	0	0	96
NMTAP	53	0	7
NMTAP	53	96	2
NMTAP	53	192	1
NMHLD	53	192	7	96
NMTAP	53	288	5
NMHLD	54	0	0	96
NMTAP	54	0	6
NMTAP	54	96	2
NMTAP	54	192	1
NMTAP	54	192	7
NMTAP	54	288	2
NMTAP	54	288	6
NMTAP	55	0	0
NMTAP	55	0	1
NMTAP	55	96	2
NMTAP	55	96	3
NMTAP	55	192	4
NMTAP	55	192	5
NMTAP	55	288	6
NMTAP	55	288	7
NMTAP	56	0	0
NMTAP	56	0	1
NMTAP	56	96	2
NMTAP	56	96	3
NMTAP	56	192	4
NMTAP	56	192	5
NMHLD	56	288	6	192
NMHLD	57	0	4	96
NMTAP	57	192	3
NMTAP	57	192	4
BXSTR	57	288	2
BRSXR	57	288	2	96	240	4
BXSTR	57	288	5
BRSXL	57	288	5	96	240	3
EXTAP	59	0	2
EXTAP	59	0	5
BRTAP	59	96	0
BRTAP	59	96	7
NMHLD	59	192	6	96
NMTAP	59	288	4
NMTAP	60	0	4
NMTAP	60	0	6
NMTAP	60	96	6
NMTAP	60	96	7
NMTAP	60	192	3
NMTAP	60	192	5
NMTAP	60	288	0
NMTAP	60	288	7
NMHLD	61	0	6	96
NMTAP	61	96	7
NMHLD	61	192	1	96
NMTAP	61	288	0
NMTAP	62	0	1
NMTAP	62	0	3
NMTAP	62	96	0
NMTAP	62	96	1
NMTAP	62	192	2
NMTAP	62	192	4
NMTAP	62	288	0
NMTAP	62	288	7
NMHLD	63	0	2	96
NMTAP	63	96	3
NMHLD	63	192	5	96
NMTAP	63	288	4
NMTAP	64	0	6
NMTAP	64	0	7
NMTAP	64	96	2
NMTAP	64	96	4
NMTAP	64	192	0
NMTAP	64	192	6
NMTAP	64	288	4
NMTAP	64	288	5
NMHLD	65	0	2	96
NMTAP	65	96	0
NMHLD	65	192	5	96
NMTAP	65	288	7
NMTAP	66	0	6
NMTAP	66	0	7
NMTAP	66	96	4
NMTAP	66	96	5
NMTAP	66	192	2
NMTAP	66	192	3
BRTAP	66	288	1
BRTAP	66	288	4
NMHLD	67	0	5	96
NMTAP	67	96	4
NMHLD	67	192	6	96
NMTAP	67	288	7
NMTAP	68	0	3
NMTAP	68	0	5
NMTAP	68	96	0
NMTAP	68	96	7
NMTAP	68	192	3
NMTAP	68	192	4
NMTAP	68	288	1
NMTAP	68	288	7
NMHLD	69	0	2	96
NMTAP	69	96	3
NMHLD	69	192	1	96
NMTAP	69	288	0
NMTAP	70	0	2
NMTAP	70	0	4
NMTAP	70	96	0
NMTAP	70	96	7
NMTAP	70	192	3
NMTAP	70	192	4
NMTAP	70	288	0
NMTAP	70	288	6
NMHLD	71	0	1	96
NMSTR	71	96	0
NMSCR	71	96	0	96	96	3
NMTAP	72	0	4
NMTAP	72	0	5
NMTAP	72	96	6
NMTAP	72	96	7
NMTAP	72	192	2
NMTAP	72	192	3
NMTAP	72	288	0
NMTAP	72	288	1
NMHLD	73	0	5	96
NMSTR	73	96	4
NMSCR	73	96	4	96	96	7
NMTAP	74	0	0
NMTAP	74	0	1
NMTAP	74	96	4
NMTAP	74	96	5
NMTAP	74	192	0
NMTAP	74	192	6
BRTAP	74	288	1
BRTAP	74	288	5
BRTAP	74	336	1
BRTAP	74	336	5

T_REC_TAP	222
T_REC_BRK	10
T_REC_XTP	10
T_REC_BXX	4
T_REC_HLD	57
T_REC_XHO	1
T_REC_BHO	0
T_REC_BXH	0
T_REC_STR	30
T_REC_BST	0
T_REC_XST	0
T_REC_XBS	2
T_REC_TTP	17
T_REC_THO	0
T_REC_SLD	30
T_REC_BSL	2
T_REC_ALL	385
T_NUM_TAP	279
T_NUM_BRK	18
T_NUM_HLD	58
T_NUM_SLD	30
T_NUM_ALL	385
T_JUDGE_TAP	295
T_JUDGE_HLD	134
T_JUDGE_SLD	32
T_JUDGE_ALL	461
TTM_EACHPAIRS	94
TTM_SCR_TAP	139500
TTM_SCR_BRK	46800
TTM_SCR_HLD	58000
TTM_SCR_SLD	45000
TTM_SCR_ALL	289300
TTM_SCR_S	278900
TTM_SCR_SS	287500
TTM_RAT_ACV	10062

