VERSION	0.00.00	1.04.00
FES_MODE	0
BPM_DEF	185.000	185.000	280.000	150.000
MET_DEF	4	4
RESOLUTION	384
CLK_DEF	384
COMPATIBLE_CODE	MA2

BPM	0	0	185.000
BPM	25	0	280.000
BPM	41	0	185.000
BPM	79	96	180.000
BPM	80	96	175.000
BPM	81	96	170.000
BPM	82	96	160.000
BPM	83	96	155.000
BPM	84	96	150.000
BPM	95	96	185.000
MET	0	0	4	4
MET	58	0	4	3
MET	61	0	4	4
MET	65	0	4	3
MET	68	288	4	6
MET	70	96	4	4
MET	104	96	4	3
MET	107	96	4	4

NMTAP	1	336	2
NMTAP	1	360	3
EXHLD	2	0	2	96
NMHLD	2	96	3	96
NMHLD	2	192	4	96
NMTAP	2	288	5
NMTAP	2	336	4
NMTAP	2	336	5
NMSTR	3	48	6
NMSCR	3	48	6	96	144	3
NMTAP	3	72	7
NMTAP	3	96	6
NMHLD	3	144	1	144
NMTAP	3	336	5
NMTAP	3	360	4
EXHLD	4	0	5	96
NMHLD	4	96	4	96
NMHLD	4	192	3	96
NMTAP	4	288	2
NMTAP	4	336	2
NMTAP	4	336	3
NMSTR	5	48	1
NMSCL	5	48	1	96	144	4
NMTAP	5	72	0
NMTAP	5	96	1
NMHLD	5	144	6	144
EXTAP	6	0	2
EXTAP	6	0	3
NMTAP	6	96	1
NMTAP	6	96	2
NMTAP	6	192	0
NMTAP	6	192	1
NMTAP	6	288	0
NMTAP	6	288	7
NMTAP	7	0	6
NMTAP	7	0	7
NMTAP	7	96	5
NMTAP	7	96	6
NMTAP	7	192	4
NMTAP	7	192	5
NMTAP	7	288	3
NMTAP	7	288	4
NMSTR	8	0	2
NMSXR	8	0	2	96	192	7
NMTAP	8	0	3
NMTAP	8	48	3
NMTAP	8	96	4
NMTAP	8	144	4
NMTAP	8	192	5
NMTAP	8	240	5
NMTAP	8	288	6
NMTAP	8	336	6
NMTAP	9	0	1
NMTAP	9	24	0
NMTAP	9	48	1
NMTAP	9	72	0
NMTAP	9	96	1
NMTAP	9	120	0
NMTAP	9	144	1
NMTAP	9	168	0
NMSTR	9	192	1
NMSI_	9	192	1	96	48	6
NMTAP	9	288	1
NMTAP	9	288	6
BRTAP	10	0	3
BRTAP	10	0	4
NMTAP	10	96	6
NMSTR	10	96	7
NMSI_	10	96	7	96	48	3
NMSTR	10	192	6
NMSI_	10	192	6	96	48	2
NMTAP	10	192	7
NMSTR	10	288	1
NMSI_	10	288	1	96	48	5
NMTAP	10	288	6
NMSTR	11	0	0
NMSI_	11	0	0	96	48	4
NMTAP	11	0	1
NMTAP	11	96	0
NMSTR	11	96	3
NMSI_	11	96	3	96	48	7
NMTAP	11	192	3
NMSTR	11	192	4
NMSI_	11	192	4	96	48	0
NMTAP	11	288	1
NMTAP	11	288	4
NMTAP	11	336	1
NMTAP	11	360	2
EXTAP	12	0	3
EXTAP	12	0	7
NMTAP	12	96	4
NMSTR	12	96	5
NMSI_	12	96	5	96	48	1
NMSTR	12	192	2
NMSI_	12	192	2	96	48	6
NMTAP	12	192	5
NMTAP	12	288	2
NMTAP	12	288	3
NMTAP	12	336	4
EXTAP	13	0	5
NMTAP	13	48	5
NMTAP	13	72	4
NMTAP	13	120	4
NMTAP	13	144	5
NMSTR	13	192	3
NMSI_	13	192	3	96	48	1
NMSTR	13	192	6
NMSI_	13	192	6	96	48	0
EXTAP	14	0	2
EXTAP	14	0	3
EXTAP	14	96	4
EXTAP	14	96	5
EXSTR	14	192	0
NMSSL	14	192	0	96	384	4
EXSTR	14	192	7
NMSSR	14	192	7	96	384	3
NMTAP	16	0	2
NMTAP	16	0	5
NMHLD	16	32	2	352
NMHLD	16	32	5	352
EXSTR	17	96	3
NMSF_	17	96	3	96	120	7
EXTAP	18	48	6
EXHLD	18	156	6	516
NMTTP	18	264	3	B	0	M1
NMTTP	18	312	4	B	0	M1
NMTTP	18	360	5	B	0	M1
BXHLD	19	192	0	96
EXSTR	20	0	1
NMSI_	20	0	1	96	288	6
EXSTR	20	0	2
NMSI_	20	0	2	96	288	5
NMTAP	21	96	0
NMTAP	21	96	7
NMTAP	21	240	0
NMHLD	21	240	1	48
NMTAP	21	288	7
EXHLD	22	0	6	96
EXTAP	22	0	7
NMTAP	22	96	1
NMTAP	22	240	0
NMHLD	22	240	1	48
NMTAP	22	288	7
EXTAP	23	0	6
EXTAP	23	0	7
NMTAP	23	48	0
NMTAP	23	48	6
NMTAP	23	96	1
NMTAP	23	96	6
NMTAP	23	144	2
NMTAP	23	144	6
NMTAP	23	192	2
NMTAP	23	192	6
NMTAP	23	240	2
NMTAP	23	240	5
NMTAP	23	288	2
NMTAP	23	288	4
NMTAP	23	336	2
NMTAP	23	336	3
NMTAP	24	0	1
NMTAP	24	0	4
NMTAP	24	96	1
NMTAP	24	120	0
NMTAP	24	144	1
NMTAP	24	168	0
NMTAP	24	192	1
NMTAP	24	216	0
NMTAP	24	240	1
NMTAP	24	264	0
EXTAP	24	288	1
EXTAP	24	300	2
EXTAP	24	312	3
EXTAP	24	324	4
EXTAP	24	336	7
EXTAP	24	348	6
EXTAP	24	360	5
EXTAP	24	372	4
BXTAP	25	0	1
EXTAP	25	96	1
EXTAP	25	96	4
EXTAP	25	192	3
EXTAP	25	192	6
EXTAP	25	288	3
EXTAP	25	288	6
EXTAP	26	0	1
EXTAP	26	32	2
EXTAP	26	64	3
EXTAP	26	96	4
EXTAP	26	96	5
EXTAP	26	192	3
EXTAP	26	192	4
EXTAP	26	288	2
EXTAP	26	288	5
NMHLD	26	336	2	96
NMHLD	26	336	5	96
EXTAP	27	96	1
EXTAP	27	96	4
EXTAP	27	192	1
EXTAP	27	192	4
EXTAP	27	288	3
EXTAP	27	288	6
NMSTR	27	336	2
NMSLR	27	336	2	96	240	0
NMSTR	27	336	7
NMSLL	27	336	7	96	240	1
BRTAP	29	0	6
BRTAP	29	0	7
BRTAP	29	96	6
BRTAP	29	96	7
BRTAP	29	192	2
BRTAP	29	192	3
BRTAP	29	288	2
BRTAP	29	288	3
BRTAP	30	0	0
BRTAP	30	0	1
BRTAP	30	96	0
BRTAP	30	96	1
BRTAP	30	192	5
BRTAP	30	240	4
BRTAP	30	288	3
BRTAP	30	288	6
BRTAP	31	0	0
BRTAP	31	0	2
BRTAP	31	96	0
BRTAP	31	96	2
BRTAP	31	192	5
BRTAP	31	192	7
BRTAP	31	288	5
BRTAP	31	288	7
EXHLD	32	0	0	96
EXHLD	32	0	1	96
EXTAP	32	192	0
EXTAP	32	192	1
EXTAP	32	216	7
EXTAP	32	240	6
EXTAP	32	264	5
EXTAP	32	288	4
EXTAP	33	0	2
EXTAP	33	0	3
NMTAP	33	96	2
NMTAP	33	96	3
NMTAP	33	192	0
NMTAP	33	192	1
NMTAP	33	288	0
NMTAP	33	288	1
NMHLD	34	0	3	96
NMHLD	34	96	2	96
NMHLD	34	192	1	96
NMTAP	34	288	0
EXTAP	35	0	1
EXTAP	35	0	2
NMTAP	35	96	1
NMTAP	35	96	2
NMTAP	35	192	0
NMTAP	35	192	3
NMTAP	35	288	0
NMTAP	35	288	3
NMSTR	36	0	1
NMSI_	36	0	1	96	192	3
NMSTR	36	0	2
NMSI_	36	0	2	96	192	0
EXTAP	37	0	2
EXTAP	37	24	3
EXTAP	37	48	2
EXTAP	37	72	3
EXTAP	37	96	2
EXTAP	37	120	3
EXTAP	37	144	2
EXTAP	37	168	3
EXTAP	37	192	2
BXTAP	37	288	0
BXTAP	37	288	1
EXTAP	38	0	2
EXTAP	38	24	3
EXTAP	38	48	2
EXTAP	38	72	3
EXTAP	38	96	2
EXTAP	38	120	3
EXTAP	38	144	2
EXTAP	38	168	3
EXTAP	38	192	2
BXTAP	38	288	0
BXTAP	38	288	1
EXSTR	39	0	3
NMSLL	39	0	3	96	480	7
NMSLR	39	0	3	96	480	7
EXTAP	41	0	4
EXHLD	41	0	5	288
NMSTR	41	96	6
NMSLL	41	96	6	96	96	0
NMTAP	41	144	6
NMTAP	41	192	6
EXHLD	42	0	2	288
EXTAP	42	0	3
NMSTR	42	96	1
NMSLR	42	96	1	96	96	7
NMTAP	42	144	1
NMTAP	42	192	1
EXHLD	43	0	6	288
EXTAP	43	0	7
NMSTR	43	96	5
NMSLR	43	96	5	96	96	3
NMTAP	43	144	5
NMTAP	43	192	5
EXTAP	44	0	0
EXHLD	44	0	1	288
NMSTR	44	96	2
NMSLL	44	96	2	96	96	4
NMTAP	44	144	2
NMTAP	44	192	2
EXSTR	45	0	6
NMSI_	45	0	6	96	96	1
EXTAP	45	0	7
NMSTR	45	96	1
NMSI_	45	96	1	96	96	4
NMSTR	45	192	4
NMSI_	45	192	4	96	96	7
NMSTR	45	288	7
NMSI_	45	288	7	96	96	2
NMSTR	46	0	2
NMSI_	46	0	2	96	96	5
NMSTR	46	96	5
NMSI_	46	96	5	96	96	0
NMSTR	46	192	0
NMSI_	46	192	0	96	96	3
NMSTR	46	288	3
NMSI_	46	288	3	96	96	6
EXSTR	47	0	6
NMSI_	47	0	6	96	96	1
NMTAP	47	48	6
NMTAP	47	96	1
NMTAP	47	144	1
EXTAP	47	192	3
EXSTR	47	240	3
NMSI_	47	240	3	96	48	0
NMSI_	47	240	3	96	48	6
BRTAP	47	336	3
EXTAP	48	96	1
EXTAP	48	96	5
NMTAP	48	192	3
NMTAP	48	216	4
NMTAP	48	240	3
NMTAP	48	264	4
NMTAP	48	288	3
NMTAP	48	312	4
NMTAP	48	336	3
EXSTR	49	0	2
NMSUR	49	0	2	96	96	7
EXSTR	49	0	5
NMSUL	49	0	5	96	96	0
NMTAP	49	288	6
NMTAP	49	336	5
BRTAP	50	0	2
BRTAP	50	0	4
BRHLD	50	48	1	288
BRHLD	50	48	3	288
NMHLD	51	0	4	96
NMHLD	51	0	6	96
NMHLD	51	144	3	96
NMHLD	51	144	4	96
BRTAP	51	288	1
BRTAP	51	288	6
EXSTR	52	0	2
NMSI_	52	0	2	96	48	0
NMHLD	52	48	3	48
NMTAP	52	96	2
NMHLD	52	144	4	48
EXSTR	52	192	7
NMSI_	52	192	7	96	48	3
NMHLD	52	240	5	48
NMTAP	52	288	7
NMHLD	52	336	6	48
EXSTR	53	0	2
NMSI_	53	0	2	96	48	0
NMHLD	53	48	5	48
NMTAP	53	96	2
NMHLD	53	144	4	48
EXSTR	53	192	7
NMSI_	53	192	7	96	48	3
NMTAP	53	240	3
NMTAP	53	288	3
NMTAP	53	288	7
EXTAP	54	0	1
EXTAP	54	0	4
EXHLD	54	48	1	240
EXSTR	54	48	4
NMSXL	54	48	4	96	144	7
BRTAP	55	0	4
BRSTR	55	0	5
NMSCR	55	0	5	96	48	0
NMTAP	55	96	1
NMTAP	55	144	1
NMSTR	55	192	2
NMSI_	55	192	2	96	48	6
NMTAP	55	216	3
NMTAP	55	240	1
NMTAP	55	264	3
NMTAP	55	288	2
EXSTR	56	0	5
NMSI_	56	0	5	96	48	7
NMHLD	56	48	4	48
NMTAP	56	96	5
NMHLD	56	144	3	48
EXSTR	56	192	0
NMSI_	56	192	0	96	48	4
NMHLD	56	240	2	48
NMTAP	56	288	0
NMTAP	56	336	1
BRTAP	57	0	1
BRTAP	57	0	5
BRTAP	57	48	2
BRTAP	57	48	6
BRTAP	57	96	1
BRTAP	57	96	5
BRTAP	57	144	2
BRTAP	57	144	6
NMTTP	57	192	7	E	0	M1
NMTTP	57	224	7	B	0	M1
NMTTP	57	256	0	B	0	M1
NMTTP	57	288	1	E	0	M1
NMHLD	58	0	3	288
NMTAP	58	0	4
NMTTP	58	96	1	B	0	M1
NMTTP	58	96	2	E	0	M1
NMTTP	58	192	0	A	0	M1
NMTTP	58	192	1	D	0	M1
NMHLD	58	288	4	288
NMTTP	59	0	6	B	0	M1
NMTTP	59	0	6	E	0	M1
NMTTP	59	96	7	A	0	M1
NMTTP	59	96	7	D	0	M1
NMHLD	59	192	3	288
NMTTP	59	288	1	B	0	M1
NMTTP	59	288	2	E	0	M1
NMTTP	60	0	0	A	0	M1
NMTTP	60	0	1	D	0	M1
NMHLD	60	96	4	96
NMTTP	60	192	6	B	0	M1
NMTTP	60	192	6	E	0	M1
NMTTP	60	288	0	B	0	M1
NMTTP	60	288	0	E	0	M1
NMTTP	60	288	0	A	0	M1
NMTTP	60	288	0	D	0	M1
NMTTP	60	288	1	E	0	M1
NMTTP	60	288	7	B	0	M1
NMTTP	60	288	7	E	0	M1
NMTTP	60	288	7	A	0	M1
BRSTR	61	0	2
NMSI_	61	0	2	96	48	0
BRTAP	61	0	3
NMTAP	61	96	2
NMHLD	61	144	4	48
EXSTR	61	192	7
NMSI_	61	192	7	96	48	3
NMHLD	61	240	5	48
NMTAP	61	288	7
NMHLD	61	336	6	48
EXSTR	62	0	2
NMSI_	62	0	2	96	48	0
NMHLD	62	48	5	48
NMTAP	62	96	2
NMSTR	62	144	4
NMSI_	62	144	4	96	48	6
EXSTR	62	192	7
NMSI_	62	192	7	96	48	3
NMTAP	62	240	4
NMTAP	62	288	7
EXTAP	63	0	3
EXTAP	63	0	5
NMTAP	63	48	2
NMTAP	63	48	5
NMTAP	63	96	1
NMTAP	63	96	5
NMTAP	63	144	0
NMTAP	63	144	5
EXTAP	63	192	6
NMTAP	63	216	7
NMTAP	63	240	6
NMTAP	63	264	7
NMTAP	63	288	6
NMTAP	63	312	7
NMTAP	63	336	6
NMTAP	63	360	7
EXTAP	64	0	6
NMTAP	64	12	5
NMTAP	64	24	4
NMTAP	64	36	3
NMTAP	64	48	2
NMTAP	64	60	1
NMTAP	64	72	0
NMTAP	64	84	7
NMTAP	64	96	6
NMTAP	64	108	5
NMTAP	64	120	4
NMTAP	64	132	3
NMTAP	64	144	2
NMTAP	64	156	1
NMTAP	64	168	0
NMTAP	64	180	7
EXTAP	64	192	2
EXTAP	64	192	6
NMTAP	64	204	3
NMTAP	64	216	4
NMTAP	64	228	5
NMTAP	64	240	6
NMTAP	64	252	7
NMTAP	64	264	0
NMTAP	64	276	1
NMTAP	64	288	2
NMTAP	64	300	3
NMTAP	64	312	4
NMTAP	64	324	5
NMTAP	64	336	6
NMTAP	64	348	7
NMTAP	64	360	0
NMTAP	64	372	1
BXSTR	65	0	2
NMSI_	65	0	2	96	96	5
NMSTR	65	96	5
NMSI_	65	96	5	96	96	1
NMSTR	65	192	1
NMSI_	65	192	1	96	96	6
NMTAP	65	288	6
NMTAP	66	0	5
NMTAP	66	96	4
NMSTR	66	192	6
NMSI_	66	192	6	96	96	1
NMSTR	66	288	1
NMSI_	66	288	1	96	96	5
NMSTR	67	0	5
NMSI_	67	0	5	96	96	2
NMTAP	67	96	2
NMTAP	67	288	0
NMTAP	67	336	1
NMSTR	68	0	2
NMSI_	68	0	2	96	96	4
NMSTR	68	96	4
NMSI_	68	96	4	96	96	0
NMSTR	68	192	0
NMSI_	68	192	0	96	96	6
NMSTR	68	288	6
NMSCR	68	288	6	96	192	2
NMHLD	69	0	4	192
BXSTR	69	288	3
NMSI_	69	288	3	96	48	7
BXSTR	69	288	5
NMSI_	69	288	5	96	48	1
BXTAP	69	336	3
BXTAP	69	336	5
EXSTR	70	96	2
NMSCL	70	96	2	96	48	7
NMTAP	70	192	4
NMTAP	70	240	4
NMSTR	70	288	5
NMSCR	70	288	5	96	48	0
NMTAP	71	0	3
NMSTR	71	96	1
NMSCR	71	96	1	96	48	4
NMTAP	71	192	7
NMTAP	71	240	7
NMSTR	71	288	6
NMSCL	71	288	6	96	48	3
NMTAP	72	0	0
NMSTR	72	96	2
NMSI_	72	96	2	96	48	7
NMTAP	72	168	3
NMTAP	72	192	2
NMTAP	72	240	4
NMSTR	72	288	5
NMSI_	72	288	5	96	48	0
NMTAP	72	360	4
NMTAP	73	0	5
NMTAP	73	48	3
NMSTR	73	96	1
NMSI_	73	96	1	96	48	4
NMTAP	73	168	0
NMTAP	73	192	1
NMTAP	73	240	7
NMSTR	73	288	6
NMSCL	73	288	6	96	48	3
NMTAP	74	0	2
NMTAP	74	0	6
EXSTR	74	96	1
NMSI_	74	96	1	96	48	5
NMSTR	74	144	7
NMSI_	74	144	7	96	48	3
NMSTR	74	288	0
NMSI_	74	288	0	96	48	4
NMSTR	74	336	6
NMSI_	74	336	6	96	48	2
NMSTR	75	96	1
NMSI_	75	96	1	96	48	5
NMSTR	75	144	7
NMSI_	75	144	7	96	48	3
NMSTR	75	288	0
NMSI_	75	288	0	96	48	4
NMSTR	75	336	6
NMSI_	75	336	6	96	48	2
NMHLD	76	96	0	72
NMHLD	76	168	2	72
NMSTR	76	240	4
NMSSL	76	240	4	96	96	0
NMTAP	76	288	4
BRTAP	76	336	7
BRTAP	77	0	7
EXTAP	77	96	1
EXTAP	77	96	6
NMTAP	77	144	2
NMTAP	77	168	3
NMTAP	77	192	2
NMTAP	77	240	4
NMTAP	77	240	5
NMTAP	77	288	3
NMTAP	77	312	4
NMTAP	77	336	2
NMTAP	77	360	5
NMTAP	78	0	1
NMTAP	78	24	6
NMTAP	78	48	0
NMTAP	78	72	7
BRHLD	78	96	1	1536
NMTTP	78	192	5	B	0	M1
NMTTP	78	288	4	B	0	M1
NMTTP	79	0	3	B	0	M1
NMTTP	79	96	2	B	0	M1
NMTTP	79	192	0	B	0	M1
NMTTP	79	288	7	B	0	M1
NMTTP	80	0	6	B	0	M1
NMTTP	80	96	5	B	0	M1
NMTTP	80	96	5	A	0	M1
NMTTP	80	192	4	B	0	M1
NMTTP	80	192	4	A	0	M1
NMTTP	80	288	3	B	0	M1
NMTTP	80	288	3	A	0	M1
NMTTP	81	0	2	B	0	M1
NMTTP	81	0	2	A	0	M1
NMTTP	81	96	0	B	0	M1
NMTTP	81	96	0	A	0	M1
NMTTP	81	192	7	B	0	M1
NMTTP	81	192	7	A	0	M1
NMTTP	81	288	6	B	0	M1
NMTTP	81	288	6	A	0	M1
NMTTP	82	0	5	B	0	M1
NMTTP	82	0	5	A	0	M1
NMSTR	82	96	4
NMSCR	82	96	4	96	48	7
NMTAP	82	144	4
NMTTP	82	192	2	B	0	M1
NMTTP	82	192	3	B	0	M1
NMTTP	82	192	3	E	0	M1
EXTAP	82	288	0
NMHLD	82	336	0	96
NMTAP	83	0	1
NMHLD	83	48	1	96
EXTAP	83	96	2
NMHLD	83	144	2	96
NMTAP	83	192	3
NMHLD	83	240	3	96
EXTAP	83	288	4
NMTAP	83	336	4
NMTAP	84	0	2
NMTAP	84	0	5
NMTAP	84	96	3
NMTAP	84	120	4
NMTAP	84	144	2
NMTAP	84	168	4
NMTAP	84	192	1
NMTAP	84	216	4
NMTAP	84	240	0
NMTAP	84	264	4
NMTAP	84	288	0
NMTAP	84	304	1
NMTAP	84	320	2
NMTAP	84	336	7
NMTAP	84	352	6
NMTAP	84	368	5
NMTAP	85	0	1
NMTAP	85	16	2
NMTAP	85	32	3
NMTAP	85	48	6
NMTAP	85	64	5
NMTAP	85	80	4
EXTAP	85	96	2
EXTAP	85	96	3
NMTAP	85	144	1
NMTAP	85	192	0
NMTAP	85	192	7
NMTAP	85	240	6
NMSTR	85	288	4
NMSI_	85	288	4	96	48	0
NMSTR	85	288	5
NMSI_	85	288	5	96	48	1
BRTAP	86	0	4
BRTAP	86	0	5
EXTAP	86	96	3
EXHLD	86	96	6	192
NMTTP	86	192	0	A	0	M1
NMTTP	86	204	0	B	0	M1
NMTTP	86	216	0	C	0	M1
NMTTP	86	228	4	B	0	M1
NMTTP	86	240	4	A	0	M1
NMHLD	86	288	1	192
NMTTP	87	0	7	A	0	M1
NMTTP	87	12	7	B	0	M1
NMTTP	87	24	0	C	0	M1
NMTTP	87	36	3	B	0	M1
NMTTP	87	48	3	A	0	M1
NMHLD	87	96	6	192
NMTTP	87	192	0	A	0	M1
NMTTP	87	204	0	B	0	M1
NMTTP	87	216	0	C	0	M1
NMTTP	87	228	4	B	0	M1
NMTTP	87	240	4	A	0	M1
NMHLD	87	288	1	192
NMTTP	88	0	7	A	0	M1
NMTTP	88	12	7	B	0	M1
NMTTP	88	24	0	C	0	M1
NMTTP	88	36	3	B	0	M1
NMTTP	88	48	3	A	0	M1
NMSTR	88	96	5
NMSSL	88	96	5	96	96	1
NMTAP	88	192	0
NMHLD	88	288	2	192
NMTTP	89	0	4	A	0	M1
NMTTP	89	12	4	B	0	M1
NMTTP	89	24	0	C	0	M1
NMTTP	89	36	0	B	0	M1
NMTTP	89	48	0	A	0	M1
NMHLD	89	96	5	192
NMTTP	89	192	3	A	0	M1
NMTTP	89	204	3	B	0	M1
NMTTP	89	216	0	C	0	M1
NMTTP	89	228	7	B	0	M1
NMTTP	89	240	7	A	0	M1
NMTAP	89	288	2
NMTAP	90	0	1
NMTAP	90	24	0
NMTAP	90	48	2
BRSTR	90	96	0
NMSI_	90	96	0	96	48	5
NMSI_	90	96	0	96	48	6
BRTAP	90	96	7
NMSTR	90	192	0
NMSI_	90	192	0	96	48	2
NMSI_	90	192	0	96	48	3
NMTAP	90	288	0
NMSTR	91	0	4
NMSI_	91	0	4	96	48	6
NMSI_	91	0	4	96	48	7
NMTAP	91	32	4
NMTAP	91	64	4
NMSTR	91	96	4
NMSI_	91	96	4	96	48	1
NMSI_	91	96	4	96	48	2
NMTAP	91	192	4
EXHLD	91	288	0	48
EXHLD	91	288	1	48
NMTAP	91	352	2
NMTAP	91	352	7
NMTAP	91	368	3
NMTAP	91	368	6
NMTAP	92	0	4
NMTAP	92	0	5
BRTAP	92	96	3
BRTAP	92	96	4
BXTAP	92	192	0
BXTAP	92	192	1
BXTAP	92	240	6
BXTAP	92	240	7
BXTAP	92	264	6
BXTAP	92	264	7
BXTAP	92	312	4
BXTAP	92	312	5
BXTAP	92	336	4
BXTAP	92	336	5
BXTAP	93	0	3
BXTAP	93	24	2
BXTAP	93	48	1
BXTAP	93	72	0
EXSTR	93	96	7
NMSUL	93	96	7	96	192	4
NMSTR	93	144	0
NMSUR	93	144	0	96	144	3
NMTAP	93	192	7
NMTAP	93	240	0
BXTAP	94	96	3
BXTAP	94	96	4
NMTTP	94	120	3	A	0	M1
NMTTP	94	120	3	D	0	M1
NMTTP	94	120	4	A	0	M1
NMTTP	94	120	4	D	0	M1
NMTTP	94	120	5	D	0	M1
NMTTP	94	132	3	B	0	M1
NMTTP	94	132	3	E	0	M1
NMTTP	94	132	4	B	0	M1
NMTTP	94	132	5	E	0	M1
NMTTP	94	144	0	C	1	M1
NMTTP	94	144	1	B	0	M1
NMTTP	94	144	2	B	0	M1
NMTTP	94	144	2	E	0	M1
NMTTP	94	144	5	B	0	M1
NMTTP	94	144	6	B	0	M1
NMTTP	94	144	6	E	0	M1
NMTTP	94	156	0	B	0	M1
NMTTP	94	156	1	E	0	M1
NMTTP	94	156	7	B	0	M1
NMTTP	94	156	7	E	0	M1
NMTTP	94	168	0	A	0	M1
NMTTP	94	168	0	D	0	M1
NMTTP	94	168	1	D	0	M1
NMTTP	94	168	7	A	0	M1
NMTTP	94	168	7	D	0	M1
NMTAP	95	96	4
NMTAP	95	96	5
NMTAP	95	144	3
NMTAP	95	168	4
NMSTR	95	192	3
NMSCL	95	192	3	96	96	7
NMSCR	95	192	3	96	96	7
NMTAP	95	240	2
NMTAP	95	240	4
NMTAP	95	288	3
BRTAP	96	96	2
BRTAP	96	96	4
BRHLD	96	144	1	288
BRHLD	96	144	3	288
NMHLD	97	96	4	96
NMHLD	97	96	6	96
NMHLD	97	240	3	96
NMHLD	97	240	4	96
BRTAP	98	0	1
BRTAP	98	0	6
EXSTR	98	96	2
NMSCL	98	96	2	96	48	0
NMHLD	98	144	3	48
NMTAP	98	192	2
NMHLD	98	240	4	48
EXSTR	98	288	7
NMSUR	98	288	7	96	48	3
NMHLD	98	336	5	48
NMTAP	99	0	7
NMHLD	99	48	6	48
EXSTR	99	96	2
NMSCL	99	96	2	96	48	0
NMHLD	99	144	5	48
NMTAP	99	192	2
NMHLD	99	240	4	48
EXSTR	99	288	7
NMSUR	99	288	7	96	48	3
NMTAP	99	336	3
NMTAP	100	0	3
NMTAP	100	0	7
EXTAP	100	96	1
EXTAP	100	96	4
EXHLD	100	144	1	240
EXSTR	100	144	4
NMSXL	100	144	4	96	144	7
BRTAP	101	96	4
BRSTR	101	96	5
NMSCR	101	96	5	96	48	0
NMTAP	101	192	1
NMTAP	101	240	1
NMSTR	101	288	2
NMSI_	101	288	2	96	48	6
NMTAP	101	312	3
NMTAP	101	336	1
NMTAP	101	360	3
NMTAP	102	0	2
EXSTR	102	96	5
NMSCR	102	96	5	96	48	7
NMHLD	102	144	4	48
NMTAP	102	192	5
NMHLD	102	240	3	48
EXSTR	102	288	0
NMSUL	102	288	0	96	48	4
NMHLD	102	336	2	48
NMTAP	103	0	0
NMTAP	103	48	1
BRTAP	103	96	1
BRTAP	103	96	5
BRTAP	103	144	3
BRTAP	103	144	7
BRTAP	103	192	1
BRTAP	103	192	5
BRTAP	103	240	3
BRTAP	103	240	7
NMTTP	103	288	1	E	0	M1
NMTTP	103	288	1	D	0	M1
NMTTP	103	320	0	B	0	M1
NMTTP	103	320	0	A	0	M1
NMTTP	103	352	7	B	0	M1
NMTTP	103	352	7	A	0	M1
NMTTP	104	0	7	E	0	M1
NMTTP	104	0	7	D	0	M1
NMHLD	104	96	3	288
NMTAP	104	96	4
NMTTP	104	192	1	B	0	M1
NMTTP	104	192	2	B	0	M1
NMTTP	104	192	2	E	0	M1
NMTTP	104	288	0	B	0	M1
NMTTP	104	288	0	E	0	M1
NMTTP	104	288	7	B	0	M1
NMHLD	105	0	4	288
NMTTP	105	96	5	B	0	M1
NMTTP	105	96	6	B	0	M1
NMTTP	105	96	6	E	0	M1
NMTTP	105	192	0	B	0	M1
NMTTP	105	192	0	E	0	M1
NMTTP	105	192	7	B	0	M1
NMHLD	105	288	3	288
NMTTP	106	0	1	B	0	M1
NMTTP	106	0	2	B	0	M1
NMTTP	106	0	2	E	0	M1
NMTTP	106	96	0	B	0	M1
NMTTP	106	96	0	E	0	M1
NMTTP	106	96	7	B	0	M1
NMHLD	106	192	4	96
NMTTP	106	288	5	B	0	M1
NMTTP	106	288	6	B	0	M1
NMTTP	106	288	6	E	0	M1
NMTTP	107	0	0	B	0	M1
NMTTP	107	0	0	E	0	M1
NMTTP	107	0	0	A	0	M1
NMTTP	107	0	0	D	0	M1
NMTTP	107	0	1	E	0	M1
NMTTP	107	0	7	B	0	M1
NMTTP	107	0	7	E	0	M1
NMTTP	107	0	7	A	0	M1
BRSTR	107	96	2
NMSCL	107	96	2	96	48	0
BRTAP	107	96	3
NMTAP	107	192	2
NMHLD	107	240	4	48
EXSTR	107	288	7
NMSUR	107	288	7	96	48	3
NMHLD	107	336	5	48
NMTAP	108	0	7
NMHLD	108	48	6	48
EXSTR	108	96	2
NMSCL	108	96	2	96	48	0
NMHLD	108	144	5	48
NMTAP	108	192	2
NMSTR	108	240	6
NMSCL	108	240	6	96	48	4
EXSTR	108	288	7
NMSUL	108	288	7	96	48	3
NMTAP	108	336	6
NMTAP	109	0	7
EXTAP	109	96	3
EXTAP	109	96	5
NMTAP	109	144	2
NMTAP	109	144	5
NMTAP	109	192	1
NMTAP	109	192	5
NMTAP	109	240	0
NMTAP	109	240	5
EXTAP	109	288	6
NMTAP	109	312	7
NMTAP	109	336	6
NMTAP	109	360	7
NMTAP	110	0	6
NMTAP	110	24	7
NMTAP	110	48	6
NMTAP	110	72	7
EXTAP	110	96	6
NMTAP	110	108	5
NMTAP	110	120	4
NMTAP	110	132	3
NMTAP	110	144	2
NMTAP	110	156	1
NMTAP	110	168	0
NMTAP	110	180	7
NMTAP	110	192	6
NMTAP	110	204	5
NMTAP	110	216	4
NMTAP	110	228	3
NMTAP	110	240	2
NMTAP	110	252	1
NMTAP	110	264	0
NMTAP	110	276	7
EXTAP	110	288	2
EXTAP	110	288	6
NMTAP	110	300	3
NMTAP	110	312	4
NMTAP	110	324	5
NMTAP	110	336	6
NMTAP	110	348	7
NMTAP	110	360	0
NMTAP	110	372	1
NMTAP	111	0	2
NMTAP	111	12	3
NMTAP	111	24	4
NMTAP	111	36	5
NMTAP	111	48	6
NMTAP	111	60	7
NMTAP	111	72	0
NMTAP	111	84	1
BXTAP	111	96	2
BXTAP	111	96	6
NMSTR	111	288	0
NMSI_	111	288	0	96	48	4
NMTAP	111	336	0
NMSTR	112	0	6
NMSI_	112	0	6	96	48	2
NMTAP	112	48	6
NMSTR	112	96	3
NMSI_	112	96	3	96	48	7
NMTAP	112	144	3
NMSTR	112	192	5
NMSI_	112	192	5	96	48	1
NMTAP	112	240	5
NMSTR	112	288	6
NMSUR	112	288	6	96	48	2
NMTAP	112	336	6
NMTAP	113	0	5
EXTAP	113	96	4
NMTAP	113	120	3
NMTAP	113	144	4
NMTAP	113	168	2
NMTAP	113	192	4
NMTAP	113	216	1
NMTAP	113	240	4
NMTAP	113	264	0
EXTAP	113	288	5
NMTAP	113	312	1
NMTAP	113	336	5
NMTAP	113	360	2
NMTAP	114	0	5
NMTAP	114	24	3
NMTAP	114	48	5
NMTAP	114	72	4
EXTAP	114	96	6
NMTAP	114	120	3
NMTAP	114	144	6
NMTAP	114	168	2
NMTAP	114	192	6
NMTAP	114	216	1
NMTAP	114	240	6
NMTAP	114	264	0
BRTAP	114	288	5
NMTAP	115	0	1
NMTAP	115	0	6
NMTAP	115	48	2
NMTAP	115	48	5
NMTAP	115	96	3
NMSTR	115	96	4
NMSCL	115	96	4	96	48	1
NMSTR	115	192	4
NMSCR	115	192	4	96	48	7
NMTAP	115	192	5
NMTAP	115	288	3
NMSTR	115	288	4
NMSF_	115	288	4	96	48	0
NMTAP	116	0	4
NMTAP	116	96	2
NMTAP	116	96	6
BRHLD	116	144	2	48
BRHLD	116	144	6	48
NMTAP	116	240	1
NMTAP	116	240	5
BRHLD	116	288	0	48
BRHLD	116	288	4	48
NMTAP	117	0	3
NMTAP	117	0	7
BRTAP	117	48	1
BRTAP	117	48	5
NMTAP	117	144	2
NMTAP	117	192	3
NMTAP	117	240	1
NMTAP	117	240	4
NMTAP	117	288	0
NMTAP	117	288	5
EXSTR	117	336	6
NMSXR	117	336	6	96	240	3
EXSTR	117	336	7
NMSXL	117	336	7	96	240	2
BRTAP	118	48	6
BRTAP	118	48	7
NMHLD	119	96	5	96
NMHLD	119	192	4	96
NMHLD	119	288	3	96
NMHLD	120	0	2	96
NMHLD	120	96	1	96
NMHLD	120	192	0	96
NMHLD	120	288	7	96
NMHLD	121	0	6	96
NMSTR	121	96	5
NMSCR	121	96	5	96	240	2
CNSCL	122	48	2	0	288	5
NMTTP	122	288	0	A	0	M1
NMTTP	122	300	0	B	0	M1
NMTTP	122	312	0	C	0	M1
NMTTP	122	324	4	B	0	M1
NMTTP	122	336	4	A	0	M1

T_REC_TAP	397
T_REC_BRK	67
T_REC_XTP	105
T_REC_BXX	25
T_REC_HLD	77
T_REC_XHO	15
T_REC_BHO	9
T_REC_BXH	1
T_REC_STR	75
T_REC_BST	5
T_REC_XST	36
T_REC_XBS	3
T_REC_TTP	152
T_REC_THO	0
T_REC_SLD	126
T_REC_BSL	0
T_REC_ALL	1093
T_NUM_TAP	765
T_NUM_BRK	110
T_NUM_HLD	92
T_NUM_SLD	126
T_NUM_ALL	1093
T_JUDGE_TAP	865
T_JUDGE_HLD	292
T_JUDGE_SLD	126
T_JUDGE_ALL	1283
TTM_EACHPAIRS	167
TTM_SCR_TAP	382500
TTM_SCR_BRK	286000
TTM_SCR_HLD	92000
TTM_SCR_SLD	189000
TTM_SCR_ALL	949500
TTM_SCR_S	910350
TTM_SCR_SS	938500
TTM_RAT_ACV	10117

