VERSION	0.00.00	1.04.00
FES_MODE	0
BPM_DEF	185.000	185.000	280.000	150.000
MET_DEF	4	4
RESOLUTION	384
CLK_DEF	384
COMPATIBLE_CODE	MA2

BPM	0	0	185.000
BPM	25	0	280.000
BPM	41	0	185.000
BPM	79	96	180.000
BPM	80	96	175.000
BPM	81	96	170.000
BPM	82	96	160.000
BPM	83	96	155.000
BPM	84	96	150.000
BPM	95	96	185.000
MET	0	0	4	4
MET	58	0	4	3
MET	61	0	4	4
MET	65	0	4	3
MET	68	288	4	6
MET	70	96	4	4
MET	104	96	4	3
MET	107	96	4	4

EXTAP	1	0	0
EXTAP	1	48	0
EXTAP	1	96	7
EXTAP	1	144	7
EXTAP	1	192	0
NMSTR	1	288	1
NMSCR	1	288	1	96	384	7
NMSTR	1	288	6
NMSCL	1	288	6	96	384	0
NMSTR	3	288	2
NMSCR	3	288	2	96	384	7
NMSTR	3	288	5
NMSCL	3	288	5	96	384	0
NMTAP	6	0	7
NMTAP	6	96	7
NMTAP	6	192	6
NMTAP	6	288	6
NMTAP	7	0	5
NMTAP	7	96	5
NMTAP	7	192	4
NMTAP	7	192	5
NMTAP	7	288	4
NMTAP	7	288	5
NMTAP	8	0	3
NMTAP	8	96	3
NMTAP	8	192	2
NMTAP	8	288	2
NMTAP	9	0	1
NMTAP	9	96	1
NMTAP	9	192	0
NMTAP	9	192	7
NMHLD	9	288	0	96
NMHLD	9	288	7	96
NMTAP	10	96	4
NMTAP	10	96	6
NMTAP	10	192	4
NMTAP	10	192	6
NMTAP	10	288	3
NMTAP	10	288	5
NMTAP	11	0	3
NMTAP	11	0	5
NMTAP	11	96	1
NMTAP	11	96	3
NMTAP	11	192	1
NMTAP	11	192	3
NMHLD	11	288	2	96
NMHLD	11	288	4	96
NMTAP	12	96	4
NMTAP	12	96	6
NMTAP	12	192	4
NMTAP	12	192	6
NMTAP	12	288	3
NMTAP	12	288	5
NMTAP	13	0	3
NMTAP	13	0	5
NMTAP	13	96	1
NMTAP	13	96	3
NMTAP	13	192	1
NMTAP	13	192	3
NMTAP	13	288	2
NMTAP	13	288	4
NMSTR	14	0	2
NMSUR	14	0	2	96	480	4
NMTAP	14	0	4
NMHLD	16	0	3	768
NMHLD	16	0	4	1536
NMTTP	18	264	5	E	0	M1
NMTTP	18	312	4	B	0	M1
NMTTP	18	360	4	E	0	M1
NMSTR	20	0	2
NMSI_	20	0	2	96	144	5
NMHLD	21	0	6	96
NMTAP	21	96	4
NMTAP	21	240	3
NMTAP	21	288	2
NMTAP	21	288	4
NMHLD	22	0	1	96
NMTAP	22	96	3
NMTAP	22	240	4
NMTAP	22	288	3
NMTAP	22	288	5
NMTAP	23	0	6
NMTAP	23	48	6
NMTAP	23	96	0
NMTAP	23	144	0
NMTAP	23	192	7
NMTAP	23	240	7
NMTAP	23	288	1
NMTAP	23	336	1
NMTAP	24	0	5
NMTAP	24	48	5
NMSTR	24	96	3
NMSI_	24	96	3	96	96	0
BXHLD	24	288	7	96
BXTAP	25	0	0
BXTAP	25	96	0
BXTAP	25	96	7
BXTAP	25	192	4
BXTAP	25	192	5
BXTAP	25	288	4
BXTAP	25	288	5
BXTAP	26	0	2
BXTAP	26	48	2
BXTAP	26	96	3
BXTAP	26	192	1
BXTAP	26	192	4
BXHLD	26	288	1	48
BXHLD	26	288	4	48
BXTAP	27	96	2
BXTAP	27	96	3
BXTAP	27	192	2
BXTAP	27	192	3
BXTAP	27	288	5
BXTAP	27	336	5
BXTAP	28	0	4
BXTAP	28	192	2
BXTAP	28	192	6
BXTAP	29	0	0
BXTAP	29	0	7
BXTAP	29	96	0
BXTAP	29	96	7
BXTAP	29	192	6
BXTAP	29	192	7
BXTAP	29	288	6
BXTAP	29	288	7
BXTAP	30	0	0
BXTAP	30	0	7
BXTAP	30	96	0
BXTAP	30	96	7
BXTAP	30	192	0
BXTAP	30	192	1
BXTAP	30	288	0
BXTAP	30	288	1
BXTAP	31	0	0
BXTAP	31	0	7
BXTAP	31	96	0
BXTAP	31	96	7
BXTAP	31	192	6
BXTAP	31	192	7
BXSTR	31	288	6
BRSI_	31	288	6	96	96	3
BXSTR	31	288	7
BRSI_	31	288	7	96	96	2
BXTAP	32	192	2
BXTAP	32	192	3
BXTAP	33	0	0
BXTAP	33	0	1
BXTAP	33	96	0
BXTAP	33	96	1
BXTAP	33	192	2
BXTAP	33	192	3
BXTAP	33	288	2
BXTAP	33	288	3
BXTAP	34	0	0
BXTAP	34	0	1
BXTAP	34	96	0
BXTAP	34	96	1
BXTAP	34	192	2
BXTAP	34	192	3
BXTAP	34	288	2
BXTAP	34	288	3
BXTAP	35	0	0
BXTAP	35	0	1
BXTAP	35	96	0
BXTAP	35	96	1
BXTAP	35	192	2
BXTAP	35	192	3
BXTAP	35	288	2
BXTAP	35	288	3
BXTAP	36	0	0
BXTAP	36	0	1
BXTAP	36	96	0
BXTAP	36	96	1
BXHLD	36	192	2	96
BXHLD	36	192	3	96
BXHLD	37	0	1	48
BXHLD	37	0	2	48
BXHLD	37	96	1	48
BXHLD	37	96	2	48
BXHLD	37	192	1	48
BXHLD	37	192	2	48
BXHLD	37	288	1	48
BXHLD	37	288	2	48
BXHLD	38	0	1	48
BXHLD	38	0	2	48
BXHLD	38	96	1	48
BXHLD	38	96	2	48
BXHLD	38	192	1	48
BXHLD	38	192	2	48
BXSTR	38	288	1
BRSCL	38	288	1	96	288	6
BXSTR	38	288	2
BRSCR	38	288	2	96	288	5
NMTTP	41	0	3	B	0	M1
NMTTP	41	0	4	B	0	M1
NMTTP	41	0	5	E	0	M1
NMTTP	41	192	6	B	0	M1
NMTTP	41	192	7	E	0	M1
NMTTP	41	192	7	D	1	M1
NMTTP	42	0	3	B	0	M1
NMTTP	42	0	3	E	0	M1
NMTTP	42	0	4	B	0	M1
NMTTP	42	192	1	B	0	M1
NMTTP	42	192	1	E	0	M1
NMTTP	42	192	1	D	1	M1
NMTTP	43	0	3	B	0	M1
NMTTP	43	0	4	B	0	M1
NMTTP	43	0	5	E	0	M1
NMTTP	43	192	6	B	0	M1
NMTTP	43	192	7	E	0	M1
NMTTP	43	192	7	D	1	M1
NMTTP	44	0	3	B	0	M1
NMTTP	44	0	3	E	0	M1
NMTTP	44	0	4	B	0	M1
NMTTP	44	192	1	B	0	M1
NMTTP	44	192	1	E	0	M1
NMTTP	44	192	1	D	1	M1
NMHLD	45	0	7	96
NMHLD	45	96	6	96
NMHLD	45	192	5	96
NMHLD	45	288	4	96
NMHLD	46	0	3	96
NMHLD	46	96	2	96
NMHLD	46	192	1	96
NMHLD	46	288	0	96
NMTAP	47	0	7
NMTAP	47	48	7
NMTAP	47	96	6
NMTAP	47	144	6
NMTAP	47	192	5
NMTAP	47	240	5
NMTAP	47	288	4
NMTAP	47	336	4
NMTAP	48	0	3
NMTAP	48	48	3
NMTAP	48	96	2
NMTAP	48	144	2
NMTAP	48	192	1
NMTAP	48	240	1
NMTAP	48	288	0
NMTAP	48	336	0
NMSTR	49	0	7
NMSI_	49	0	7	96	96	3
NMTAP	49	288	2
NMTAP	49	336	2
NMTAP	50	0	3
NMHLD	50	48	1	96
NMHLD	50	144	3	96
NMHLD	50	240	4	96
NMTAP	50	336	6
NMTAP	51	0	6
EXTAP	51	96	0
EXSTR	51	144	0
NMSI_	51	144	0	96	48	4
EXTAP	51	240	7
EXTAP	51	288	7
NMTAP	52	0	4
NMTAP	52	0	6
NMTAP	52	96	7
NMTAP	52	192	1
NMTAP	52	192	3
NMTAP	52	288	0
NMTAP	53	0	4
NMTAP	53	0	5
NMTAP	53	96	7
NMTAP	53	192	2
NMTAP	53	192	3
NMSTR	53	288	0
NMSXL	53	288	0	96	240	3
NMHLD	55	0	6	192
NMSTR	55	192	4
BRSI_	55	192	4	96	48	0
NMHLD	56	0	5	96
NMHLD	56	96	7	96
NMHLD	56	192	0	96
NMHLD	56	288	2	96
NMTAP	57	0	4
NMTAP	57	48	4
NMTAP	57	96	3
NMTAP	57	144	3
NMTAP	57	192	5
EXTAP	57	288	2
EXTAP	57	288	6
NMTAP	58	0	3
NMSTR	58	96	3
NMSCL	58	96	3	96	96	0
NMTAP	58	288	4
NMSTR	59	0	4
NMSCR	59	0	4	96	96	7
NMTAP	59	192	3
NMSTR	59	288	3
NMSCL	59	288	3	96	96	0
NMTAP	60	96	4
NMTAP	60	192	4
NMTAP	60	288	3
NMTAP	60	288	5
NMTTP	61	0	3	E	0	M1
NMTTP	61	0	4	E	0	M1
NMTTP	61	0	5	E	0	M1
EXTAP	61	96	0
EXTAP	61	96	7
NMHLD	61	192	6	96
NMTAP	61	288	4
NMHLD	62	0	1	96
NMTAP	62	96	3
NMTAP	62	192	7
NMTAP	62	240	7
NMTAP	62	288	0
NMTAP	62	288	6
NMTAP	63	0	3
NMTAP	63	48	3
NMTAP	63	96	5
NMTAP	63	144	5
NMTAP	63	192	1
NMTAP	63	240	1
NMTAP	63	288	6
NMTAP	63	336	6
NMTAP	64	0	0
NMTAP	64	24	7
NMTAP	64	48	0
NMTAP	64	72	7
NMTAP	64	96	0
NMTAP	64	120	7
NMTAP	64	144	0
NMTAP	64	168	7
NMTAP	64	192	0
NMTAP	64	216	7
NMTAP	64	240	0
NMTAP	64	264	7
BXSTR	64	288	0
NMSI_	64	288	0	96	288	6
CNSI_	65	288	6	0	288	1
CNSI_	66	192	1	0	288	5
CNSI_	67	96	5	0	288	2
CNSI_	68	0	2	0	288	4
NMTTP	69	288	3	B	0	M1
NMTTP	69	288	3	A	0	M1
NMTTP	69	288	4	B	0	M1
NMTTP	69	288	4	E	1	M1
NMTTP	69	288	4	A	0	M1
NMHLD	70	96	1	192
NMTAP	70	192	0
NMHLD	70	288	6	192
NMTAP	71	0	7
NMHLD	71	96	2	192
NMTAP	71	192	3
NMHLD	71	288	5	192
NMTAP	72	0	4
NMHLD	72	96	0	192
NMTAP	72	192	1
NMHLD	72	288	7	192
NMTAP	73	0	6
NMHLD	73	96	3	192
NMTAP	73	192	2
NMTAP	73	288	4
EXTAP	74	0	2
EXTAP	74	0	5
NMTAP	74	96	6
NMTAP	74	144	6
NMTAP	74	192	4
NMHLD	74	288	3	48
NMHLD	74	288	7	48
NMHLD	75	0	2	48
NMHLD	75	0	6	48
NMTAP	75	96	1
NMTAP	75	144	1
NMTAP	75	192	3
NMHLD	75	288	0	48
NMHLD	75	288	4	48
NMHLD	76	0	1	48
NMHLD	76	0	5	48
NMSTR	76	96	6
NMSCL	76	96	6	96	96	3
NMSTR	76	288	2
NMSCL	76	288	2	96	96	7
NMSTR	77	96	5
NMSUL	77	96	5	96	288	3
NMTTP	78	96	0	C	1	M1
NMTAP	79	96	3
NMTAP	79	96	4
NMTAP	79	192	3
NMTAP	79	192	4
EXTAP	79	288	3
EXTAP	79	288	4
EXTAP	80	0	3
EXTAP	80	0	4
BRTAP	80	96	2
BRTAP	80	96	5
BRTAP	80	192	2
BRTAP	80	192	5
BXTAP	80	288	2
BXTAP	80	288	5
BXTAP	81	0	2
BXTAP	81	0	5
NMHLD	81	96	1	48
NMHLD	81	96	6	48
EXHLD	81	192	1	48
EXHLD	81	192	6	48
BRHLD	81	288	1	48
BRHLD	81	288	6	48
BXHLD	82	0	1	48
BXHLD	82	0	6	48
NMSTR	82	96	0
NMSI_	82	96	0	96	48	4
NMSTR	82	96	7
NMSI_	82	96	7	96	48	3
EXTAP	82	288	5
NMTAP	82	336	5
NMTAP	83	0	6
NMTAP	83	48	6
EXTAP	83	96	7
NMTAP	83	144	7
NMTAP	83	192	0
NMTAP	83	240	0
EXTAP	83	288	1
NMTAP	83	336	1
NMTAP	84	0	2
NMTAP	84	48	2
EXTAP	84	96	3
NMTAP	84	144	3
NMTAP	84	192	4
NMTAP	84	240	4
EXTAP	84	288	5
NMTAP	84	336	5
NMTAP	85	0	6
NMTAP	85	48	6
NMSTR	85	96	7
NMSI_	85	96	7	96	48	3
NMSTR	85	192	0
NMSI_	85	192	0	96	48	2
NMSTR	85	288	6
NMSI_	85	288	6	96	48	4
BRTAP	86	0	0
NMSTR	86	96	2
NMSI_	86	96	2	96	48	0
NMHLD	86	96	3	96
NMSTR	86	288	2
NMSCL	86	288	2	96	48	0
NMHLD	86	288	3	96
NMSTR	87	96	2
NMSI_	87	96	2	96	48	0
NMHLD	87	96	3	96
NMTAP	87	288	2
NMTAP	87	288	3
NMTAP	88	0	1
NMTAP	88	0	4
NMHLD	88	96	4	96
NMSTR	88	96	5
NMSI_	88	96	5	96	48	7
NMHLD	88	288	4	96
NMSTR	88	288	5
NMSCR	88	288	5	96	48	7
NMHLD	89	96	4	96
NMSTR	89	96	5
NMSI_	89	96	5	96	48	7
NMTAP	89	288	4
NMTAP	89	288	5
NMHLD	90	0	4	96
NMHLD	90	0	6	96
NMTAP	90	192	5
NMTAP	90	192	6
NMTAP	90	288	5
NMTAP	90	288	6
NMTAP	91	0	5
NMTAP	91	0	6
NMTAP	91	96	1
NMTAP	91	96	2
NMTAP	91	192	1
NMTAP	91	192	2
NMTAP	91	288	1
NMTAP	91	288	2
NMTAP	92	0	0
NMTAP	92	0	3
BXTAP	92	96	4
EXTAP	92	192	4
EXTAP	92	240	3
EXTAP	92	288	2
EXTAP	92	336	1
EXTAP	93	0	0
EXTAP	93	48	7
EXSTR	93	96	6
NMSCR	93	96	6	96	144	4
NMTHO	94	96	0	48	C	1	M1
NMTTP	94	96	3	B	0	M1
NMTTP	94	96	4	B	0	M1
NMTTP	94	96	4	E	1	M1
NMHLD	95	96	0	96
BRTAP	95	288	0
NMTAP	96	0	5
NMTAP	96	48	5
NMTAP	96	96	4
NMHLD	96	144	6	96
NMHLD	96	240	4	96
NMHLD	96	336	3	96
NMTAP	97	48	1
NMTAP	97	96	1
EXTAP	97	192	7
EXSTR	97	240	7
NMSI_	97	240	7	96	48	3
EXTAP	97	336	0
EXTAP	98	0	0
NMTAP	98	96	1
NMTAP	98	96	3
NMTAP	98	192	0
NMTAP	98	192	7
NMTAP	98	288	4
NMTAP	98	288	6
NMTAP	99	0	0
NMTAP	99	0	7
NMTAP	99	96	2
NMTAP	99	96	3
NMTAP	99	192	0
NMTAP	99	192	7
NMTAP	99	288	4
NMTAP	99	288	5
NMTAP	100	0	0
NMSTR	100	0	7
NMSXR	100	0	7	96	240	4
NMHLD	101	96	1	192
NMSTR	101	288	3
BRSI_	101	288	3	96	48	7
NMHLD	102	96	2	96
NMHLD	102	192	0	96
NMHLD	102	288	7	96
NMHLD	103	0	5	96
NMTAP	103	96	3
NMTAP	103	144	3
NMTAP	103	192	4
NMTAP	103	240	4
NMTAP	103	288	2
EXTAP	104	0	1
EXTAP	104	0	5
NMTAP	104	96	4
NMSTR	104	192	4
NMSCR	104	192	4	96	96	7
NMTAP	105	0	3
NMSTR	105	96	3
NMSCL	105	96	3	96	96	0
NMTAP	105	288	4
NMSTR	106	0	4
NMSCR	106	0	4	96	96	7
NMTAP	106	192	3
NMTAP	106	288	3
NMTAP	107	0	2
NMTAP	107	0	4
NMTTP	107	96	3	E	0	M1
NMTTP	107	96	4	E	0	M1
NMTTP	107	96	5	E	0	M1
EXTAP	107	192	0
EXTAP	107	192	7
NMHLD	107	288	1	96
NMTAP	108	0	3
NMHLD	108	96	6	96
NMTAP	108	192	4
NMTAP	108	288	0
NMTAP	108	336	0
NMTAP	109	0	1
NMTAP	109	0	7
NMTAP	109	96	3
NMTAP	109	144	3
NMTAP	109	192	5
NMTAP	109	240	5
NMTAP	109	288	1
NMTAP	109	336	1
NMTAP	110	0	6
NMTAP	110	48	6
NMTAP	110	96	0
NMTAP	110	120	7
NMTAP	110	144	0
NMTAP	110	168	7
NMTAP	110	192	0
NMTAP	110	216	7
NMTAP	110	240	0
NMTAP	110	264	7
NMTAP	110	288	0
NMTAP	110	312	7
NMTAP	110	336	0
NMTAP	110	360	7
BXSTR	111	0	0
NMSI_	111	0	0	96	48	4
NMTAP	111	288	6
NMTAP	111	336	6
NMTAP	112	0	0
NMTAP	112	48	0
NMTAP	112	96	7
NMTAP	112	144	7
NMTAP	112	192	1
NMTAP	112	240	1
NMTAP	112	288	5
NMTAP	112	336	5
NMTAP	113	0	4
NMSTR	113	96	6
NMSI_	113	96	6	96	48	3
NMSTR	113	96	7
NMSI_	113	96	7	96	48	2
NMSTR	113	288	0
NMSI_	113	288	0	96	48	5
NMSTR	113	288	1
NMSI_	113	288	1	96	48	4
NMSTR	114	96	0
NMSI_	114	96	0	96	48	3
NMSTR	114	96	7
NMSI_	114	96	7	96	48	4
EXTAP	114	288	0
EXTAP	114	288	7
NMTAP	115	0	5
NMTAP	115	96	4
NMTAP	115	96	6
NMTAP	115	192	2
NMTAP	115	288	1
NMTAP	115	288	3
NMSTR	116	0	5
NMSCR	116	0	5	96	144	2
NMTTP	116	96	0	C	1	M1
EXHLD	116	288	0	144
EXTAP	117	48	7
NMTAP	117	144	5
NMHLD	117	192	5	96
NMTAP	117	288	4
NMSTR	117	336	4
NMSF_	117	336	4	96	144	0
NMSTR	119	96	2
NMSCR	119	96	2	96	144	5
NMSTR	120	96	5
NMSCL	120	96	5	96	144	2
NMTHO	121	96	0	576	C	0	M1
NMTTP	122	288	0	B	0	M1
NMTTP	122	288	0	E	0	M1
NMTTP	122	288	7	B	0	M1

T_REC_TAP	263
T_REC_BRK	6
T_REC_XTP	39
T_REC_BXX	78
T_REC_HLD	63
T_REC_XHO	3
T_REC_BHO	2
T_REC_BXH	21
T_REC_STR	42
T_REC_BST	0
T_REC_XST	3
T_REC_XBS	6
T_REC_TTP	46
T_REC_THO	2
T_REC_SLD	45
T_REC_BSL	6
T_REC_ALL	625
T_NUM_TAP	393
T_NUM_BRK	119
T_NUM_HLD	68
T_NUM_SLD	45
T_NUM_ALL	625
T_JUDGE_TAP	483
T_JUDGE_HLD	220
T_JUDGE_SLD	51
T_JUDGE_ALL	754
TTM_EACHPAIRS	129
TTM_SCR_TAP	196500
TTM_SCR_BRK	309400
TTM_SCR_HLD	68000
TTM_SCR_SLD	67500
TTM_SCR_ALL	641400
TTM_SCR_S	610650
TTM_SCR_SS	629500
TTM_RAT_ACV	10189

