VERSION	0.00.00	1.04.00
FES_MODE	0
BPM_DEF	185.000	185.000	280.000	150.000
MET_DEF	4	4
RESOLUTION	384
CLK_DEF	384
COMPATIBLE_CODE	MA2

BPM	0	0	185.000
BPM	25	0	280.000
BPM	41	0	185.000
BPM	79	96	180.000
BPM	80	96	175.000
BPM	81	96	170.000
BPM	82	96	160.000
BPM	83	96	155.000
BPM	84	96	150.000
BPM	95	96	185.000
MET	0	0	4	4
MET	58	0	4	3
MET	61	0	4	4
MET	65	0	4	3
MET	68	288	4	6
MET	70	96	4	4
MET	104	96	4	3
MET	107	96	4	4

NMTAP	2	0	2
NMTAP	2	192	2
NMTAP	2	192	3
NMTAP	3	0	5
NMTAP	3	192	4
NMTAP	3	192	5
NMTAP	4	0	2
NMTAP	4	192	2
NMTAP	4	192	3
NMTAP	5	0	5
NMTAP	5	192	4
NMTAP	5	192	5
NMTAP	6	0	6
NMTAP	6	96	6
NMTAP	6	192	6
NMTAP	7	0	7
NMTAP	7	96	7
NMTAP	7	192	7
NMTAP	8	0	0
NMTAP	8	96	0
NMTAP	8	192	0
EXTAP	9	0	1
EXTAP	9	96	1
EXTAP	9	192	1
NMTAP	10	0	2
NMTAP	10	96	2
NMTAP	10	192	3
NMTAP	10	288	3
NMTAP	11	0	4
NMTAP	11	96	4
NMTAP	11	192	4
NMTAP	11	192	5
NMTAP	12	0	5
NMTAP	12	96	5
NMTAP	12	192	4
NMTAP	12	288	4
NMTAP	13	0	3
NMTAP	13	96	3
NMTAP	13	192	2
NMTAP	13	192	3
NMTAP	14	0	1
NMTAP	14	96	1
NMTAP	14	192	0
NMSTR	14	288	0
NMSI_	14	288	0	96	192	3
NMTHO	16	0	0	1152	C	1	L1
NMTAP	20	0	1
NMTAP	20	96	1
NMTAP	20	192	0
NMTAP	20	192	1
NMTAP	21	0	2
NMTAP	21	96	2
NMTAP	21	192	2
NMTAP	21	192	3
NMTAP	22	0	5
NMTAP	22	96	5
NMTAP	22	192	4
NMTAP	22	192	5
NMTAP	23	0	6
NMTAP	23	96	6
NMTAP	23	192	6
NMTAP	23	192	7
NMHLD	24	0	0	192
NMHLD	24	0	7	192
EXTAP	25	0	6
EXTAP	25	96	6
EXTAP	25	192	6
EXTAP	25	288	6
EXTAP	26	0	5
EXTAP	26	96	5
EXTAP	26	192	5
EXTAP	26	288	3
EXTAP	26	288	4
NMTAP	27	96	2
NMTAP	27	192	2
NMTAP	27	288	2
NMHLD	28	0	2	192
EXTAP	28	192	3
NMTAP	29	0	1
NMTAP	29	96	1
NMTAP	29	192	2
NMTAP	29	288	2
NMTAP	30	0	3
NMTAP	30	96	3
NMTAP	30	192	4
NMTAP	30	192	5
NMTAP	31	0	6
NMTAP	31	96	6
NMTAP	31	192	5
NMTAP	31	288	5
NMTAP	32	0	4
NMTAP	32	96	4
NMTAP	32	192	2
NMTAP	32	192	3
NMTAP	33	0	1
NMTAP	33	96	1
NMTAP	33	192	1
NMTAP	33	288	1
NMTAP	34	0	1
NMTAP	34	96	1
NMTAP	34	192	0
NMTAP	34	192	1
NMTAP	35	0	2
NMTAP	35	96	2
NMTAP	35	192	2
NMTAP	35	288	2
NMTAP	36	0	2
NMTAP	36	96	2
NMTAP	36	192	2
NMTAP	36	192	3
NMTAP	37	0	1
NMTAP	37	96	1
NMTAP	37	192	0
NMTAP	37	288	0
NMTAP	38	0	1
NMTAP	38	96	1
NMTAP	38	192	2
NMTAP	38	192	3
NMTAP	39	0	2
NMTAP	39	96	2
NMTAP	39	192	3
NMTAP	39	288	3
NMTAP	40	0	2
NMTAP	40	96	2
NMTAP	40	192	0
NMTAP	40	192	1
EXTAP	41	0	6
EXTAP	41	0	7
EXTAP	41	192	6
EXTAP	41	192	7
EXTAP	42	0	4
EXTAP	42	0	5
EXTAP	42	192	4
EXTAP	42	192	5
EXTAP	43	0	2
EXTAP	43	0	3
EXTAP	43	192	2
EXTAP	43	192	3
EXTAP	44	0	0
EXTAP	44	0	1
EXTAP	44	192	0
EXTAP	44	192	1
NMTAP	45	0	1
NMTAP	45	96	1
NMTAP	45	192	2
NMTAP	45	288	2
NMTAP	46	0	3
NMTAP	46	96	3
NMTAP	46	192	4
NMTAP	46	288	4
NMTAP	47	0	5
NMTAP	47	96	5
NMTAP	47	192	6
NMTAP	47	288	6
NMHLD	48	0	0	192
NMHLD	48	0	7	192
NMTTP	49	0	0	C	1	L1
BXTAP	50	0	0
BXTAP	50	0	1
NMSTR	51	0	1
NMSI_	51	0	1	96	192	4
NMTAP	52	0	5
NMTAP	52	96	5
NMTAP	52	192	6
NMTAP	52	192	7
NMTAP	52	288	6
NMTAP	52	288	7
NMTAP	53	0	0
NMTAP	53	96	0
NMTAP	53	192	0
NMTAP	53	192	7
NMTAP	54	0	0
NMTAP	54	0	1
NMTAP	54	96	0
NMTAP	54	96	1
NMTAP	54	192	2
NMTAP	54	288	2
NMTAP	55	0	3
NMTAP	55	0	4
NMTAP	55	96	3
NMTAP	55	96	4
NMTAP	55	192	5
NMTAP	55	288	5
NMTAP	56	0	6
NMTAP	56	0	7
NMTAP	56	96	6
NMTAP	56	96	7
NMTAP	56	192	5
NMTAP	56	288	5
BRTAP	57	0	3
BRTAP	57	0	4
BRTAP	57	96	2
BRTAP	57	96	5
NMHLD	58	0	4	96
NMHLD	58	0	5	96
NMHLD	58	288	3	96
NMHLD	58	288	4	96
NMHLD	59	192	2	96
NMHLD	59	192	3	96
NMHLD	60	96	3	96
NMHLD	60	96	4	96
NMTAP	61	0	5
NMTAP	61	96	5
NMTAP	61	192	4
NMTAP	61	192	5
NMTAP	61	288	4
NMTAP	61	288	5
NMTAP	62	0	2
NMTAP	62	96	2
NMTAP	62	192	2
NMTAP	62	192	3
NMTAP	62	288	2
NMTAP	62	288	3
NMTAP	63	0	5
NMTAP	63	96	5
NMTAP	63	192	4
NMTAP	63	192	5
NMTAP	63	288	4
NMTAP	63	288	5
NMTAP	64	0	3
NMTAP	64	0	4
NMTAP	64	192	3
NMTAP	64	192	4
NMHLD	65	0	2	96
NMHLD	65	0	3	96
NMHLD	65	288	3	96
NMHLD	65	288	4	96
NMHLD	66	192	4	96
NMHLD	66	192	5	96
NMHLD	67	96	3	96
NMHLD	67	96	4	96
NMHLD	68	0	2	96
NMHLD	68	0	3	96
NMHLD	68	288	3	384
NMHLD	68	288	4	384
NMTTP	70	96	1	B	0	L1
NMTTP	70	192	2	B	0	L1
NMTTP	70	288	3	B	0	L1
NMTTP	71	96	6	B	0	L1
NMTTP	71	192	5	B	0	L1
NMTTP	71	288	4	B	0	L1
NMTTP	72	96	2	E	0	L1
NMTTP	72	192	3	E	0	L1
NMTTP	72	288	4	E	0	L1
NMTTP	73	0	5	E	0	L1
NMTTP	73	96	6	E	0	L1
NMTTP	73	288	0	C	0	L1
NMTTP	74	96	7	B	0	L1
NMTTP	74	192	6	B	0	L1
NMTTP	74	288	4	B	0	L1
NMTTP	74	288	5	B	0	L1
NMTTP	75	96	0	B	0	L1
NMTTP	75	192	1	B	0	L1
NMTTP	75	288	2	B	0	L1
NMTTP	75	288	3	B	0	L1
NMTTP	76	96	6	E	0	L1
NMTTP	76	192	5	E	0	L1
NMTTP	76	288	4	E	0	L1
NMTTP	77	0	3	E	0	L1
NMTTP	77	96	2	E	0	L1
NMTTP	77	288	0	C	0	L1
BRTAP	78	96	0
BRTAP	78	96	7
EXTAP	79	96	0
NMTAP	79	192	0
NMTAP	79	288	1
NMTAP	80	0	1
EXTAP	80	96	2
NMTAP	80	192	2
NMTAP	80	288	3
NMTAP	81	0	3
EXTAP	81	96	4
NMTAP	81	192	4
NMTAP	81	288	5
NMTAP	82	0	5
EXTAP	82	96	6
EXTAP	82	96	7
EXTAP	82	192	6
EXTAP	82	192	7
NMTAP	82	288	5
NMTAP	83	0	5
EXTAP	83	96	4
NMTAP	83	192	4
NMTAP	83	288	3
NMTAP	84	0	3
EXTAP	84	96	2
NMTAP	84	192	2
NMTAP	84	192	3
NMTAP	84	288	5
NMTAP	85	0	4
NMTAP	85	0	5
BRTAP	85	96	6
BRTAP	85	192	6
BRTAP	85	288	6
BRTAP	86	0	6
BRTAP	86	0	7
NMHLD	86	96	5	192
NMHLD	86	288	4	192
NMHLD	87	96	3	192
NMTAP	87	288	2
NMHLD	88	96	2	192
NMHLD	88	288	3	192
NMHLD	89	96	4	192
NMTAP	89	288	5
NMTAP	90	96	6
NMTAP	90	192	6
NMTAP	90	288	5
NMTAP	91	0	5
NMTAP	91	96	4
NMTAP	91	192	4
NMTAP	91	288	3
NMTAP	92	0	3
NMTAP	92	96	2
NMTAP	92	192	2
NMTAP	92	288	1
NMTAP	93	0	1
NMHLD	93	96	0	192
NMHLD	93	96	7	192
NMTTP	94	96	0	C	1	L1
EXTAP	95	96	6
EXTAP	95	192	6
EXTAP	95	288	6
BXTAP	96	96	6
BXTAP	96	96	7
NMSTR	97	96	6
NMSI_	97	96	6	96	192	3
NMTAP	98	96	2
NMTAP	98	192	2
NMTAP	98	288	0
NMTAP	98	288	1
NMTAP	99	0	0
NMTAP	99	0	1
NMTAP	99	96	7
NMTAP	99	192	7
NMTAP	99	288	0
NMTAP	99	288	7
NMTAP	100	96	6
NMTAP	100	96	7
NMTAP	100	192	6
NMTAP	100	192	7
NMTAP	100	288	5
NMTAP	101	0	5
NMTAP	101	96	3
NMTAP	101	96	4
NMTAP	101	192	3
NMTAP	101	192	4
NMTAP	101	288	2
NMTAP	102	0	2
NMTAP	102	96	0
NMTAP	102	96	1
NMTAP	102	192	0
NMTAP	102	192	1
NMTAP	102	288	2
NMTAP	103	0	2
BRTAP	103	96	3
BRTAP	103	96	4
BRTAP	103	192	2
BRTAP	103	192	5
NMHLD	104	96	2	96
NMHLD	104	96	3	96
NMHLD	105	0	3	96
NMHLD	105	0	4	96
NMHLD	105	288	4	96
NMHLD	105	288	5	96
NMHLD	106	192	3	96
NMHLD	106	192	4	96
NMTAP	107	96	2
NMTAP	107	192	2
NMTAP	107	288	2
NMTAP	107	288	3
NMTAP	108	0	2
NMTAP	108	0	3
NMTAP	108	96	5
NMTAP	108	192	5
NMTAP	108	288	4
NMTAP	108	288	5
NMTAP	109	0	4
NMTAP	109	0	5
NMTAP	109	96	2
NMTAP	109	192	2
NMTAP	109	288	2
NMTAP	109	288	3
NMTAP	110	0	2
NMTAP	110	0	3
NMTAP	110	96	3
NMTAP	110	96	4
NMTAP	110	288	3
NMTAP	110	288	4
NMTAP	111	96	4
NMTAP	111	192	5
NMTAP	111	288	6
NMTAP	112	0	7
NMTAP	112	96	0
NMTAP	112	192	1
NMTAP	112	288	2
NMTAP	112	288	3
NMTAP	113	96	3
NMTAP	113	192	2
NMTAP	113	288	1
NMTAP	114	0	0
NMTAP	114	96	7
NMTAP	114	192	6
NMTAP	114	288	4
NMTAP	114	288	5
NMTAP	115	96	6
NMTAP	115	192	6
NMTAP	115	192	7
NMTAP	115	288	1
NMTAP	116	0	0
NMTAP	116	0	1
BRTAP	116	96	0
BRTAP	116	96	7
EXTAP	116	288	0
EXTAP	116	288	7
EXHLD	117	48	0	624
EXHLD	117	48	7	624
NMSTR	119	96	1
NMSI_	119	96	1	96	192	4
NMSTR	120	96	6
NMSI_	120	96	6	96	192	3
NMTHO	121	96	0	576	C	0	L1

T_REC_TAP	274
T_REC_BRK	17
T_REC_XTP	43
T_REC_BXX	4
T_REC_HLD	41
T_REC_XHO	2
T_REC_BHO	0
T_REC_BXH	0
T_REC_STR	5
T_REC_BST	0
T_REC_XST	0
T_REC_XBS	0
T_REC_TTP	28
T_REC_THO	2
T_REC_SLD	5
T_REC_BSL	0
T_REC_ALL	421
T_NUM_TAP	350
T_NUM_BRK	21
T_NUM_HLD	45
T_NUM_SLD	5
T_NUM_ALL	421
T_JUDGE_TAP	371
T_JUDGE_HLD	180
T_JUDGE_SLD	5
T_JUDGE_ALL	556
TTM_EACHPAIRS	95
TTM_SCR_TAP	175000
TTM_SCR_BRK	54600
TTM_SCR_HLD	45000
TTM_SCR_SLD	7500
TTM_SCR_ALL	282100
TTM_SCR_S	271600
TTM_SCR_SS	280000
TTM_RAT_ACV	10075

