VERSION	0.00.00	1.04.00
FES_MODE	0
BPM_DEF	 74.000	 74.000	 74.000	 57.000
MET_DEF	4	4
RESOLUTION	384
CLK_DEF	384
COMPATIBLE_CODE	MA2

BPM	0	0	 74.000
BPM	34	0	 69.000
BPM	34	192	 62.000
BPM	34	288	 57.000
MET	0	0	4	4

NMTAP	1	192	0
NMTAP	1	204	1
NMTAP	1	216	2
NMTAP	1	228	3
NMTAP	1	240	4
NMTAP	1	252	5
NMTAP	1	264	6
NMTAP	1	276	7
NMTAP	1	288	0
NMTAP	1	300	1
NMTAP	1	312	2
NMTAP	1	324	3
NMTAP	1	336	4
NMTAP	1	348	5
NMTAP	1	360	6
NMTAP	1	372	7
NMHLD	2	0	0	240
NMTAP	2	64	4
NMTAP	2	88	5
NMSTR	2	128	7
NMSCL	2	128	7	96	304	4
NMTAP	2	288	1
NMTAP	2	336	1
NMTAP	3	0	2
NMTAP	3	48	2
NMTAP	3	156	3
NMTAP	3	180	2
NMSTR	3	216	1
NMSXL	3	216	1	96	168	3
NMTAP	3	336	3
NMSTR	4	0	3
NMSCL	4	0	3	96	288	7
NMTAP	4	96	5
NMTAP	4	192	5
NMTAP	4	288	6
NMTAP	5	48	2
NMTAP	5	48	5
NMTAP	5	96	2
NMTAP	5	96	5
NMTAP	5	192	2
NMTAP	5	192	4
NMTAP	5	246	2
NMTAP	5	246	4
NMSTR	5	336	2
NMSI_	5	336	2	96	288	5
NMTAP	6	0	2
NMTAP	6	144	3
NMTAP	6	192	3
NMSTR	6	336	4
NMSUR	6	336	4	96	336	1
NMTAP	7	0	4
NMTAP	7	144	3
NMTAP	7	192	3
NMSTR	7	336	2
NMSCL	7	336	2	96	432	5
NMTAP	8	0	2
NMTAP	8	144	2
NMHLD	8	192	2	96
NMSTR	8	336	1
NMSSR	8	336	1	96	192	5
NMTAP	9	0	1
NMSTR	9	336	5
NMSI_	9	336	5	96	240	2
NMTAP	10	0	5
NMTAP	10	144	4
NMHLD	10	192	4	96
NMSTR	11	0	3
NMSI_	11	0	3	96	48	0
NMSTR	11	48	4
NMSI_	11	48	4	96	48	7
EXHLD	11	240	0	30
NMSTR	11	336	5
NMSCL	11	336	5	96	240	2
NMTAP	12	0	5
NMTAP	12	144	5
NMTAP	12	192	5
NMSTR	12	288	4
NMSI_	12	288	4	96	288	0
NMHLD	13	0	3	288
NMTAP	14	0	2
NMSTR	14	0	3
NMSXL	14	0	3	96	192	3
NMTAP	14	24	2
NMTAP	14	24	3
NMTAP	14	48	2
NMTAP	14	48	3
NMTAP	14	72	2
NMSTR	14	72	3
NMSXR	14	72	3	96	192	3
NMTAP	14	96	2
NMTAP	14	96	3
NMHLD	15	0	4	96
NMHLD	15	96	5	96
NMHLD	15	192	6	96
NMSTR	16	0	0
NMSLR	16	0	0	96	240	4
NMSTR	16	0	4
NMSLR	16	0	4	96	240	0
NMTAP	16	24	0
NMTAP	16	24	4
NMTAP	16	48	0
NMTAP	16	48	4
NMTAP	16	72	0
NMTAP	16	72	4
NMTAP	16	96	0
NMTAP	16	96	4
NMTTP	17	0	0	C	0	M1
NMTAP	17	192	2
NMSTR	17	288	2
NMSUR	17	288	2	96	288	6
NMHLD	18	0	2	96
NMTAP	18	168	1
NMSTR	18	288	3
NMSUL	18	288	3	96	240	7
NMHLD	19	0	3	48
NMTAP	19	96	4
NMHLD	19	144	4	96
NMSTR	19	336	0
NMSSL	19	336	0	96	240	4
NMTAP	19	360	0
NMTAP	20	0	0
NMTAP	20	240	5
NMSTR	20	288	5
NMSCR	20	288	5	96	192	2
NMHLD	21	0	5	192
BXSTR	21	288	1
BRSV_	21	288	1	96	72	3
BXSTR	21	288	5
BRSV_	21	288	5	96	72	7
BXTAP	21	312	3
BXTAP	21	312	7
BXTAP	21	336	1
BXTAP	21	336	5
BXTAP	21	360	3
BXTAP	21	360	7
BXTAP	22	140	2
BXTAP	22	140	6
BXTAP	22	168	0
BXTAP	22	168	4
BXTAP	22	192	2
BXSTR	22	192	6
BRSI_	22	192	6	96	48	2
NMSTR	22	240	0
BRSI_	22	240	0	96	48	4
BXTAP	22	288	6
BXTAP	22	336	0
BXTAP	23	0	5
BXSTR	23	24	2
NMSCL	23	24	2	96	72	7
BXTAP	23	24	6
BXTAP	23	48	2
BXTAP	23	48	6
NMSTR	23	96	7
NMSUR	23	96	7	96	144	1
NMTAP	23	192	6
NMTAP	23	284	5
NMTAP	23	312	4
NMTAP	23	336	3
NMSTR	23	360	2
NMSCR	23	360	2	96	120	6
NMTAP	24	144	2
NMTAP	24	168	3
NMSTR	24	192	4
NMSXR	24	192	4	96	72	4
NMSTR	24	240	5
NMSXL	24	240	5	96	96	4
NMTAP	24	288	4
NMTAP	24	336	5
NMTAP	25	0	3
NMTAP	25	24	3
NMHLD	25	48	2	48
NMSTR	25	96	1
NMSUR	25	96	1	96	48	5
NMHLD	25	192	0	48
BXTAP	25	288	6
BXTAP	25	288	7
BXTAP	25	309	4
BXTAP	25	309	5
BXTAP	25	333	2
BXTAP	25	333	3
BXTAP	25	357	0
BXTAP	25	357	1
NMSTR	26	144	1
NMSI_	26	144	1	96	48	3
NMTAP	26	168	1
NMSTR	26	192	3
NMSI_	26	192	3	96	48	0
NMSTR	26	240	0
NMSCL	26	240	0	96	48	5
NMSTR	26	288	5
NMSXL	26	288	5	96	96	2
NMSTR	27	0	2
NMSI_	27	0	2	96	48	4
NMSTR	27	48	4
NMSCL	27	48	4	96	96	7
NMSTR	27	144	7
NMSF_	27	144	7	96	48	3
NMSTR	27	336	1
NMSI_	27	336	1	96	240	5
NMTAP	27	360	1
NMTAP	28	0	2
NMTAP	28	24	2
NMTAP	28	48	3
EXTAP	28	84	0
EXHLD	28	96	0	72
EXTAP	28	180	4
EXHLD	28	192	4	96
NMSTR	28	332	6
NMSI_	28	332	6	96	244	2
NMTAP	28	360	6
NMTAP	29	0	5
NMTAP	29	24	5
NMTAP	29	48	4
EXTAP	29	84	7
EXHLD	29	96	7	72
EXTAP	29	180	3
EXHLD	29	192	3	48
BRTAP	29	288	1
BRTAP	29	312	1
NMTAP	29	336	0
NMTAP	29	360	0
NMTAP	30	0	7
NMTAP	30	96	5
NMTAP	30	120	4
NMTAP	30	144	3
NMTAP	30	168	2
NMHLD	30	192	1	48
NMHLD	30	240	7	48
NMSTR	30	288	0
NMSXL	30	288	0	96	384	3
NMTAP	30	300	1
NMTAP	30	312	2
NMTAP	30	324	3
NMTAP	30	336	4
NMTAP	30	348	5
NMTAP	30	360	6
NMTAP	30	372	7
NMTAP	31	0	0
NMHLD	31	54	7	66
NMTAP	31	166	6
NMTAP	31	184	5
NMHLD	31	202	4	182
NMHLD	32	52	6	48
NMHLD	32	100	5	48
NMHLD	32	148	3	48
NMHLD	32	196	2	50
NMHLD	32	246	0	138
NMTAP	32	368	2
NMTAP	32	376	3
NMHLD	33	0	4	384
NMTAP	33	96	5
NMTAP	33	192	7
NMTAP	33	288	1
NMTAP	34	48	2
NMTAP	34	48	5
NMHLD	34	96	2	48
NMHLD	34	96	5	48
NMTAP	34	192	3
NMTAP	34	192	5
NMHLD	34	244	3	100
NMHLD	34	244	5	100
NMTAP	35	0	5
NMTAP	35	12	4
NMTAP	35	24	3
NMTAP	35	32	2
NMSTR	35	40	1
NMSCL	35	40	1	96	440	6
NMTAP	35	120	5
NMTAP	35	138	5
NMTAP	35	159	5
NMTAP	35	178	4
NMTAP	35	192	4
NMTAP	35	204	4
NMTAP	35	220	3
NMTAP	35	246	3
NMTAP	35	252	2
NMTAP	35	282	1
NMHLD	35	318	2	258

T_REC_TAP	131
T_REC_BRK	2
T_REC_XTP	4
T_REC_BXX	25
T_REC_HLD	28
T_REC_XHO	5
T_REC_BHO	0
T_REC_BXH	0
T_REC_STR	37
T_REC_BST	0
T_REC_XST	0
T_REC_XBS	4
T_REC_TTP	1
T_REC_THO	0
T_REC_SLD	37
T_REC_BSL	4
T_REC_ALL	278
T_NUM_TAP	173
T_NUM_BRK	35
T_NUM_HLD	33
T_NUM_SLD	37
T_NUM_ALL	278
T_JUDGE_TAP	204
T_JUDGE_HLD	164
T_JUDGE_SLD	41
T_JUDGE_ALL	409
TTM_EACHPAIRS	31
TTM_SCR_TAP	86500
TTM_SCR_BRK	91000
TTM_SCR_HLD	33000
TTM_SCR_SLD	55500
TTM_SCR_ALL	266000
TTM_SCR_S	254650
TTM_SCR_SS	262500
TTM_RAT_ACV	10133

