VERSION	0.00.00	1.04.00
FES_MODE	0
BPM_DEF	215.000	215.000	215.000	215.000
MET_DEF	4	4
RESOLUTION	384
CLK_DEF	384
COMPATIBLE_CODE	MA2

BPM	0	0	215.000
MET	0	0	4	4

NMTAP	2	0	3
NMTAP	2	0	5
NMTAP	2	48	2
NMTAP	2	96	2
NMTAP	2	144	3
NMTAP	2	144	4
NMTAP	2	192	5
NMSTR	2	240	6
NMSI_	2	240	6	96	48	3
NMSTR	2	240	7
NMSI_	2	240	7	96	48	2
EXTAP	2	336	6
EXTAP	2	336	7
NMSTR	4	240	0
NMSI_	4	240	0	96	48	5
NMSTR	4	240	1
NMSI_	4	240	1	96	48	4
EXTAP	4	336	0
EXTAP	4	336	1
NMTAP	6	0	4
NMTAP	6	0	6
NMTAP	6	48	4
NMTAP	6	48	6
NMTAP	6	144	1
NMTAP	6	144	3
NMSTR	6	240	0
NMSI_	6	240	0	96	48	4
NMSTR	6	240	7
NMSI_	6	240	7	96	48	3
BRTAP	6	336	0
BRTAP	6	336	7
NMTAP	7	48	5
NMTAP	7	96	5
NMTAP	7	144	7
NMTAP	7	192	7
NMTAP	7	240	0
NMTAP	7	288	0
NMTAP	7	336	2
NMTAP	8	0	2
NMTAP	8	48	4
NMTAP	8	96	4
NMTAP	8	144	3
NMHLD	8	144	5	96
NMTAP	8	240	4
NMTAP	8	336	3
NMTAP	8	336	6
NMTAP	9	48	1
NMTAP	9	48	4
NMSTR	9	96	1
NMSI_	9	96	1	96	48	5
NMTAP	9	96	4
NMTAP	9	192	1
NMSTR	9	192	6
NMSI_	9	192	6	96	48	2
NMSTR	9	288	0
NMSI_	9	288	0	96	48	4
NMTAP	9	288	6
NMTAP	10	0	0
NMSTR	10	0	7
NMSI_	10	0	7	96	48	3
NMTAP	10	96	2
NMTAP	10	96	7
NMTAP	10	144	2
NMTAP	10	240	1
NMTAP	10	240	4
NMTAP	10	288	1
NMTAP	10	288	4
BXTAP	11	0	0
NMTAP	11	12	1
NMTAP	11	24	2
NMTAP	11	36	3
NMTAP	11	48	4
NMTAP	11	60	5
NMTAP	11	72	6
NMTAP	11	84	7
EXTAP	11	96	0
NMTAP	11	108	1
NMTAP	11	120	2
NMTAP	11	132	3
NMTAP	11	144	4
NMTAP	11	156	5
NMTAP	11	168	6
NMTAP	11	180	7
BXTAP	11	192	0
NMTAP	11	204	1
NMTAP	11	216	2
NMTAP	11	228	3
NMTAP	11	240	4
NMTAP	11	252	5
NMTAP	11	264	6
NMTAP	11	276	7
EXTAP	11	288	0
NMTAP	11	300	1
NMTAP	11	312	2
NMTAP	11	324	3
NMTAP	11	336	4
NMTAP	11	348	5
NMTAP	11	360	6
NMTAP	11	372	7
BXTAP	12	0	0
NMTAP	12	12	1
NMTAP	12	24	2
NMTAP	12	36	3
NMTAP	12	48	4
NMTAP	12	60	5
NMTAP	12	72	6
NMTAP	12	84	7
EXTAP	12	96	0
NMTAP	12	108	1
NMTAP	12	120	2
NMTAP	12	132	3
NMTAP	12	144	4
NMTAP	12	156	5
NMTAP	12	168	6
NMTAP	12	180	7
BXTAP	12	192	0
NMTAP	12	204	1
NMTAP	12	216	2
NMTAP	12	228	3
NMTAP	12	240	4
NMTAP	12	252	5
NMTAP	12	264	6
NMTAP	12	276	7
EXTAP	12	288	0
NMTAP	12	300	1
NMTAP	12	312	2
NMTAP	12	324	3
NMTAP	12	336	4
NMTAP	12	348	5
NMTAP	12	360	6
NMTAP	12	372	7
BXTAP	13	0	0
NMTAP	13	12	1
NMTAP	13	24	2
NMTAP	13	36	3
NMTAP	13	48	4
NMTAP	13	60	5
NMTAP	13	72	6
NMTAP	13	84	7
EXTAP	13	96	0
NMTAP	13	108	1
NMTAP	13	120	2
NMTAP	13	132	3
NMTAP	13	144	4
NMTAP	13	156	5
NMTAP	13	168	6
NMTAP	13	180	7
BXTAP	13	192	0
NMTAP	13	204	1
NMTAP	13	216	2
NMTAP	13	228	3
NMTAP	13	240	4
NMTAP	13	252	5
NMTAP	13	264	6
NMTAP	13	276	7
EXTAP	13	288	0
NMTAP	13	300	1
NMTAP	13	312	2
NMTAP	13	324	3
NMTAP	13	336	4
NMTAP	13	348	5
NMTAP	13	360	6
NMTAP	13	372	7
BXTAP	14	0	0
NMTAP	14	12	1
NMTAP	14	24	2
NMTAP	14	36	3
NMTAP	14	48	4
NMTAP	14	60	5
NMTAP	14	72	6
NMTAP	14	84	7
EXTAP	14	96	0
NMTAP	14	108	1
NMTAP	14	120	2
NMTAP	14	132	3
NMTAP	14	144	4
NMTAP	14	156	5
NMTAP	14	168	6
NMTAP	14	180	7
BXTAP	14	192	0
NMTAP	14	204	1
NMTAP	14	216	2
NMTAP	14	228	3
NMTAP	14	240	4
NMTAP	14	252	5
NMTAP	14	264	6
NMTAP	14	276	7
EXTAP	14	288	0
NMSTR	15	0	2
NMSI_	15	0	2	96	48	7
NMTAP	15	96	3
NMSTR	15	192	5
NMSI_	15	192	5	96	48	0
NMTAP	15	288	4
NMSTR	16	0	2
NMSI_	16	0	2	96	48	7
NMTAP	16	96	3
NMTAP	16	192	5
NMTAP	16	288	4
NMTAP	16	288	5
NMSTR	17	0	6
NMSI_	17	0	6	96	48	2
NMSTR	17	96	1
NMSI_	17	96	1	96	48	5
EXTAP	17	96	6
EXTAP	17	192	1
NMSTR	17	192	7
NMSI_	17	192	7	96	48	3
NMSTR	17	288	0
NMSI_	17	288	0	96	48	4
EXTAP	17	288	7
EXTAP	18	0	0
NMTAP	18	0	5
NMTAP	18	48	5
NMTAP	18	96	3
NMTAP	18	144	3
NMTAP	18	192	4
NMTAP	18	240	4
NMTAP	18	288	2
NMTAP	18	288	5
NMTAP	19	0	1
NMSTR	19	0	6
NMSI_	19	0	6	96	48	4
NMTAP	19	96	1
NMTAP	19	192	1
NMSTR	19	192	3
NMSI_	19	192	3	96	48	7
NMTAP	19	288	1
NMTAP	20	0	2
NMSTR	20	0	6
NMSI_	20	0	6	96	48	4
NMTAP	20	96	2
NMTAP	20	192	2
NMSTR	20	192	3
NMSI_	20	192	3	96	48	7
NMTAP	20	288	2
NMTAP	21	0	1
NMSTR	21	0	6
NMSI_	21	0	6	96	48	4
NMTAP	21	96	1
NMTAP	21	192	1
NMTAP	21	192	3
NMTAP	21	288	0
NMTAP	21	288	4
NMSTR	22	0	5
NMSCL	22	0	5	96	96	2
NMTAP	22	96	1
NMTAP	22	192	0
NMTAP	22	240	0
NMTAP	22	288	1
NMTAP	22	288	7
NMHLD	23	0	5	96
NMTAP	23	96	4
NMTAP	23	192	3
NMHLD	23	192	6	96
NMTAP	23	288	4
NMTAP	23	336	4
NMTAP	24	0	5
NMTAP	24	48	5
NMTAP	24	96	0
NMSTR	24	144	0
NMSI_	24	144	0	96	48	4
NMTAP	24	240	7
NMSTR	24	288	7
NMSCL	24	288	7	96	96	3
NMSTR	25	0	3
NMSCL	25	0	3	96	96	7
NMSTR	25	96	7
NMSCL	25	96	7	96	96	3
NMSTR	25	192	3
NMSCL	25	192	3	96	96	7
NMTAP	25	288	7
NMTAP	26	0	3
NMSTR	26	96	1
NMSI_	26	96	1	96	48	6
NMSTR	26	96	5
NMSI_	26	96	5	96	48	2
EXTAP	26	288	0
EXTAP	26	288	4
NMTAP	27	0	1
NMTAP	27	48	1
NMTAP	27	96	3
NMTAP	27	192	0
NMTAP	27	192	4
NMTAP	27	288	5
NMTAP	27	336	5
NMTAP	28	0	4
NMTAP	28	48	4
NMHLD	28	96	6	96
NMTAP	28	192	0
NMTAP	28	240	0
NMTAP	28	288	7
NMSTR	29	0	1
NMSI_	29	0	1	96	48	3
NMSTR	29	96	7
NMSI_	29	96	7	96	48	5
NMSTR	29	192	0
NMSI_	29	192	0	96	48	4
NMTAP	29	288	7
NMTAP	30	0	6
NMTAP	30	48	6
NMTAP	30	96	0
NMTAP	30	144	0
NMTAP	30	192	1
NMTAP	30	192	3
NMTAP	30	288	4
NMTAP	30	288	6
NMSTR	31	0	7
NMSI_	31	0	7	96	48	4
NMSTR	31	96	0
NMSI_	31	96	0	96	48	3
NMTAP	31	96	7
NMTAP	31	192	0
NMHLD	31	192	7	96
NMTAP	31	288	4
NMTAP	31	336	4
NMTAP	32	0	5
NMTAP	32	96	3
NMTAP	32	96	6
NMTAP	32	144	3
NMTAP	32	144	6
NMTAP	32	240	0
NMSTR	32	288	0
NMSCR	32	288	0	96	96	4
NMSTR	33	0	4
NMSCR	33	0	4	96	96	0
NMSTR	33	96	0
NMSCR	33	96	0	96	96	4
NMSTR	33	192	4
NMSLR	33	192	4	96	96	0
NMTAP	33	288	0
CNSLR	34	0	0	0	96	4
NMTAP	34	192	7
NMSTR	34	288	0
NMSCR	34	288	0	96	480	6
NMTTP	35	0	0	C	1	M1
NMSTR	36	288	7
NMSCL	36	288	7	96	480	1
EXTAP	38	192	0
EXTAP	38	192	1
NMHLD	39	0	1	96
NMHLD	39	0	4	96
NMHLD	39	144	2	96
NMHLD	39	144	5	96
NMHLD	39	288	3	96
NMHLD	39	288	6	96
NMTAP	40	48	4
NMTAP	40	48	7
NMTAP	40	96	4
NMTAP	40	96	7
NMHLD	40	192	6	96
NMTAP	40	288	4
NMHLD	41	0	3	96
NMHLD	41	0	6	96
NMHLD	41	144	2	96
NMHLD	41	144	5	96
NMHLD	41	288	1	96
NMHLD	41	288	4	96
NMTAP	42	48	0
NMTAP	42	48	3
NMSTR	42	96	0
NMSI_	42	96	0	96	48	4
NMTAP	42	96	3
BRTAP	42	192	4
BRTAP	42	264	6
BRTAP	42	336	1
BRTAP	42	336	7
EXHLD	43	96	4	96
EXHLD	43	96	6	96
EXHLD	43	288	1	96
EXHLD	43	288	3	96
EXHLD	44	96	3	96
EXHLD	44	96	5	96
EXHLD	44	288	2	96
EXHLD	44	288	4	96
EXHLD	45	96	0	96
EXHLD	45	96	6	96
EXHLD	45	288	1	96
EXHLD	45	288	7	96
NMTAP	46	96	4
NMSTR	46	96	5
NMSLR	46	96	5	96	144	3
EXHLD	47	0	2	96
EXTAP	47	48	3
EXTAP	47	96	4
NMHLD	47	144	5	96
NMTAP	47	192	3
NMTAP	47	240	2
NMHLD	47	288	1	96
NMTAP	47	336	4
NMTAP	48	0	5
NMHLD	48	48	6	96
NMTAP	48	96	4
NMTAP	48	144	3
NMHLD	48	192	2	96
NMTAP	48	240	3
NMTAP	48	288	4
EXTAP	49	0	4
EXTAP	49	0	5
EXTAP	49	48	3
EXTAP	49	48	6
EXTAP	49	144	2
EXTAP	49	144	3
EXTAP	49	192	1
EXTAP	49	192	4
BRTAP	49	288	3
BRTAP	49	288	4
BRTAP	49	336	2
BRTAP	49	336	5
EXSTR	50	96	0
BRSI_	50	96	0	96	48	3
EXSTR	50	96	7
BRSI_	50	96	7	96	48	4
NMSTR	50	192	0
NMSV_	50	192	0	96	144	3
EXTAP	50	192	7
NMTTP	50	336	5	B	0	M1
NMTTP	50	336	6	B	0	M1
NMTTP	50	336	6	E	1	M1
CNSCL	51	48	3	0	144	4
NMTAP	51	288	6
NMTAP	51	336	6
NMTAP	52	0	0
NMSTR	52	0	7
NMSI_	52	0	7	96	48	3
NMTAP	52	96	2
NMTAP	52	144	2
NMSTR	52	240	1
NMSI_	52	240	1	96	48	6
NMSTR	52	240	5
NMSI_	52	240	5	96	48	2
NMTAP	52	336	1
NMTAP	52	336	5
NMTAP	53	48	0
NMTAP	53	48	4
NMTAP	53	96	0
NMTAP	53	96	4
NMSTR	53	192	5
NMSI_	53	192	5	96	48	0
NMTAP	53	288	3
NMTAP	53	288	5
NMSTR	54	0	2
NMSI_	54	0	2	96	48	7
NMTAP	54	96	2
NMTAP	54	96	4
NMHLD	54	192	6	96
NMTAP	54	288	4
NMTAP	54	336	4
NMTAP	55	48	3
NMTAP	55	48	5
NMTAP	55	96	3
NMTAP	55	96	5
NMTAP	55	192	6
NMTAP	55	240	7
NMTAP	55	288	0
NMTAP	55	336	1
NMTAP	56	48	3
NMTAP	56	48	5
NMTAP	56	144	0
NMTAP	56	144	7
NMSTR	56	240	2
BRSCR	56	240	2	96	192	0
NMTAP	56	240	4
BRTAP	56	336	0
NMTAP	57	192	3
NMTAP	57	288	0
NMTAP	57	288	4
NMHLD	57	336	0	96
NMTAP	57	336	4
NMTAP	58	48	7
NMSTR	58	96	7
NMSI_	58	96	7	96	48	3
BRSTR	58	192	2
NMSI_	58	192	2	96	48	6
BRTAP	58	192	7
BRHLD	58	288	5	192
CNSCR	58	336	6	0	48	1
CNSI_	59	0	1	0	96	4
NMTAP	59	192	4
NMTAP	59	192	6
NMTAP	59	288	2
NMSTR	60	0	0
NMSI_	60	0	0	96	48	4
NMTAP	60	0	7
NMTAP	60	96	5
NMTAP	60	144	5
NMSTR	60	240	2
NMSI_	60	240	2	96	48	4
NMSTR	60	240	6
NMSI_	60	240	6	96	48	4
NMTAP	60	336	2
NMTAP	60	336	6
NMTAP	61	48	3
NMTAP	61	48	7
NMTAP	61	96	3
NMTAP	61	96	7
NMSTR	61	192	2
NMSI_	61	192	2	96	48	7
NMTAP	61	288	2
NMTAP	61	288	4
NMSTR	62	0	5
NMSI_	62	0	5	96	48	0
NMTAP	62	96	3
NMTAP	62	96	5
NMHLD	62	192	1	96
NMTAP	62	288	3
NMTAP	62	336	3
NMTAP	63	48	2
NMTAP	63	48	4
NMTAP	63	96	2
NMTAP	63	96	4
NMTAP	63	192	1
NMTAP	63	192	5
NMTAP	63	240	1
NMTAP	63	240	5
NMSTR	63	336	0
NMSCR	63	336	0	96	48	3
NMTAP	64	48	0
NMSTR	64	48	7
NMSCL	64	48	7	96	48	4
NMSTR	64	144	0
NMSCR	64	144	0	96	48	3
NMTAP	64	144	7
NMTAP	64	240	0
NMSTR	64	240	7
NMSCL	64	240	7	96	48	4
NMSTR	64	336	0
NMSCR	64	336	0	96	48	3
NMTAP	64	336	7
NMTAP	65	48	0
NMSTR	65	48	7
NMSCL	65	48	7	96	48	4
NMTAP	65	144	0
NMTAP	65	144	7
NMTAP	65	240	1
NMTAP	65	240	5
NMTAP	65	288	1
NMTAP	65	288	5
NMSTR	66	0	6
NMSI_	66	0	6	96	48	4
NMSTR	66	0	7
NMSI_	66	0	7	96	48	3
NMTAP	66	96	6
NMTAP	66	96	7
NMSTR	66	192	0
NMSI_	66	192	0	96	48	4
NMSTR	66	192	1
NMSI_	66	192	1	96	48	3
NMTAP	66	288	0
NMTAP	66	288	1
NMSTR	67	0	5
NMSI_	67	0	5	96	48	2
NMSTR	67	96	1
NMSI_	67	96	1	96	48	6
NMTAP	67	96	5
NMTAP	67	192	1
NMSTR	67	192	4
NMSI_	67	192	4	96	48	0
NMSTR	67	288	2
NMSI_	67	288	2	96	48	7
NMTAP	67	288	4
NMTAP	68	0	2
NMSTR	68	0	6
NMSI_	68	0	6	96	48	2
NMSTR	68	96	0
NMSI_	68	96	0	96	48	4
NMTAP	68	96	6
NMTAP	68	192	0
NMSTR	68	192	3
NMSI_	68	192	3	96	48	7
NMTAP	68	288	3
EXTAP	69	0	1
EXTAP	69	0	5
NMTAP	69	96	0
NMTAP	69	144	1
NMTAP	69	144	7
NMTAP	69	240	4
NMSTR	69	288	3
BRSUR	69	288	3	96	96	4
NMTAP	69	288	5
CNSCR	70	96	4	0	192	2
BRTAP	71	0	4
BRHLD	71	96	7	1056
NMSTR	74	192	0
NMSI_	74	192	0	96	48	4
NMSTR	74	192	6
NMSI_	74	192	6	96	48	3
BRTAP	74	288	0
BRTAP	74	288	6
NMTAP	75	0	2
NMTAP	75	0	5
NMTAP	75	48	6
NMSTR	75	96	7
NMSI_	75	96	7	96	48	3
NMTAP	75	144	3
NMSTR	75	192	2
NMSCL	75	192	2	96	48	7
NMTAP	75	288	5
NMHLD	75	336	5	96
NMTAP	76	48	3
NMTAP	76	96	1
NMSTR	76	144	0
NMSI_	76	144	0	96	48	4
NMSTR	76	192	6
NMSI_	76	192	6	96	48	2
NMTAP	76	240	0
NMTAP	76	288	6
NMSTR	77	0	1
NMSCL	77	0	1	96	48	6
NMTAP	77	96	3
NMSTR	77	144	4
NMSCL	77	144	4	96	48	1
NMTAP	77	240	6
EXTAP	77	288	7
EXHLD	77	336	7	96
NMTAP	78	48	4
NMTAP	78	96	4
NMTAP	78	144	3
NMTAP	78	192	2
NMTAP	78	192	4
NMTAP	78	240	1
NMTAP	78	240	5
BRTAP	78	288	1
BRTAP	78	288	5
NMHLD	79	0	3	48
NMHLD	79	0	6	48
NMHLD	79	96	4	48
NMHLD	79	96	7	48
NMTAP	79	192	3
NMTAP	79	192	6
NMTAP	79	240	3
NMTAP	79	240	6
NMTAP	79	336	1
NMTAP	79	336	3
NMTAP	80	48	0
NMTAP	80	48	1
NMTAP	80	144	6
NMTAP	80	144	7
NMTAP	80	192	6
NMTAP	80	192	7
NMTAP	80	288	3
NMTAP	80	288	5
NMHLD	81	0	1	48
NMHLD	81	0	4	48
NMHLD	81	96	0	48
NMHLD	81	96	3	48
NMTAP	81	192	1
NMTAP	81	192	4
NMTAP	81	240	1
NMTAP	81	240	4
NMTAP	81	336	4
NMTAP	81	336	6
NMTAP	82	48	6
NMTAP	82	48	7
NMTAP	82	144	0
NMTAP	82	144	1
NMTAP	82	192	0
NMTAP	82	192	1
NMTAP	82	288	2
NMTAP	82	288	4
NMSTR	83	0	6
NMSLL	83	0	6	96	96	0
NMTAP	83	96	3
NMTAP	83	96	6
NMSTR	83	192	1
NMSLR	83	192	1	96	96	7
NMTAP	83	288	1
NMTAP	83	288	4
NMSTR	84	0	5
NMSLR	84	0	5	96	96	3
NMTAP	84	96	2
NMTAP	84	96	5
NMSTR	84	192	2
NMSLL	84	192	2	96	96	4
NMTAP	84	288	2
NMTAP	84	288	5
NMHLD	85	0	6	96
NMTAP	85	96	7
NMTAP	85	144	0
NMTAP	85	144	5
NMTAP	85	240	0
NMTAP	85	240	1
NMTAP	85	288	2
NMSTR	85	288	7
NMSCR	85	288	7	96	192	6
NMTTP	86	0	0	C	1	M1
EXTAP	86	288	0
EXTAP	86	288	7
NMSTR	87	0	5
NMSCL	87	0	5	96	48	2
NMTAP	87	96	1
NMHLD	87	144	1	96
NMTAP	87	240	0
NMTAP	87	288	0
NMTAP	88	0	5
NMTAP	88	48	5
NMSTR	88	96	3
NMSI_	88	96	3	96	48	0
NMSTR	88	192	6
NMSI_	88	192	6	96	48	3
NMTAP	88	288	1
NMSTR	89	0	2
NMSCR	89	0	2	96	48	5
NMTAP	89	96	6
NMHLD	89	144	6	96
NMTAP	89	240	7
NMTAP	89	288	7
NMTAP	90	0	2
NMTAP	90	48	2
NMSTR	90	96	4
NMSI_	90	96	4	96	48	6
NMSTR	90	192	0
NMSI_	90	192	0	96	48	2
NMTAP	90	288	7
NMSTR	91	0	6
NMSI_	91	0	6	96	48	2
NMTAP	91	96	1
NMHLD	91	144	1	96
NMTAP	91	240	3
NMTAP	91	288	3
NMTAP	92	0	5
NMTAP	92	48	5
NMSTR	92	96	0
NMSI_	92	96	0	96	48	4
NMSTR	92	192	6
NMSI_	92	192	6	96	48	2
NMTAP	92	288	2
NMSTR	93	0	1
NMSCL	93	0	1	96	48	6
NMTAP	93	96	5
NMHLD	93	144	5	96
NMTAP	93	240	4
NMTAP	93	288	4
NMTAP	94	0	2
NMHLD	94	48	2	96
NMSTR	94	144	3
NMSI_	94	144	3	96	48	7
NMTAP	94	240	1
NMTAP	94	288	1
EXTAP	95	0	4
EXTAP	95	0	7
NMTAP	95	72	2
NMTAP	95	144	1
EXTAP	95	192	0
EXTAP	95	192	3
NMTAP	95	264	5
NMTAP	95	336	6
EXTAP	96	0	4
EXTAP	96	0	7
NMTAP	96	72	2
NMTAP	96	144	1
EXTAP	96	192	0
EXTAP	96	192	3
NMTAP	96	264	5
NMTAP	96	336	6
EXTAP	97	0	4
EXSTR	97	0	7
NMSI_	97	0	7	96	48	3
NMTAP	97	96	3
NMSTR	97	144	2
NMSI_	97	144	2	96	48	6
NMSTR	97	240	4
NMSI_	97	240	4	96	48	7
NMTAP	97	336	7
NMSTR	98	0	0
NMSCR	98	0	0	96	144	7
NMTTP	98	96	0	C	1	M1
EXTAP	98	336	1
EXTAP	98	336	6
NMTAP	99	48	2
NMTAP	99	48	3
NMSTR	99	96	0
NMSI_	99	96	0	96	48	4
NMTAP	99	192	0
NMTAP	99	192	5
NMHLD	99	240	6	96
NMTAP	99	336	3
NMTAP	100	48	4
NMTAP	100	48	5
NMSTR	100	96	7
NMSI_	100	96	7	96	48	3
NMTAP	100	192	2
NMTAP	100	192	7
NMSTR	100	240	1
NMSCR	100	240	1	96	192	0
NMTTP	100	336	0	C	1	M1
EXTAP	101	288	0
EXTAP	101	288	7
NMTAP	102	0	3
NMTAP	102	0	5
NMTAP	102	72	2
NMTAP	102	72	6
NMTAP	102	144	1
NMTAP	102	144	7
NMTAP	102	192	0
NMTAP	102	192	6
NMTAP	102	264	1
NMTAP	102	264	5
NMTAP	102	336	2
NMTAP	102	336	4
NMTTP	105	0	0	B	0	M1
NMTTP	105	0	0	C	1	M1
NMTTP	105	0	0	E	0	M1
NMTTP	105	0	0	A	0	M1
NMTTP	105	0	0	D	0	M1
NMTTP	105	0	1	B	0	M1
NMTTP	105	0	1	E	0	M1
NMTTP	105	0	1	A	0	M1
NMTTP	105	0	1	D	0	M1
NMTTP	105	0	2	B	0	M1
NMTTP	105	0	2	E	0	M1
NMTTP	105	0	2	A	0	M1
NMTTP	105	0	2	D	0	M1
NMTTP	105	0	3	B	0	M1
NMTTP	105	0	3	E	0	M1
NMTTP	105	0	4	B	0	M1
NMTTP	105	0	5	B	0	M1
NMTTP	105	0	5	E	0	M1
NMTTP	105	0	5	A	0	M1
NMTTP	105	0	6	B	0	M1
NMTTP	105	0	6	E	0	M1
NMTTP	105	0	6	A	0	M1
NMTTP	105	0	6	D	0	M1
NMTTP	105	0	7	B	0	M1
NMTTP	105	0	7	E	0	M1
NMTTP	105	0	7	A	0	M1
NMTTP	105	0	7	D	0	M1
NMTAP	106	336	0
NMTAP	106	336	7
NMTAP	107	48	2
NMTAP	107	48	5
NMTAP	107	96	2
NMTAP	107	96	5
NMTAP	107	240	3
NMTAP	107	264	4
NMTAP	107	288	2
NMTAP	107	336	2
NMTAP	108	0	2
NMTAP	108	0	4
NMTAP	108	48	2
NMTAP	108	48	4
NMTAP	108	96	5
NMTAP	108	144	5
NMTAP	108	192	3
NMTAP	108	192	5
NMSTR	108	240	2
NMSCR	108	240	2	96	48	5
NMTAP	108	240	6
NMHLD	108	336	7	96
NMTAP	109	48	0
NMTAP	109	96	0
NMTAP	109	192	2
NMTAP	109	240	3
NMTAP	109	288	4
NMSTR	109	336	5
NMSI_	109	336	5	96	48	0
NMTAP	110	48	4
NMTAP	110	48	5
NMSTR	110	144	2
NMSI_	110	144	2	96	48	7
NMTAP	110	240	2
NMSTR	110	240	3
NMSCR	110	240	3	96	192	2
NMTTP	110	336	0	C	1	M1
EXSTR	111	288	0
BRSSR	111	288	0	96	96	4
EXSTR	111	288	7
BRSSL	111	288	7	96	96	3
NMSTR	112	192	1
BRSI_	112	192	1	96	48	4
NMSTR	112	192	6
BRSI_	112	192	6	96	48	3
BRTAP	112	288	1
BRTAP	112	288	6
NMTAP	113	0	0
NMTAP	113	12	1
NMTAP	113	24	2
NMTAP	113	36	3
NMTAP	113	48	4
NMTAP	113	60	5
NMTAP	113	72	6
NMTAP	113	84	7
BXTAP	113	96	0
BXTAP	113	96	4
NMTAP	113	288	5
NMTAP	114	0	0
NMSTR	114	0	7
NMSI_	114	0	7	96	48	3
NMTAP	114	96	2
NMTAP	114	144	2
NMSTR	114	240	1
NMSI_	114	240	1	96	48	3
NMSTR	114	240	5
NMSI_	114	240	5	96	48	3
NMTAP	114	336	1
NMTAP	114	336	5
NMTAP	115	48	0
NMTAP	115	48	4
NMTAP	115	96	0
NMTAP	115	96	4
NMSTR	115	192	5
NMSI_	115	192	5	96	48	0
NMTAP	115	288	3
NMTAP	115	288	5
NMSTR	116	0	2
NMSI_	116	0	2	96	48	7
NMTAP	116	96	2
NMTAP	116	96	4
NMHLD	116	192	5	96
NMTAP	116	288	4
NMTAP	116	336	4
NMTAP	117	48	0
NMTAP	117	48	6
NMTAP	117	96	0
NMTAP	117	96	6
NMTAP	117	192	1
NMTAP	117	192	5
NMTAP	117	240	1
NMTAP	117	240	5
NMSTR	117	336	4
BRSCR	117	336	4	96	48	7
NMSTR	118	48	3
BRSCL	118	48	3	96	48	0
NMTAP	118	48	4
NMTAP	118	144	3
NMSTR	118	144	4
BRSCR	118	144	4	96	48	7
NMSTR	118	240	3
BRSCL	118	240	3	96	48	0
NMTAP	118	240	4
NMTAP	118	336	3
NMSTR	118	336	4
BRSCR	118	336	4	96	48	7
NMSTR	119	48	3
BRSCL	119	48	3	96	48	0
NMTAP	119	48	4
NMTAP	119	144	3
NMTAP	119	144	4
NMTAP	119	240	1
NMTAP	119	240	5
NMTAP	119	288	1
NMTAP	119	288	5
NMSTR	120	0	0
NMSI_	120	0	0	96	48	4
NMSTR	120	0	1
NMSI_	120	0	1	96	48	3
NMTAP	120	96	0
NMTAP	120	96	1
NMSTR	120	192	6
NMSI_	120	192	6	96	48	4
NMSTR	120	192	7
NMSI_	120	192	7	96	48	3
NMTAP	120	288	6
NMTAP	120	288	7
NMSTR	121	0	2
NMSI_	121	0	2	96	48	5
NMTAP	121	96	2
NMSTR	121	96	6
NMSI_	121	96	6	96	48	1
NMSTR	121	192	3
NMSI_	121	192	3	96	48	7
NMTAP	121	192	6
NMTAP	121	288	3
NMSTR	121	288	5
NMSI_	121	288	5	96	48	0
NMSTR	122	0	1
NMSI_	122	0	1	96	48	5
NMTAP	122	0	5
NMTAP	122	96	1
NMSTR	122	96	7
NMSI_	122	96	7	96	48	3
NMSTR	122	192	4
NMSI_	122	192	4	96	48	0
NMTAP	122	192	7
NMTAP	122	288	4
EXTAP	123	0	2
EXTAP	123	0	6
NMTAP	123	96	0
NMTAP	123	144	1
NMTAP	123	144	7
NMTAP	123	240	4
NMTAP	123	288	3
NMTAP	123	288	5
NMTAP	124	0	6
NMSTR	124	48	6
NMSLR	124	48	6	96	144	4
NMTAP	124	144	4
NMTAP	124	192	4
NMTAP	124	288	2
BRSTR	125	0	5
NMSI_	125	0	5	96	48	2
BRSTR	125	96	1
NMSI_	125	96	1	96	48	6
BRTAP	125	96	5
BRTAP	125	192	1
BRSTR	125	192	4
NMSI_	125	192	4	96	48	0
BRSTR	125	288	2
NMSI_	125	288	2	96	48	7
BRTAP	125	288	4
BRTAP	126	0	2
BRSTR	126	0	6
NMSI_	126	0	6	96	48	2
BRSTR	126	96	0
NMSI_	126	96	0	96	48	4
BRTAP	126	96	6
BRTAP	126	192	0
BRSTR	126	192	3
NMSI_	126	192	3	96	48	7
BRTAP	126	288	3
EXTAP	127	0	1
EXTAP	127	0	5
NMTAP	127	96	7
NMTAP	127	144	0
NMTAP	127	144	6
NMTAP	127	240	3
NMTAP	127	288	2
NMSTR	127	288	4
BRSUL	127	288	4	96	144	3
CNSCL	128	144	3	0	144	5
BRTAP	128	336	3
BRHLD	129	96	0	288
BRHLD	129	96	7	192
NMTAP	130	0	6
NMTAP	130	48	1
NMTAP	130	48	7
NMTAP	130	96	1
NMTAP	130	96	7
NMTAP	130	192	2
NMTAP	130	192	3
NMSTR	130	240	2
NMSI_	130	240	2	96	48	6
NMSTR	130	240	3
NMSI_	130	240	3	96	48	7
BRTAP	130	336	2
BRTAP	130	336	3

T_REC_TAP	544
T_REC_BRK	29
T_REC_XTP	53
T_REC_BXX	10
T_REC_HLD	43
T_REC_XHO	14
T_REC_BHO	4
T_REC_BXH	0
T_REC_STR	136
T_REC_BST	8
T_REC_XST	5
T_REC_XBS	0
T_REC_TTP	35
T_REC_THO	0
T_REC_SLD	134
T_REC_BSL	15
T_REC_ALL	1030
T_NUM_TAP	773
T_NUM_BRK	66
T_NUM_HLD	57
T_NUM_SLD	134
T_NUM_ALL	1030
T_JUDGE_TAP	820
T_JUDGE_HLD	142
T_JUDGE_SLD	149
T_JUDGE_ALL	1111
TTM_EACHPAIRS	229
TTM_SCR_TAP	386500
TTM_SCR_BRK	171600
TTM_SCR_HLD	57000
TTM_SCR_SLD	201000
TTM_SCR_ALL	816100
TTM_SCR_S	785250
TTM_SCR_SS	809500
TTM_RAT_ACV	10081

