VERSION	0.00.00	1.04.00
FES_MODE	0
BPM_DEF	215.000	215.000	215.000	215.000
MET_DEF	4	4
RESOLUTION	384
CLK_DEF	384
COMPATIBLE_CODE	MA2

BPM	0	0	215.000
MET	0	0	4	4

BXHLD	2	336	1	720
BXHLD	2	336	5	720
BXHLD	4	336	2	528
BXHLD	4	336	6	528
NMTAP	6	144	3
NMTAP	6	144	5
NMTAP	6	240	3
NMTAP	6	240	5
BXTAP	6	336	1
BXTAP	6	336	6
NMHLD	7	96	2	96
NMHLD	7	192	3	96
NMHLD	7	288	4	96
NMHLD	8	0	5	96
NMHLD	8	96	6	96
NMTAP	8	192	7
NMTAP	8	240	7
EXTAP	8	336	0
EXTAP	8	336	7
NMTAP	9	48	1
NMTAP	9	96	1
NMTAP	9	192	2
NMTAP	9	288	3
NMTAP	10	0	3
NMTAP	10	0	4
NMTAP	10	96	3
NMTAP	10	144	3
NMTAP	10	240	4
NMTAP	10	288	4
BXHLD	11	0	0	1440
BXHLD	11	0	6	1440
NMTAP	15	0	5
NMTAP	15	96	4
NMTAP	15	192	3
NMTAP	15	288	2
NMTAP	15	288	5
NMTAP	16	0	2
NMTAP	16	96	3
NMTAP	16	192	4
NMTAP	16	288	2
NMTAP	16	288	5
EXTAP	17	0	0
EXTAP	17	0	7
EXTAP	17	144	1
EXTAP	17	144	3
EXTAP	17	288	4
EXTAP	17	288	6
EXSTR	18	48	3
NMSI_	18	48	3	96	96	7
EXSTR	18	48	4
NMSI_	18	48	4	96	96	0
NMHLD	19	0	2	288
NMTAP	19	96	3
NMTAP	19	192	3
NMTAP	19	288	3
NMHLD	20	0	5	288
NMTAP	20	96	4
NMTAP	20	192	4
NMTAP	20	288	4
NMHLD	21	0	2	96
NMHLD	21	96	3	96
NMHLD	21	192	4	96
NMSTR	21	288	5
NMSXL	21	288	5	96	192	3
NMHLD	23	0	2	96
NMTAP	23	96	3
NMHLD	23	192	5	96
NMTAP	23	288	4
NMHLD	24	0	1	96
NMTAP	24	96	3
NMHLD	24	192	6	96
NMTAP	24	288	4
EXTAP	25	0	4
EXTAP	25	0	5
EXTAP	25	144	2
EXTAP	25	144	3
EXTAP	25	288	5
EXSTR	25	288	7
NMSCL	25	288	7	96	192	1
NMHLD	27	0	5	288
NMTAP	27	96	3
NMTAP	27	192	4
NMTAP	27	288	3
NMHLD	28	0	2	288
NMTAP	28	96	4
NMTAP	28	192	3
NMTAP	28	288	4
NMHLD	29	0	5	96
NMHLD	29	96	4	96
NMHLD	29	192	3	96
NMSTR	29	288	2
NMSXR	29	288	2	96	192	4
NMHLD	31	0	6	96
NMTAP	31	96	4
NMHLD	31	192	1	96
NMTAP	31	288	3
NMHLD	32	0	7	96
NMTAP	32	96	4
NMHLD	32	192	0	96
NMTAP	32	288	3
EXTAP	33	0	1
EXTAP	33	0	3
EXTAP	33	144	4
EXTAP	33	144	6
EXSTR	33	288	0
NMSCR	33	288	0	96	192	6
EXTAP	33	288	2
NMTTP	35	0	0	C	1	M1
NMTTP	35	0	3	B	0	M1
NMTTP	35	0	4	B	0	M1
NMTTP	36	0	0	E	0	M1
NMTTP	36	192	1	E	0	M1
NMTTP	37	0	2	E	0	M1
NMTTP	37	192	3	E	0	M1
NMTTP	38	0	4	E	0	M1
NMTTP	38	192	0	C	0	M1
NMTTP	38	192	2	B	0	M1
NMTTP	38	192	5	B	0	M1
EXTAP	39	0	0
EXTAP	39	0	7
NMTAP	39	192	1
NMHLD	39	288	2	288
NMTAP	40	96	3
NMTAP	40	192	3
NMTAP	41	0	3
NMTAP	41	0	4
NMTAP	41	192	5
NMHLD	41	288	6	192
NMTAP	42	96	1
EXTAP	42	192	0
EXTAP	42	192	7
EXTAP	42	264	0
EXTAP	42	264	7
EXTAP	42	336	0
EXTAP	42	336	7
NMHLD	43	96	2	96
NMHLD	43	96	3	96
NMHLD	43	288	4	96
NMHLD	43	288	5	96
NMHLD	44	96	1	96
NMHLD	44	96	3	96
NMHLD	44	288	4	96
NMHLD	44	288	6	96
NMHLD	45	96	0	96
NMHLD	45	96	2	96
NMHLD	45	288	5	96
NMHLD	45	288	7	96
NMTAP	46	96	0
NMTAP	46	96	7
NMTAP	46	192	1
NMTAP	46	288	2
EXTAP	47	0	3
EXTAP	47	0	6
EXTAP	47	144	3
EXTAP	47	144	6
EXSTR	47	288	1
NMSCR	47	288	1	96	48	3
EXSTR	47	288	4
NMSCR	47	288	4	96	48	6
NMTAP	48	192	0
NMTAP	48	192	7
NMTAP	48	288	1
NMTAP	48	288	6
EXTAP	49	0	2
NMTAP	49	48	2
EXTAP	49	144	5
NMTAP	49	192	5
EXTAP	49	288	3
EXTAP	49	288	4
NMSTR	49	336	3
NMSI_	49	336	3	96	48	0
NMTAP	49	336	4
BXTAP	50	336	2
BXTAP	50	336	6
NMTAP	51	192	7
NMTAP	51	288	0
NMTAP	52	0	1
NMTAP	52	0	7
NMTAP	52	96	2
NMTAP	52	144	2
NMTAP	52	240	3
NMTAP	52	240	4
NMTAP	52	336	4
EXSTR	52	336	5
NMSI_	52	336	5	96	48	0
EXSTR	53	192	2
NMSI_	53	192	2	96	48	7
EXSTR	54	0	5
NMSI_	54	0	5	96	48	0
EXTAP	54	192	2
EXTAP	54	336	3
EXHLD	54	336	5	672
NMTAP	55	96	7
NMTAP	55	192	0
NMTAP	55	288	1
NMTAP	55	336	1
NMTAP	56	48	2
NMTAP	56	144	3
NMTAP	56	240	4
BRTAP	56	336	0
BRTAP	56	336	6
NMTAP	57	96	0
NMTAP	57	96	1
NMTAP	57	192	2
NMTAP	57	192	3
NMTAP	57	288	4
NMTAP	57	288	5
NMTAP	58	0	6
NMTAP	58	0	7
NMSTR	58	96	0
NMSI_	58	96	0	96	48	4
NMTAP	58	96	1
BXTAP	58	336	3
BXTAP	58	336	7
NMTAP	59	192	0
NMTAP	59	288	7
NMTAP	60	0	0
NMTAP	60	0	6
NMTAP	60	96	5
NMTAP	60	144	5
NMTAP	60	240	3
NMTAP	60	240	4
EXSTR	60	336	2
NMSI_	60	336	2	96	48	7
NMTAP	60	336	3
EXSTR	61	192	5
NMSI_	61	192	5	96	48	0
EXSTR	62	0	2
NMSI_	62	0	2	96	48	7
EXTAP	62	192	5
EXHLD	62	336	2	672
EXTAP	62	336	4
NMTAP	63	96	0
NMTAP	63	192	7
NMTAP	63	288	6
NMTAP	63	336	6
NMTAP	64	48	5
NMTAP	64	144	4
NMSTR	64	240	3
NMSI_	64	240	3	96	48	7
NMTAP	65	192	0
NMTAP	65	192	1
NMTAP	65	288	2
NMTAP	65	288	3
EXTAP	66	0	4
EXSTR	66	0	5
NMSI_	66	0	5	96	48	1
EXTAP	66	192	0
BXTAP	67	0	0
NMTAP	67	0	2
BXTAP	67	96	0
NMTAP	67	96	2
NMTAP	67	192	5
BXTAP	67	192	7
NMTAP	67	288	5
BXTAP	67	288	7
BXTAP	68	0	1
NMTAP	68	0	3
BXTAP	68	96	1
NMTAP	68	96	3
NMTAP	68	192	4
BXTAP	68	192	6
NMTAP	68	288	4
BXTAP	68	288	6
BXHLD	69	0	1	96
EXHLD	69	0	5	96
EXHLD	69	144	3	96
BXHLD	69	144	7	96
BXSTR	69	288	0
NMSSL	69	288	0	96	192	4
EXTAP	69	288	5
NMTAP	71	0	3
NMTAP	71	0	4
BXHLD	71	96	1	576
BXHLD	71	96	7	576
NMTTP	73	0	2	B	0	M1
NMTTP	73	0	3	B	0	M1
NMTTP	74	0	4	B	0	M1
NMTTP	74	0	5	B	0	M1
EXTAP	74	288	0
EXTAP	74	288	7
NMHLD	75	0	1	96
NMHLD	75	96	2	96
NMHLD	75	192	3	96
NMHLD	75	288	4	96
NMHLD	76	0	5	96
NMHLD	76	96	6	96
EXTAP	76	192	7
EXTAP	76	288	0
NMTAP	77	0	1
NMTAP	77	0	5
NMTAP	77	96	1
NMTAP	77	96	5
NMTAP	77	192	3
NMTAP	77	192	7
NMTAP	77	288	3
NMTAP	77	288	7
NMHLD	78	0	0	96
NMHLD	78	0	5	96
NMTTP	78	192	0	C	1	M1
NMTTP	78	192	1	B	0	M1
NMTTP	78	192	2	B	0	M1
NMTTP	78	192	3	B	0	M1
NMTTP	78	192	4	B	0	M1
NMTTP	78	192	5	B	0	M1
NMTTP	78	192	6	B	0	M1
EXHLD	79	0	7	576
NMSTR	79	96	0
NMSI_	79	96	0	96	96	6
CNSI_	79	288	6	0	96	1
CNSI_	80	0	1	0	96	5
CNSI_	80	96	5	0	48	2
CNSI_	80	144	2	0	48	4
NMTAP	81	0	0
NMTAP	81	0	1
NMTAP	81	96	2
NMTAP	81	96	3
NMTAP	81	192	4
NMTAP	81	192	5
NMTAP	81	288	6
NMTAP	81	288	7
EXSTR	82	0	0
NMSCL	82	0	0	96	96	5
EXSTR	82	0	1
NMSCR	82	0	1	96	96	4
BXTAP	83	0	4
EXTAP	83	0	6
BXTAP	83	96	4
EXTAP	83	96	6
BXTAP	83	192	3
EXTAP	83	192	5
BXTAP	83	288	3
EXTAP	83	288	5
BXTAP	84	0	2
EXTAP	84	0	4
BXTAP	84	96	2
EXTAP	84	96	4
BXTAP	84	192	1
EXTAP	84	192	3
BXTAP	84	288	1
EXTAP	84	288	3
BXSTR	85	0	0
NMSCR	85	0	0	96	144	5
NMTTP	86	0	0	C	1	M1
NMTTP	86	0	1	B	0	M1
NMTTP	86	0	2	B	0	M1
NMTTP	86	0	3	B	0	M1
NMTTP	86	0	4	B	0	M1
NMTTP	86	0	5	B	0	M1
NMTTP	86	0	6	B	0	M1
EXTAP	87	0	3
EXTAP	87	0	6
NMTAP	87	96	5
NMTAP	87	144	5
NMTAP	87	192	4
EXTAP	87	288	3
EXTAP	87	288	6
NMTAP	88	0	5
NMTAP	88	48	5
NMTAP	88	96	4
NMTTP	88	192	0	B	0	M1
NMTTP	88	192	0	E	1	M1
NMTTP	88	192	0	A	0	M1
NMTTP	88	192	0	D	0	M1
NMTTP	88	192	1	E	0	M1
NMTTP	88	192	7	B	0	M1
NMTTP	88	192	7	E	0	M1
NMTTP	88	192	7	A	0	M1
EXTAP	89	0	1
EXTAP	89	0	4
NMTAP	89	96	2
NMTAP	89	144	2
NMTAP	89	192	3
EXTAP	89	288	1
EXTAP	89	288	4
NMTAP	90	0	2
NMTAP	90	48	2
NMTAP	90	96	3
NMTTP	90	192	0	B	0	M1
NMTTP	90	192	0	E	1	M1
NMTTP	90	192	0	A	0	M1
NMTTP	90	192	0	D	0	M1
NMTTP	90	192	1	E	0	M1
NMTTP	90	192	7	B	0	M1
NMTTP	90	192	7	E	0	M1
NMTTP	90	192	7	A	0	M1
EXTAP	91	0	3
EXTAP	91	0	6
NMTAP	91	96	5
NMTAP	91	144	5
NMTAP	91	192	4
EXTAP	91	288	3
EXTAP	91	288	6
NMTAP	92	0	5
NMTAP	92	48	5
NMTAP	92	96	4
NMTTP	92	192	0	B	0	M1
NMTTP	92	192	0	E	1	M1
NMTTP	92	192	0	A	0	M1
NMTTP	92	192	0	D	0	M1
NMTTP	92	192	1	E	0	M1
NMTTP	92	192	7	B	0	M1
NMTTP	92	192	7	E	0	M1
NMTTP	92	192	7	A	0	M1
EXTAP	93	0	1
EXTAP	93	0	4
NMTAP	93	96	2
NMTAP	93	144	2
NMTAP	93	192	3
EXSTR	93	288	1
NMSI_	93	288	1	96	48	3
EXHLD	93	288	4	240
CNSI_	94	48	3	0	96	7
EXSTR	95	0	5
NMSI_	95	0	5	96	48	3
NMSTR	95	192	2
NMSI_	95	192	2	96	48	4
NMSTR	96	0	6
NMSI_	96	0	6	96	48	3
NMSTR	96	192	1
NMSI_	96	192	1	96	48	4
NMTAP	97	0	7
NMTAP	97	96	6
NMTAP	97	192	5
NMSTR	97	288	4
NMSSL	97	288	4	96	192	0
EXTAP	98	336	0
EXHLD	98	336	2	288
NMTAP	99	48	7
NMTAP	99	96	7
NMTAP	99	192	6
NMTAP	99	240	6
EXHLD	99	336	5	288
EXTAP	99	336	7
NMTAP	100	48	0
NMTAP	100	96	0
NMTAP	100	192	1
NMTAP	100	240	1
BXSTR	100	336	2
BRSCR	100	336	2	96	240	1
BXTAP	100	336	5
EXTAP	102	0	0
EXTAP	102	0	6
EXTAP	102	72	0
EXTAP	102	72	6
EXTAP	102	144	0
EXTAP	102	144	6
EXTAP	102	192	1
EXTAP	102	192	7
EXTAP	102	264	1
EXTAP	102	264	7
EXTAP	102	336	1
EXTAP	102	336	7
BXSTR	104	336	0
NMSV_	104	336	0	96	528	2
BXSTR	104	336	4
NMSV_	104	336	4	96	528	6
NMTAP	106	336	1
NMTAP	106	336	6
NMTAP	107	48	3
NMTAP	107	48	4
NMHLD	107	96	3	192
NMHLD	107	96	4	192
NMTTP	108	0	0	C	1	M1
NMTTP	108	0	1	B	0	M1
NMTTP	108	0	2	B	0	M1
NMTTP	108	0	2	E	0	M1
NMTTP	108	0	5	B	0	M1
NMTTP	108	0	6	B	0	M1
NMTTP	108	0	6	E	0	M1
EXHLD	108	336	2	672
EXTAP	108	336	4
NMTAP	109	96	0
NMTAP	109	192	7
NMTAP	109	288	6
NMTAP	109	336	6
NMTAP	110	48	5
NMTAP	110	144	4
NMTAP	110	240	3
BRTAP	110	336	1
BRTAP	110	336	7
NMTAP	111	96	6
NMTAP	111	96	7
NMTAP	111	192	4
NMTAP	111	192	5
NMTAP	111	288	2
NMTAP	111	288	3
NMSTR	112	0	0
NMSCR	112	0	0	96	192	6
NMTAP	112	0	1
BRTAP	113	96	1
BRTAP	113	96	7
NMTAP	113	288	0
NMTAP	114	0	1
NMTAP	114	0	7
NMTAP	114	96	2
NMTAP	114	144	2
NMTAP	114	240	3
NMTAP	114	240	4
NMTAP	114	336	4
EXSTR	114	336	5
NMSI_	114	336	5	96	48	0
EXSTR	115	192	2
NMSI_	115	192	2	96	48	7
EXSTR	116	0	5
NMSI_	116	0	5	96	48	0
EXTAP	116	192	2
EXTAP	116	336	3
EXHLD	116	336	5	672
NMTAP	117	96	7
NMTAP	117	192	0
NMTAP	117	288	1
NMTAP	117	336	1
NMTAP	118	48	2
NMTAP	118	144	3
NMSTR	118	240	4
NMSI_	118	240	4	96	48	0
NMTAP	119	192	2
NMTAP	119	192	3
NMTAP	119	288	4
NMTAP	119	288	5
EXSTR	120	0	6
NMSI_	120	0	6	96	48	2
EXTAP	120	0	7
EXTAP	120	192	0
BXTAP	121	0	1
NMTAP	121	0	3
BXTAP	121	96	2
NMTAP	121	96	4
BXTAP	121	192	3
NMTAP	121	192	5
BXTAP	121	288	4
NMTAP	121	288	6
BXTAP	122	0	5
NMTAP	122	0	7
NMTAP	122	96	0
BXTAP	122	96	6
NMTAP	122	192	1
BXTAP	122	192	7
BXTAP	122	288	0
NMTAP	122	288	2
EXHLD	123	0	1	96
EXHLD	123	0	3	96
EXHLD	123	144	2	96
EXHLD	123	144	7	96
EXTAP	123	288	0
EXTAP	123	288	5
NMTAP	124	0	2
NMTAP	124	96	3
NMTAP	124	192	4
NMTAP	124	288	5
NMTAP	125	0	4
BXTAP	125	0	6
NMTAP	125	96	3
BXTAP	125	96	5
NMTAP	125	192	2
BXTAP	125	192	4
NMTAP	125	288	1
BXTAP	125	288	3
NMTAP	126	0	0
BXTAP	126	0	2
BXTAP	126	96	1
NMTAP	126	96	7
BXTAP	126	192	0
NMTAP	126	192	6
NMTAP	126	288	5
BXTAP	126	288	7
EXHLD	127	0	4	96
EXHLD	127	0	6	96
EXHLD	127	144	0	96
EXHLD	127	144	5	96
EXTAP	127	288	2
EXTAP	127	288	7
NMTAP	128	0	3
NMTAP	128	96	4
NMTAP	128	144	4
NMTAP	128	240	3
NMTAP	128	240	4
NMSTR	128	336	1
NMSI_	128	336	1	96	48	3
NMSTR	128	336	6
NMSI_	128	336	6	96	48	4
CNSI_	129	96	3	0	96	7
CNSI_	129	96	4	0	96	0
NMTAP	130	48	7
NMTAP	130	96	7
NMTAP	130	192	1
NMSTR	130	240	1
BRSI_	130	240	1	96	48	5
BXTAP	130	336	6

T_REC_TAP	230
T_REC_BRK	6
T_REC_XTP	90
T_REC_BXX	40
T_REC_HLD	47
T_REC_XHO	18
T_REC_BHO	0
T_REC_BXH	10
T_REC_STR	15
T_REC_BST	0
T_REC_XST	21
T_REC_XBS	5
T_REC_TTP	60
T_REC_THO	0
T_REC_SLD	39
T_REC_BSL	2
T_REC_ALL	583
T_NUM_TAP	416
T_NUM_BRK	63
T_NUM_HLD	65
T_NUM_SLD	39
T_NUM_ALL	583
T_JUDGE_TAP	467
T_JUDGE_HLD	365
T_JUDGE_SLD	41
T_JUDGE_ALL	873
TTM_EACHPAIRS	149
TTM_SCR_TAP	208000
TTM_SCR_BRK	163800
TTM_SCR_HLD	65000
TTM_SCR_SLD	58500
TTM_SCR_ALL	495300
TTM_SCR_S	474350
TTM_SCR_SS	489000
TTM_RAT_ACV	10128

