VERSION	0.00.00	1.04.00
FES_MODE	0
BPM_DEF	215.000	215.000	215.000	215.000
MET_DEF	4	4
RESOLUTION	384
CLK_DEF	384
COMPATIBLE_CODE	MA2

BPM	0	0	215.000
MET	0	0	4	4

NMTAP	7	96	2
NMTAP	7	288	2
NMTAP	8	96	3
NMTAP	8	288	3
NMTAP	9	96	4
NMTAP	9	288	4
NMTAP	10	96	5
NMTAP	10	288	5
NMTHO	11	0	0	1536	C	1	L1
EXTAP	17	0	3
EXTAP	17	0	4
EXTAP	17	144	3
EXTAP	17	144	4
EXTAP	17	288	3
EXTAP	17	288	4
EXTAP	18	48	3
EXTAP	18	48	4
NMTAP	19	0	2
NMTAP	19	192	2
NMTAP	19	192	3
NMTAP	20	0	4
NMTAP	20	96	4
NMTAP	20	192	4
NMTAP	21	0	5
NMTAP	21	192	4
NMTAP	21	192	5
NMTAP	22	0	3
NMTAP	22	96	3
NMTAP	22	192	3
NMTAP	23	0	2
NMTAP	23	192	2
NMTAP	23	192	3
NMTAP	24	0	4
NMTAP	24	96	4
NMTAP	24	192	4
EXHLD	25	0	4	432
EXHLD	25	0	5	432
NMTAP	27	0	6
NMTAP	27	192	6
NMTAP	27	192	7
NMTAP	28	0	0
NMTAP	28	96	0
NMTAP	28	192	0
NMTAP	29	0	1
NMTAP	29	192	0
NMTAP	29	192	1
NMTAP	30	0	7
NMTAP	30	96	7
NMTAP	30	192	7
NMTAP	31	0	6
NMTAP	31	192	6
NMTAP	31	192	7
NMTAP	32	0	0
NMTAP	32	96	0
NMTAP	32	192	0
NMTAP	32	192	1
EXHLD	33	0	2	288
EXHLD	33	0	3	288
NMHLD	35	0	1	384
NMHLD	36	0	0	384
NMHLD	37	0	7	384
NMTAP	38	0	6
NMSTR	39	0	6
NMSI_	39	0	6	96	288	3
NMSTR	39	0	7
NMSI_	39	0	7	96	288	2
NMTAP	40	192	0
NMTAP	40	192	1
NMSTR	41	0	0
NMSI_	41	0	0	96	288	5
NMSTR	41	0	1
NMSI_	41	0	1	96	288	4
BXTAP	42	192	6
BXTAP	42	192	7
EXTAP	43	96	0
EXTAP	43	96	7
EXTAP	43	288	0
EXTAP	43	288	7
EXTAP	44	96	1
EXTAP	44	96	6
EXTAP	44	288	1
EXTAP	44	288	6
EXTAP	45	96	2
EXTAP	45	96	5
EXTAP	45	288	2
EXTAP	45	288	5
EXTAP	46	96	3
EXTAP	46	96	4
EXTAP	46	288	3
EXTAP	46	288	4
EXHLD	47	0	3	384
EXHLD	47	0	4	384
NMTTP	49	0	0	C	1	L1
NMTAP	51	0	1
NMTAP	51	96	1
NMTAP	51	192	2
NMTAP	51	288	2
NMTAP	52	0	3
NMTAP	52	96	3
NMTAP	52	192	4
NMTAP	52	192	5
NMTAP	53	0	6
NMTAP	53	0	7
NMTAP	53	192	6
NMTAP	53	192	7
NMTAP	54	0	0
NMTAP	54	0	1
NMTAP	54	192	0
NMTAP	54	192	1
NMTAP	55	0	2
NMTAP	55	96	2
NMTAP	55	192	3
NMTAP	55	288	3
NMTAP	56	0	4
NMTAP	56	96	4
NMTAP	56	192	5
NMTAP	56	288	5
NMHLD	57	0	3	192
NMHLD	57	0	4	192
NMTAP	58	0	4
NMTAP	58	0	5
NMTAP	58	96	4
NMTAP	58	96	5
NMTAP	58	192	4
NMTAP	58	192	5
NMTAP	59	0	6
NMTAP	59	96	6
NMTAP	59	192	5
NMTAP	59	288	5
NMTAP	60	0	4
NMTAP	60	96	4
NMTAP	60	192	2
NMTAP	60	192	3
NMTAP	61	0	0
NMTAP	61	0	1
NMTAP	61	192	0
NMTAP	61	192	1
NMTAP	62	0	6
NMTAP	62	0	7
NMTAP	62	192	6
NMTAP	62	192	7
NMTAP	63	0	5
NMTAP	63	96	5
NMTAP	63	192	4
NMTAP	63	288	4
NMTAP	64	0	3
NMTAP	64	96	3
NMTAP	64	192	2
NMTAP	64	288	2
NMHLD	65	0	3	192
NMHLD	65	0	4	192
NMTAP	66	0	2
NMTAP	66	0	3
NMTAP	66	96	2
NMTAP	66	96	3
NMTAP	66	192	2
NMTAP	66	192	3
NMTAP	67	0	1
NMTAP	67	96	1
NMTAP	67	192	0
NMTAP	67	192	1
NMTAP	68	0	6
NMTAP	68	96	6
NMTAP	68	192	6
NMTAP	68	192	7
NMTAP	69	0	5
NMTAP	69	96	5
NMTAP	69	192	4
NMTAP	69	192	5
NMTAP	70	0	2
NMTAP	70	96	2
NMTAP	70	192	2
NMTAP	70	192	3
NMTHO	71	0	0	768	C	1	L1
NMTTP	75	0	1	B	0	L1
NMTTP	75	96	2	B	0	L1
NMTTP	75	192	3	B	0	L1
NMTTP	76	0	6	B	0	L1
NMTTP	76	96	5	B	0	L1
NMTTP	76	192	4	B	0	L1
NMTTP	77	0	0	B	0	L1
NMTTP	77	96	1	B	0	L1
NMTTP	77	192	2	B	0	L1
NMTTP	77	192	3	B	0	L1
NMTTP	78	0	7	B	0	L1
NMTTP	78	96	6	B	0	L1
NMTTP	78	192	4	B	0	L1
NMTTP	78	192	5	B	0	L1
NMTAP	79	0	3
NMTAP	79	96	3
NMTAP	79	192	3
NMTAP	80	0	2
NMTAP	80	96	2
NMTAP	80	192	2
NMTAP	81	0	1
NMTAP	81	96	1
NMTAP	81	192	1
NMTAP	82	0	0
NMTAP	82	96	0
NMTAP	82	192	0
NMTAP	83	0	7
NMTAP	83	96	7
NMTAP	83	192	7
NMTAP	84	0	6
NMTAP	84	96	6
NMTAP	84	192	6
NMTAP	85	0	5
NMTAP	85	96	5
NMTAP	85	192	5
NMTAP	86	0	4
NMTAP	86	96	4
NMTAP	86	192	2
NMTAP	86	192	3
NMSTR	87	0	0
NMSI_	87	0	0	96	288	5
NMSTR	87	0	1
NMSI_	87	0	1	96	288	4
NMTAP	88	192	6
NMTAP	88	192	7
NMSTR	89	0	6
NMSI_	89	0	6	96	288	3
NMSTR	89	0	7
NMSI_	89	0	7	96	288	2
NMTAP	90	192	0
NMTAP	90	192	1
NMSTR	91	0	0
NMSI_	91	0	0	96	288	5
NMSTR	91	0	1
NMSI_	91	0	1	96	288	4
NMTAP	92	192	6
NMTAP	92	192	7
NMSTR	93	0	6
NMSI_	93	0	6	96	288	3
NMSTR	93	0	7
NMSI_	93	0	7	96	288	2
NMTAP	94	192	0
NMTAP	94	192	1
NMHLD	95	0	2	192
NMTAP	95	192	3
NMHLD	96	0	5	192
NMTAP	96	192	4
NMHLD	97	0	2	192
NMTAP	97	192	3
NMHLD	98	0	5	192
NMTAP	98	192	4
NMHLD	99	0	6	192
NMTAP	99	192	7
NMHLD	100	0	1	192
NMTAP	100	192	0
EXHLD	101	0	0	768
EXHLD	101	0	7	768
NMTTP	105	0	0	C	1	L1
BRTAP	107	0	0
BRTAP	107	0	1
BRTAP	107	192	2
BRTAP	107	192	3
BRTAP	108	0	4
BRTAP	108	0	5
BRTAP	108	192	6
BRTAP	108	192	7
NMTAP	109	0	5
NMTAP	109	96	5
NMTAP	109	192	4
NMTAP	109	288	4
NMTAP	110	0	2
NMTAP	110	0	3
NMTAP	110	96	2
NMTAP	110	96	3
NMTAP	110	192	2
NMTAP	110	192	3
NMTAP	111	0	2
NMTAP	111	96	2
NMTAP	111	192	3
NMTAP	111	288	3
NMTAP	112	0	4
NMTAP	112	0	5
NMTAP	112	96	4
NMTAP	112	96	5
NMTAP	112	192	4
NMTAP	112	192	5
NMTAP	113	0	5
NMTAP	113	96	5
NMTAP	113	192	6
NMTAP	113	192	7
NMTAP	113	288	6
NMTAP	113	288	7
NMTAP	114	0	0
NMTAP	114	96	0
NMTAP	114	192	0
NMTAP	114	192	7
NMTAP	114	288	0
NMTAP	114	288	7
NMTAP	115	0	1
NMTAP	115	96	1
NMTAP	115	192	0
NMTAP	115	192	1
NMTAP	115	288	0
NMTAP	115	288	1
NMTAP	116	0	2
NMTAP	116	96	2
NMTAP	116	192	3
NMTAP	116	192	4
NMTAP	117	0	2
NMTAP	117	96	2
NMTAP	117	192	0
NMTAP	117	192	1
NMTAP	117	288	0
NMTAP	117	288	1
NMTAP	118	0	7
NMTAP	118	96	7
NMTAP	118	192	0
NMTAP	118	192	7
NMTAP	118	288	0
NMTAP	118	288	7
NMTAP	119	0	6
NMTAP	119	96	6
NMTAP	119	192	6
NMTAP	119	192	7
NMTAP	119	288	6
NMTAP	119	288	7
NMTAP	120	0	5
NMTAP	120	96	5
NMTAP	120	192	3
NMTAP	120	192	4
NMTAP	121	0	3
NMTAP	121	96	3
NMTAP	121	192	2
NMTAP	121	288	2
NMTAP	122	0	1
NMTAP	122	96	1
NMTAP	122	192	0
NMTAP	122	288	0
NMTAP	123	0	7
NMTAP	123	96	7
NMTAP	123	192	6
NMTAP	123	288	6
NMTAP	124	0	5
NMTAP	124	96	5
NMTAP	124	192	3
NMTAP	124	192	4
NMTAP	125	0	4
NMTAP	125	96	4
NMTAP	125	192	5
NMTAP	125	288	5
NMTAP	126	0	6
NMTAP	126	96	6
NMTAP	126	192	7
NMTAP	126	288	7
NMTAP	127	0	0
NMTAP	127	96	0
NMTAP	127	192	1
NMTAP	127	288	1
NMTAP	128	0	2
NMTAP	128	96	2
NMTAP	128	192	3
NMTAP	128	192	4
NMTHO	129	0	0	720	C	1	L1

T_REC_TAP	259
T_REC_BRK	8
T_REC_XTP	24
T_REC_BXX	2
T_REC_HLD	13
T_REC_XHO	8
T_REC_BHO	0
T_REC_BXH	0
T_REC_STR	12
T_REC_BST	0
T_REC_XST	0
T_REC_XBS	0
T_REC_TTP	16
T_REC_THO	3
T_REC_SLD	12
T_REC_BSL	0
T_REC_ALL	357
T_NUM_TAP	311
T_NUM_BRK	10
T_NUM_HLD	24
T_NUM_SLD	12
T_NUM_ALL	357
T_JUDGE_TAP	321
T_JUDGE_HLD	205
T_JUDGE_SLD	12
T_JUDGE_ALL	538
TTM_EACHPAIRS	84
TTM_SCR_TAP	155500
TTM_SCR_BRK	26000
TTM_SCR_HLD	24000
TTM_SCR_SLD	18000
TTM_SCR_ALL	223500
TTM_SCR_S	215850
TTM_SCR_SS	222500
TTM_RAT_ACV	10044

