VERSION	0.00.00	1.04.00
FES_MODE	0
BPM_DEF	140.000	280.000	280.000	140.000
MET_DEF	4	4
RESOLUTION	384
CLK_DEF	384
COMPATIBLE_CODE	MA2

BPM	0	0	140.000
BPM	26	0	142.500
BPM	26	96	145.000
BPM	26	192	150.000
BPM	26	288	155.000
BPM	27	0	160.000
BPM	27	96	165.000
BPM	27	192	170.000
BPM	28	0	180.000
BPM	28	192	185.000
BPM	28	288	190.000
BPM	29	0	195.000
BPM	29	96	200.000
BPM	29	192	205.000
BPM	29	288	210.000
BPM	30	96	215.000
BPM	30	192	225.000
BPM	31	0	230.000
BPM	31	192	235.000
BPM	31	288	245.000
BPM	32	96	255.000
BPM	32	288	260.000
BPM	33	0	265.000
BPM	33	96	270.000
BPM	33	192	280.000
MET	0	0	4	4

NMSTR	1	96	3
NMSCL	1	96	3	96	96	0
NMTAP	2	0	0
NMTAP	2	0	7
NMTAP	2	48	0
NMTAP	2	48	7
NMTAP	2	96	5
NMTAP	2	96	6
NMTAP	2	144	5
NMTAP	2	144	6
NMTAP	2	192	2
NMTAP	2	192	4
NMTAP	2	240	2
NMTAP	2	240	4
EXTAP	2	288	3
EXTAP	2	320	3
EXTAP	2	352	3
NMTAP	3	0	4
NMTAP	3	0	5
NMTAP	3	48	4
NMTAP	3	48	5
NMTAP	3	96	2
NMTAP	3	96	3
NMTAP	3	144	2
NMTAP	3	144	3
NMTAP	3	192	1
NMTAP	3	192	4
NMTAP	3	216	1
NMTAP	3	216	4
NMTAP	3	240	1
NMTAP	3	240	4
EXTAP	3	288	0
EXTAP	3	320	0
EXTAP	3	352	0
NMTAP	4	0	6
NMTAP	4	0	7
NMTAP	4	48	6
NMTAP	4	48	7
NMTAP	4	96	4
NMTAP	4	96	5
NMTAP	4	120	4
NMTAP	4	120	5
NMTAP	4	144	4
NMTAP	4	144	5
BXTAP	4	192	3
BXTAP	4	192	6
BXTAP	4	216	3
BXTAP	4	216	6
BXTAP	4	240	3
BXTAP	4	240	6
EXTAP	4	288	2
NMTAP	4	320	2
NMTAP	4	352	2
EXTAP	5	0	4
NMTAP	5	32	4
NMTAP	5	64	4
EXTAP	5	96	3
NMTAP	5	128	3
NMTAP	5	160	3
NMHLD	5	192	2	24
NMHLD	5	192	4	24
NMHLD	5	240	2	24
NMHLD	5	240	4	24
NMTAP	5	288	1
NMTAP	5	288	5
NMTAP	5	312	1
NMTAP	5	312	5
NMTAP	5	336	1
NMTAP	5	336	5
NMTAP	6	0	0
NMTAP	6	0	6
NMTAP	6	48	7
NMTAP	6	96	0
NMTAP	6	96	7
NMTAP	6	144	0
NMTAP	6	144	7
EXTAP	6	192	1
EXTAP	6	192	6
EXTAP	6	216	1
EXTAP	6	216	6
EXTAP	6	240	1
EXTAP	6	240	6
EXTAP	6	264	1
EXTAP	6	264	6
EXTAP	6	288	1
EXTAP	6	288	6
NMTAP	7	0	6
NMTAP	7	0	7
NMTAP	7	48	4
NMTAP	7	48	5
NMTAP	7	96	2
NMTAP	7	96	3
NMTAP	7	144	0
NMTAP	7	144	1
NMSTR	7	192	6
NMSI_	7	192	6	96	48	4
NMSTR	7	192	7
NMSI_	7	192	7	96	48	3
NMTAP	7	224	0
NMTAP	7	224	5
NMTAP	7	256	0
NMTAP	7	256	5
NMSTR	8	0	0
NMSI_	8	0	0	96	48	4
NMSTR	8	0	1
NMSI_	8	0	1	96	48	3
NMTAP	8	32	2
NMTAP	8	32	7
NMTAP	8	64	2
NMTAP	8	64	7
NMSTR	8	192	6
NMSI_	8	192	6	96	48	4
NMSTR	8	192	7
NMSI_	8	192	7	96	48	3
NMTAP	8	224	0
NMTAP	8	224	5
NMTAP	8	256	0
NMTAP	8	256	5
NMTAP	9	0	3
NMTAP	9	24	3
NMTAP	9	48	5
NMTAP	9	72	5
NMTAP	9	96	1
NMTAP	9	120	1
NMTAP	9	144	7
NMTAP	9	168	7
NMTAP	9	192	0
NMTAP	9	204	1
NMTAP	9	216	2
NMTAP	9	228	3
NMTAP	9	240	4
NMTAP	9	252	5
NMTAP	9	264	6
NMTAP	9	276	7
NMSTR	9	288	0
NMSXL	9	288	0	96	1152	3
NMSXR	9	288	0	96	1152	5
NMTAP	9	300	1
NMTAP	9	312	2
NMTAP	9	324	3
NMTAP	9	336	4
NMTAP	9	348	5
NMTAP	9	360	6
NMTAP	9	372	7
BRTAP	10	0	0
NMHLD	14	0	5	384
NMTTP	14	192	3	E	0	M1
NMTTP	14	288	4	E	0	M1
NMHLD	15	0	4	384
NMTTP	15	192	5	E	0	M1
NMTTP	15	288	4	E	0	M1
NMHLD	16	0	3	384
NMTTP	16	192	4	E	0	M1
NMTTP	16	288	3	E	0	M1
NMHLD	17	0	2	192
NMTTP	17	192	4	E	0	M1
NMSTR	18	0	4
NMSCR	18	0	4	96	480	0
NMHLD	18	144	3	144
NMTAP	19	0	4
NMTAP	19	96	4
NMTAP	19	192	4
NMSTR	20	0	3
NMSCL	20	0	3	96	480	7
NMHLD	20	144	4	144
NMTAP	21	0	3
NMTAP	21	72	4
NMTAP	21	144	5
NMTAP	21	192	5
NMSTR	22	0	4
NMSCR	22	0	4	96	480	0
NMHLD	22	144	3	144
NMTAP	23	0	4
NMTAP	23	72	3
NMTAP	23	144	2
NMTAP	23	192	2
NMSTR	24	0	3
NMSCL	24	0	3	96	480	7
NMHLD	24	144	4	144
NMTAP	25	0	3
NMTAP	25	72	4
NMTAP	25	144	5
NMTAP	25	192	5
BRSTR	26	0	0
NMSCR	26	0	0	96	96	3
NMSTR	26	96	3
NMSCR	26	96	3	96	96	6
NMSTR	26	192	6
NMSCR	26	192	6	96	96	1
NMSTR	26	288	1
NMSCR	26	288	1	96	96	4
BRSTR	27	0	4
NMSCR	27	0	4	96	96	7
NMSTR	27	96	7
NMSCR	27	96	7	96	96	2
NMSTR	27	192	2
NMSCR	27	192	2	96	96	5
NMSTR	27	288	5
NMSCR	27	288	5	96	96	0
BRSTR	28	0	0
NMSCR	28	0	0	96	96	3
NMSTR	28	96	3
NMSCR	28	96	3	96	96	6
NMSTR	28	192	6
NMSCR	28	192	6	96	96	1
NMSTR	28	288	1
NMSCR	28	288	1	96	96	4
BRSTR	29	0	4
NMSCR	29	0	4	96	96	7
NMSTR	29	96	7
NMSCR	29	96	7	96	96	2
NMSTR	29	192	2
NMSCR	29	192	2	96	96	5
NMSTR	29	288	5
NMSCR	29	288	5	96	96	0
BRSTR	30	0	0
NMSCR	30	0	0	96	96	3
NMSTR	30	96	3
NMSCR	30	96	3	96	96	6
BRSTR	30	192	6
NMSCR	30	192	6	96	96	1
NMSTR	30	288	1
NMSCR	30	288	1	96	96	4
BRSTR	31	0	4
NMSCR	31	0	4	96	96	7
NMSTR	31	96	7
NMSCR	31	96	7	96	96	2
BRSTR	31	192	2
NMSCR	31	192	2	96	96	5
NMSTR	31	288	5
NMSCR	31	288	5	96	96	0
BRSTR	32	0	0
NMSCR	32	0	0	96	96	3
BRSTR	32	96	3
NMSCR	32	96	3	96	96	6
BRSTR	32	192	6
NMSCR	32	192	6	96	96	1
BRSTR	32	288	1
NMSCR	32	288	1	96	96	4
BRSTR	33	0	4
NMSCR	33	0	4	96	96	7
BRSTR	33	96	7
NMSCR	33	96	7	96	96	2
BRSTR	33	192	2
NMSCR	33	192	2	96	96	5
BRSTR	33	288	5
BRSUR	33	288	5	96	192	7
NMTTP	34	0	0	C	1	M1
NMSTR	34	288	0
NMSI_	34	288	0	96	48	4
NMSTR	35	0	7
NMSI_	35	0	7	96	48	3
NMSTR	35	96	1
NMSI_	35	96	1	96	48	5
NMSTR	35	192	6
NMSI_	35	192	6	96	48	2
NMSTR	35	288	0
NMSI_	35	288	0	96	48	3
NMSTR	36	0	7
NMSI_	36	0	7	96	48	4
NMSTR	36	96	1
NMSI_	36	96	1	96	48	6
NMSTR	36	192	5
NMSI_	36	192	5	96	48	2
NMTAP	36	288	1
NMTAP	36	336	1
NMHLD	37	0	1	96
NMHLD	37	96	3	96
NMHLD	37	192	4	96
NMHLD	37	288	6	96
NMTAP	38	0	0
NMTAP	38	48	0
NMTAP	38	96	5
NMTAP	38	144	5
NMHLD	38	192	1	96
NMSTR	38	288	7
NMSI_	38	288	7	96	48	3
NMSTR	39	0	0
NMSI_	39	0	0	96	48	4
NMSTR	39	96	6
NMSI_	39	96	6	96	48	2
NMSTR	39	192	1
NMSI_	39	192	1	96	48	5
NMSTR	39	288	7
NMSI_	39	288	7	96	48	4
NMSTR	40	0	0
NMSI_	40	0	0	96	48	3
NMSTR	40	96	6
NMSI_	40	96	6	96	48	1
NMSTR	40	192	2
NMSI_	40	192	2	96	48	5
NMTAP	40	288	6
NMTAP	40	336	6
NMHLD	41	0	6	96
NMHLD	41	96	4	96
NMHLD	41	192	3	96
NMHLD	41	288	1	96
NMTAP	42	0	7
NMTAP	42	48	7
NMTAP	42	96	2
NMTAP	42	144	2
NMHLD	42	192	6	96
NMSTR	42	288	0
NMSI_	42	288	0	96	48	4
NMSTR	43	0	7
NMSI_	43	0	7	96	48	3
NMSTR	43	96	1
NMSI_	43	96	1	96	48	5
NMSTR	43	192	6
NMSI_	43	192	6	96	48	2
NMSTR	43	288	0
NMSI_	43	288	0	96	48	3
NMSTR	44	0	7
NMSI_	44	0	7	96	48	4
NMSTR	44	96	1
NMSI_	44	96	1	96	48	5
NMTAP	44	192	6
NMTAP	44	288	7
NMTAP	44	336	7
NMSTR	45	0	0
NMSI_	45	0	0	96	48	4
NMSTR	45	96	6
NMSI_	45	96	6	96	48	2
NMSTR	45	192	1
NMSI_	45	192	1	96	48	5
NMSTR	45	288	7
NMSI_	45	288	7	96	48	4
NMSTR	46	0	0
NMSI_	46	0	0	96	48	3
NMSTR	46	96	6
NMSI_	46	96	6	96	48	2
NMTAP	46	192	0
NMTAP	46	240	0
NMTAP	46	288	1
NMTAP	46	336	1
NMSTR	47	0	7
NMSI_	47	0	7	96	48	3
NMSTR	47	96	1
NMSI_	47	96	1	96	48	5
NMSTR	47	192	6
NMSI_	47	192	6	96	48	2
NMSTR	47	288	0
NMSI_	47	288	0	96	48	3
NMSTR	48	0	7
NMSI_	48	0	7	96	48	4
NMSTR	48	96	1
NMSI_	48	96	1	96	48	5
NMTAP	48	192	6
NMTAP	48	240	6
NMTAP	48	288	0
NMTAP	48	336	0
NMTAP	49	0	0
NMTAP	49	0	7
NMTAP	49	96	6
NMTAP	49	144	6
NMTAP	49	192	1
NMTAP	49	240	1
NMTAP	49	288	7
NMTAP	49	336	7
NMTAP	50	0	3
NMTAP	50	48	3
NMTAP	50	96	5
NMTAP	50	144	5
EXTAP	50	192	2
NMTAP	50	192	4
EXTAP	50	256	1
EXTAP	50	320	0
NMSTR	51	0	0
NMSLR	51	0	0	96	192	4
NMTAP	51	128	5
NMTAP	51	192	5
NMTAP	51	256	5
NMTAP	51	320	5
NMTAP	52	0	4
NMTAP	52	0	5
NMTAP	52	64	4
NMTAP	52	64	5
NMTAP	52	128	4
NMTAP	52	128	5
NMTAP	52	192	4
NMTAP	52	192	5
NMTAP	52	256	5
NMTAP	52	288	4
NMTAP	52	320	6
NMSTR	53	0	7
NMSLL	53	0	7	96	192	3
NMTAP	53	128	2
NMTAP	53	192	2
NMTAP	53	256	2
NMTAP	53	320	2
NMTAP	54	0	2
NMTAP	54	32	3
NMTAP	54	64	2
NMTAP	54	128	2
NMTAP	54	160	3
NMTAP	54	192	2
NMTAP	54	256	2
NMTAP	54	288	3
NMTAP	54	320	1
NMSTR	55	0	0
NMSLR	55	0	0	96	192	4
NMTAP	55	128	5
NMTAP	55	192	5
NMTAP	55	256	5
NMTAP	55	320	5
NMTAP	56	0	4
NMTAP	56	0	5
NMTAP	56	64	4
NMTAP	56	64	5
NMTAP	56	128	4
NMTAP	56	128	5
NMTAP	56	192	4
NMTAP	56	192	5
NMTAP	56	256	5
NMTAP	56	288	4
NMTAP	56	320	6
NMTAP	57	0	2
NMTAP	57	64	2
NMTAP	57	96	3
NMTAP	57	128	1
NMTAP	57	192	2
NMTAP	57	256	2
NMTAP	57	288	3
NMTAP	57	320	1
NMTAP	58	0	5
NMTAP	58	64	5
NMTAP	58	96	4
NMTAP	58	128	6
NMTAP	58	192	5
NMTAP	58	256	5
NMTAP	58	288	4
NMTAP	58	320	6
NMSTR	59	0	7
NMSLL	59	0	7	96	192	3
NMTAP	59	128	2
NMTAP	59	192	2
NMTAP	59	256	2
NMTAP	59	320	2
NMTAP	60	0	2
NMTAP	60	0	3
NMTAP	60	64	2
NMTAP	60	64	3
NMTAP	60	128	2
NMTAP	60	128	3
BRTAP	60	192	1
BRTAP	60	192	4
NMSTR	61	0	0
NMSLR	61	0	0	96	192	4
NMTAP	61	128	5
NMTAP	61	192	5
NMTAP	61	256	5
NMTAP	61	320	5
NMTAP	62	0	4
NMTAP	62	0	5
NMTAP	62	64	4
NMTAP	62	64	5
NMTAP	62	128	4
NMTAP	62	128	5
BRTAP	62	192	3
BRTAP	62	192	6
NMSTR	63	0	5
NMSCR	63	0	5	96	96	0
NMTAP	63	64	5
NMTAP	63	128	3
NMTAP	63	192	3
NMSTR	64	0	2
NMSCL	64	0	2	96	96	7
NMTAP	64	64	2
NMTAP	64	128	4
NMTAP	64	192	4
NMTAP	65	0	5
NMTAP	65	48	5
NMTAP	65	96	5
NMTAP	65	144	5
NMTAP	65	192	2
NMTAP	65	240	2
NMTAP	65	288	6
NMTAP	65	336	6
EXTAP	66	0	0
EXTAP	66	24	7
EXTAP	66	48	0
EXTAP	66	72	7
EXTAP	66	96	0
EXTAP	66	120	7
EXTAP	66	144	0
EXTAP	66	168	7
EXTAP	66	192	0
EXTAP	66	216	7
EXTAP	66	240	0
EXTAP	66	264	7
EXTAP	66	288	0
EXTAP	66	312	7
EXTAP	66	336	0
EXTAP	66	360	7
BXTAP	67	0	0
EXTAP	67	96	6
NMTAP	67	120	5
NMTAP	67	144	4
NMTAP	67	168	3
EXTAP	67	192	7
NMTAP	67	216	6
NMTAP	67	240	5
NMTAP	67	264	4
NMTAP	67	288	3
NMTAP	67	336	7
NMTAP	68	0	7
NMTAP	68	96	0
NMTAP	68	144	6
NMTAP	68	168	5
NMTAP	68	192	4
NMTAP	68	240	1
NMTAP	68	264	2
NMTAP	68	288	3
NMTAP	68	336	7
NMTAP	69	0	7
EXTAP	69	96	1
NMTAP	69	120	2
NMTAP	69	144	3
NMTAP	69	168	4
EXTAP	69	192	0
NMTAP	69	216	1
NMTAP	69	240	2
NMTAP	69	264	3
NMTAP	69	288	4
NMTAP	69	336	0
NMSTR	70	0	0
NMSI_	70	0	0	96	48	4
NMTAP	70	96	6
EXTAP	70	192	7
NMTAP	70	216	6
NMTAP	70	240	5
NMTAP	70	264	4
EXTAP	70	288	0
NMTAP	70	312	1
NMTAP	70	336	2
NMTAP	70	360	3
BRTAP	71	0	6
EXTAP	71	96	1
NMTAP	71	120	2
NMTAP	71	144	3
NMTAP	71	168	4
EXTAP	71	192	0
NMTAP	71	216	1
NMTAP	71	240	2
NMTAP	71	264	3
NMTAP	71	288	4
NMTAP	71	336	0
NMTAP	72	0	0
NMTAP	72	96	7
NMTAP	72	144	1
NMTAP	72	168	2
NMTAP	72	192	3
NMTAP	72	240	6
NMTAP	72	264	5
NMTAP	72	288	4
NMTAP	72	336	0
NMTAP	73	0	0
EXTAP	73	96	6
NMTAP	73	120	5
NMTAP	73	144	4
NMTAP	73	168	3
EXTAP	73	192	7
NMTAP	73	216	6
NMTAP	73	240	5
NMTAP	73	264	4
NMTAP	73	288	3
NMTAP	73	336	7
NMSTR	74	0	7
NMSI_	74	0	7	96	48	3
NMTAP	74	96	1
EXTAP	74	192	0
NMTAP	74	216	1
NMTAP	74	240	2
NMTAP	74	264	3
EXTAP	74	288	7
NMTAP	74	312	6
NMTAP	74	336	5
NMTAP	74	360	4
BRTAP	75	0	1
EXTAP	75	96	5
NMTAP	75	120	6
NMTAP	75	144	7
NMTAP	75	168	0
EXTAP	75	192	4
NMTAP	75	216	5
NMTAP	75	240	6
NMTAP	75	264	7
NMTAP	75	288	0
NMTAP	75	336	4
NMTAP	76	0	4
NMTAP	76	96	2
NMTAP	76	144	7
NMTAP	76	168	6
NMTAP	76	192	5
NMTAP	76	240	0
NMTAP	76	264	1
NMTAP	76	288	2
NMTAP	76	336	7
NMTAP	77	0	7
EXTAP	77	96	2
NMTAP	77	120	1
NMTAP	77	144	0
NMTAP	77	168	7
EXTAP	77	192	3
NMTAP	77	216	2
NMTAP	77	240	1
NMTAP	77	264	0
NMTAP	77	288	7
NMTAP	77	336	3
NMSTR	78	0	3
NMSI_	78	0	3	96	48	7
NMTAP	78	96	5
EXTAP	78	192	6
NMTAP	78	216	5
NMTAP	78	240	4
NMTAP	78	264	3
EXTAP	78	288	0
NMTAP	78	312	1
NMTAP	78	336	2
NMTAP	78	360	3
BRTAP	79	0	7
EXTAP	79	96	2
NMTAP	79	120	1
NMTAP	79	144	0
NMTAP	79	168	7
EXTAP	79	192	3
NMTAP	79	216	2
NMTAP	79	240	1
NMTAP	79	264	0
NMTAP	79	288	7
NMTAP	79	336	3
NMTAP	80	0	3
NMTAP	80	96	5
NMTAP	80	144	0
NMTAP	80	168	1
NMTAP	80	192	2
NMTAP	80	240	7
NMTAP	80	264	6
NMTAP	80	288	5
NMTAP	80	336	0
NMTAP	81	0	0
EXTAP	81	96	5
NMTAP	81	120	6
NMTAP	81	144	7
NMTAP	81	168	0
EXTAP	81	192	4
NMTAP	81	216	5
NMTAP	81	240	6
NMTAP	81	264	7
NMTAP	81	288	0
NMTAP	81	336	4
NMSTR	82	0	4
NMSI_	82	0	4	96	48	0
NMTAP	82	96	2
EXTAP	82	192	1
NMTAP	82	216	2
NMTAP	82	240	3
NMTAP	82	264	4
EXTAP	82	288	7
NMTAP	82	312	6
NMTAP	82	336	5
NMTAP	82	360	4
NMHLD	83	0	3	768
BRTAP	85	192	2
BRTAP	85	224	6
BRTAP	85	256	2
BRTAP	85	288	6
BRTAP	86	0	1
BRTAP	86	32	5
BRTAP	86	64	1
BRTAP	86	96	5
BRTAP	86	128	2
BRTAP	86	160	6
BRTAP	86	192	3
BRTAP	86	224	7
BRTAP	86	256	4
BRTAP	86	288	0

T_REC_TAP	374
T_REC_BRK	22
T_REC_XTP	62
T_REC_BXX	7
T_REC_HLD	23
T_REC_XHO	0
T_REC_BHO	0
T_REC_BXH	0
T_REC_STR	74
T_REC_BST	16
T_REC_XST	0
T_REC_XBS	0
T_REC_TTP	8
T_REC_THO	0
T_REC_SLD	90
T_REC_BSL	1
T_REC_ALL	677
T_NUM_TAP	518
T_NUM_BRK	46
T_NUM_HLD	23
T_NUM_SLD	90
T_NUM_ALL	677
T_JUDGE_TAP	563
T_JUDGE_HLD	62
T_JUDGE_SLD	91
T_JUDGE_ALL	716
TTM_EACHPAIRS	65
TTM_SCR_TAP	259000
TTM_SCR_BRK	119600
TTM_SCR_HLD	23000
TTM_SCR_SLD	135000
TTM_SCR_ALL	536600
TTM_SCR_S	516050
TTM_SCR_SS	532000
TTM_RAT_ACV	10086

