VERSION	0.00.00	1.04.00
FES_MODE	0
BPM_DEF	140.000	280.000	280.000	140.000
MET_DEF	4	4
RESOLUTION	384
CLK_DEF	384
COMPATIBLE_CODE	MA2

BPM	0	0	140.000
BPM	26	0	142.500
BPM	26	96	145.000
BPM	26	192	150.000
BPM	26	288	155.000
BPM	27	0	160.000
BPM	27	96	165.000
BPM	27	192	170.000
BPM	28	0	180.000
BPM	28	192	185.000
BPM	28	288	190.000
BPM	29	0	195.000
BPM	29	96	200.000
BPM	29	192	205.000
BPM	29	288	210.000
BPM	30	96	215.000
BPM	30	192	225.000
BPM	31	0	230.000
BPM	31	192	235.000
BPM	31	288	245.000
BPM	32	96	255.000
BPM	32	288	260.000
BPM	33	0	265.000
BPM	33	96	270.000
BPM	33	192	280.000
MET	0	0	4	4

BXTAP	2	0	3
BXTAP	2	0	4
NMTAP	2	48	3
NMTAP	2	48	4
NMTAP	2	96	2
NMTAP	2	96	3
NMTAP	2	144	2
NMTAP	2	144	3
NMTAP	2	192	3
NMTAP	2	192	4
NMTAP	2	240	3
NMTAP	2	240	4
EXTAP	2	288	2
EXTAP	2	288	5
NMTAP	3	0	3
NMTAP	3	0	6
NMTAP	3	48	3
NMTAP	3	48	6
NMTAP	3	96	2
NMTAP	3	96	5
NMTAP	3	144	2
NMTAP	3	144	5
NMTAP	3	192	1
NMTAP	3	192	4
NMTAP	3	240	1
NMTAP	3	240	4
NMTAP	3	288	0
NMTAP	3	288	3
BXTAP	4	0	1
BXTAP	4	0	4
NMTAP	4	48	1
NMTAP	4	48	4
EXTAP	4	96	2
EXTAP	4	96	5
NMTAP	4	144	2
NMTAP	4	144	5
BXTAP	4	192	3
BXTAP	4	192	6
NMTAP	4	240	3
NMTAP	4	240	6
NMTAP	4	288	4
NMTAP	4	288	7
EXTAP	5	0	3
EXTAP	5	32	3
EXTAP	5	64	3
EXTAP	5	96	5
EXTAP	5	128	5
EXTAP	5	160	5
EXTAP	5	192	2
EXTAP	5	224	2
EXTAP	5	256	2
EXTAP	5	288	2
EXTAP	5	288	3
NMTAP	6	0	2
NMTAP	6	0	4
NMTAP	6	48	2
NMTAP	6	48	4
NMTAP	6	96	3
NMTAP	6	96	5
NMTAP	6	144	3
NMTAP	6	144	5
NMTAP	6	192	2
NMTAP	6	192	4
NMTAP	6	240	1
NMTAP	6	240	5
NMTAP	6	288	0
NMTAP	6	288	6
NMTAP	7	0	1
NMTAP	7	0	7
NMTAP	7	48	1
NMTAP	7	48	7
NMTAP	7	96	0
NMTAP	7	96	6
NMTAP	7	144	0
NMTAP	7	144	6
NMTAP	7	192	1
NMTAP	7	192	7
NMTAP	7	240	2
NMTAP	7	240	6
NMTAP	7	288	3
NMTAP	7	288	5
EXTAP	8	0	4
EXTAP	8	32	4
EXTAP	8	64	4
BXTAP	8	96	3
BXTAP	8	96	5
EXTAP	8	192	2
EXTAP	8	224	2
EXTAP	8	256	2
BXTAP	8	288	1
BXTAP	8	288	3
EXHLD	9	0	2	24
EXHLD	9	0	4	24
EXHLD	9	48	2	24
EXHLD	9	48	4	24
EXHLD	9	96	3	24
EXHLD	9	96	5	24
EXHLD	9	144	3	24
EXHLD	9	144	5	24
EXHLD	9	192	2	24
EXHLD	9	192	4	24
EXHLD	9	240	1	24
EXHLD	9	240	5	24
EXHLD	9	288	0	24
EXHLD	9	288	6	24
EXHLD	9	336	0	24
EXHLD	9	336	6	24
BXSTR	10	0	0
NMSXL	10	0	0	96	672	4
BXTAP	10	0	6
NMHLD	12	0	5	384
NMHLD	13	0	6	384
NMSTR	14	0	7
NMSSR	14	0	7	96	288	3
NMSTR	15	0	2
NMSSR	15	0	2	96	288	6
NMSTR	16	0	5
NMSSR	16	0	5	96	288	1
NMHLD	17	0	0	288
NMHLD	17	192	7	96
BXTAP	18	0	1
BXHLD	18	0	6	192
NMTAP	18	144	4
NMTAP	18	192	4
NMTTP	19	0	5	B	0	M1
NMTTP	19	96	4	B	0	M1
NMTTP	19	192	2	B	0	M1
NMTTP	19	192	3	B	0	M1
NMHLD	20	0	1	192
NMTAP	20	0	4
NMTAP	20	144	3
NMTAP	20	192	3
NMTAP	20	288	2
NMTAP	21	0	1
NMTAP	21	0	3
NMTAP	21	72	2
NMTAP	21	72	4
NMTAP	21	144	3
NMTAP	21	144	5
NMTAP	21	192	3
NMTAP	21	192	5
NMTAP	21	288	2
NMTAP	21	288	6
NMTAP	22	0	1
NMHLD	22	0	7	192
NMTAP	22	144	4
NMTAP	22	192	4
NMTAP	22	288	5
NMTAP	23	0	4
NMTAP	23	0	6
NMTAP	23	72	3
NMTAP	23	72	5
NMTAP	23	144	2
NMTAP	23	144	4
NMTAP	23	192	2
NMTAP	23	192	4
NMTAP	23	288	1
NMTAP	23	288	3
NMHLD	24	0	0	144
NMTAP	24	0	4
NMTAP	24	144	3
NMTAP	24	192	3
NMTAP	24	288	2
NMTAP	24	288	4
NMTAP	25	0	4
NMTAP	25	72	3
NMTAP	25	72	5
NMTAP	25	144	2
NMTAP	25	144	6
NMTAP	25	192	2
NMTAP	25	192	6
NMTAP	25	288	3
NMTAP	25	288	5
NMHLD	26	0	4	384
NMTAP	26	96	3
NMTAP	26	192	3
NMTAP	26	288	3
NMHLD	27	0	2	384
NMTAP	27	96	3
NMTAP	27	192	3
NMTAP	27	288	3
NMHLD	28	0	4	288
NMTAP	28	96	3
NMTAP	28	192	3
NMTAP	28	288	3
NMTAP	29	0	2
NMTAP	29	0	5
NMTAP	29	96	2
NMTAP	29	96	5
NMTAP	29	192	1
NMTAP	29	192	6
NMTAP	29	288	1
NMTAP	29	288	6
EXHLD	30	0	0	96
NMHLD	30	96	1	96
NMHLD	30	192	2	96
NMHLD	30	288	3	96
EXHLD	31	0	4	96
NMHLD	31	96	5	96
NMHLD	31	192	6	96
NMHLD	31	288	7	96
EXHLD	32	0	0	96
NMHLD	32	96	1	96
EXHLD	32	192	2	96
NMHLD	32	288	3	96
EXHLD	33	0	4	96
EXHLD	33	96	5	96
EXHLD	33	192	6	96
EXTAP	33	288	7
BXTAP	34	0	0
BXTAP	34	0	5
NMSTR	35	0	6
NMSI_	35	0	6	96	48	4
NMSTR	35	96	0
NMSI_	35	96	0	96	48	2
NMTAP	35	192	7
NMTAP	35	288	7
NMSTR	36	0	1
NMSI_	36	0	1	96	48	3
NMSTR	36	96	7
NMSI_	36	96	7	96	48	5
NMTAP	36	192	0
NMSTR	36	288	0
NMSXL	36	288	0	96	384	5
NMTAP	38	192	7
NMTAP	38	288	0
NMTAP	38	288	6
NMSTR	39	0	1
NMSI_	39	0	1	96	48	3
NMSTR	39	96	7
NMSI_	39	96	7	96	48	5
NMTAP	39	192	0
NMTAP	39	288	0
NMSTR	40	0	6
NMSI_	40	0	6	96	48	4
NMSTR	40	96	0
NMSI_	40	96	0	96	48	2
NMTAP	40	192	7
NMSTR	40	288	7
NMSXR	40	288	7	96	384	2
NMTAP	42	192	0
NMTAP	42	288	0
NMTAP	42	288	6
NMSTR	43	0	1
NMSI_	43	0	1	96	48	3
NMSTR	43	96	7
NMSI_	43	96	7	96	48	4
NMTAP	43	192	0
NMTAP	43	288	1
NMSTR	44	0	6
NMSI_	44	0	6	96	48	4
NMSTR	44	96	0
NMSI_	44	96	0	96	48	3
NMTAP	44	192	7
NMTAP	44	288	6
NMSTR	45	0	1
NMSI_	45	0	1	96	48	3
NMSTR	45	96	7
NMSI_	45	96	7	96	48	4
NMTAP	45	192	0
NMTAP	45	288	1
NMTAP	46	0	2
NMTAP	46	0	3
NMTAP	46	96	2
NMTAP	46	96	3
NMTAP	46	192	4
NMTAP	46	192	5
NMTAP	46	288	3
NMTAP	46	288	6
NMSTR	47	0	1
NMSI_	47	0	1	96	48	3
NMSTR	47	96	7
NMSI_	47	96	7	96	48	5
NMTAP	47	192	0
NMTAP	47	288	1
NMSTR	48	0	6
NMSI_	48	0	6	96	48	4
NMSTR	48	96	0
NMSI_	48	96	0	96	48	2
NMTAP	48	192	7
NMTAP	48	288	6
NMSTR	49	0	1
NMSI_	49	0	1	96	48	3
NMSTR	49	96	7
NMSI_	49	96	7	96	48	4
NMTAP	49	192	0
NMTAP	49	288	1
NMTAP	50	0	2
NMTAP	50	0	3
NMTAP	50	96	2
NMTAP	50	96	3
BRTAP	50	192	1
BRTAP	50	192	5
NMHLD	51	0	6	128
NMTAP	51	128	4
NMHLD	51	192	4	128
NMTAP	51	320	3
NMHLD	52	0	3	128
NMTAP	52	128	1
NMHLD	52	192	1	128
NMTAP	52	320	3
NMHLD	53	0	3	128
NMTAP	53	128	4
NMHLD	53	192	4	128
NMTAP	53	320	6
NMSTR	54	0	6
NMSI_	54	0	6	96	96	3
NMSTR	54	192	1
NMSI_	54	192	1	96	96	4
NMHLD	55	0	5	128
NMTAP	55	128	7
NMHLD	55	192	7	128
NMTAP	55	320	0
NMHLD	56	0	0	128
NMTAP	56	128	2
NMHLD	56	192	2	128
NMTAP	56	320	0
NMHLD	57	0	0	128
NMTAP	57	128	7
NMHLD	57	192	7	128
NMTAP	57	320	5
NMSTR	58	0	5
NMSI_	58	0	5	96	96	0
NMSTR	58	192	2
NMSI_	58	192	2	96	96	7
NMHLD	59	0	6	128
NMTAP	59	128	4
NMHLD	59	192	4	128
NMTAP	59	320	5
NMTAP	60	0	5
NMTAP	60	128	3
NMTAP	60	128	6
NMTAP	60	192	3
NMHLD	60	192	6	192
NMHLD	61	0	0	128
NMTAP	61	128	3
NMHLD	61	192	3	128
NMTAP	61	320	2
NMTAP	62	0	2
NMTAP	62	128	1
NMTAP	62	128	5
NMHLD	62	192	1	192
NMTAP	62	192	5
NMTAP	63	0	3
NMTAP	63	64	3
NMTAP	63	128	3
NMTAP	63	192	2
NMTAP	63	192	4
NMTAP	64	0	0
NMTAP	64	64	0
NMTAP	64	128	0
NMTAP	64	192	1
NMTAP	64	192	7
NMTAP	65	0	0
NMTAP	65	48	7
NMTAP	65	96	0
NMTAP	65	144	7
NMTAP	65	192	0
NMTAP	65	240	7
NMTAP	65	288	0
NMTAP	65	336	7
BRTAP	66	0	0
BRTAP	66	96	1
BRTAP	66	96	6
BRTAP	66	192	2
BRTAP	66	192	5
NMTAP	67	0	4
NMTAP	67	0	5
NMTAP	67	96	4
NMTAP	67	96	5
NMTAP	67	192	1
NMTAP	67	192	7
NMTAP	67	288	1
NMTAP	67	288	7
NMTAP	68	0	2
NMTAP	68	0	3
NMTAP	68	96	0
NMTAP	68	96	6
NMTAP	68	192	4
NMTAP	68	192	5
NMTAP	68	288	1
NMTAP	68	288	7
NMTAP	69	0	2
NMTAP	69	0	3
NMTAP	69	96	4
NMTAP	69	96	6
NMTAP	69	192	0
NMTAP	69	192	7
NMTAP	69	288	1
NMTAP	69	288	3
NMTAP	70	0	4
NMTAP	70	0	5
NMTAP	70	96	6
NMTAP	70	96	7
NMTAP	70	192	1
NMTAP	70	192	5
NMTAP	70	288	1
NMTAP	70	288	5
NMTAP	71	0	2
NMTAP	71	0	4
NMTAP	71	96	2
NMTAP	71	96	4
NMTAP	71	192	6
NMTAP	71	192	7
NMTAP	71	288	6
NMTAP	71	288	7
NMTAP	72	0	2
NMTAP	72	0	4
NMTAP	72	96	6
NMTAP	72	96	7
NMTAP	72	192	2
NMTAP	72	192	4
NMTAP	72	288	6
NMTAP	72	288	7
NMTAP	73	0	2
NMTAP	73	0	4
NMTAP	73	96	0
NMTAP	73	96	1
NMTAP	73	192	3
NMTAP	73	192	5
NMSTR	73	288	6
NMSI_	73	288	6	96	48	4
NMSTR	74	0	0
NMSI_	74	0	0	96	48	2
NMSTR	74	96	7
NMSI_	74	96	7	96	48	3
BRTAP	74	192	0
BRTAP	74	288	0
NMTAP	75	0	1
NMTAP	75	0	3
NMTAP	75	96	1
NMTAP	75	96	3
NMTAP	75	192	6
NMTAP	75	192	7
NMTAP	75	288	6
NMTAP	75	288	7
NMTAP	76	0	1
NMTAP	76	0	3
NMTAP	76	96	6
NMTAP	76	96	7
NMTAP	76	192	1
NMTAP	76	192	3
NMTAP	76	288	6
NMTAP	76	288	7
NMTAP	77	0	4
NMTAP	77	0	5
NMTAP	77	96	0
NMTAP	77	96	1
NMTAP	77	192	5
NMTAP	77	192	6
NMTAP	77	288	2
NMTAP	77	288	3
NMTAP	78	0	6
NMTAP	78	0	7
NMTAP	78	96	1
NMTAP	78	96	2
NMTAP	78	192	4
NMTAP	78	192	5
NMTAP	78	288	4
NMTAP	78	288	5
NMTAP	79	0	3
NMTAP	79	0	6
NMTAP	79	96	0
NMTAP	79	96	1
NMTAP	79	192	2
NMTAP	79	192	3
NMTAP	79	288	0
NMTAP	79	288	5
NMTAP	80	0	4
NMTAP	80	0	6
NMTAP	80	96	0
NMTAP	80	96	1
NMTAP	80	192	2
NMTAP	80	192	4
NMTAP	80	288	0
NMTAP	80	288	7
NMTAP	81	0	4
NMTAP	81	0	5
NMTAP	81	96	1
NMTAP	81	96	2
NMTAP	81	192	5
NMTAP	81	192	7
NMTAP	81	288	0
NMTAP	81	288	1
NMTAP	82	0	2
NMTAP	82	0	4
NMTAP	82	96	5
NMTAP	82	96	7
NMTAP	82	192	0
NMTAP	82	192	2
NMTAP	82	288	4
NMTAP	82	288	6
NMTAP	83	0	3
NMHLD	83	0	7	768
BRTAP	85	192	0
BXTAP	85	224	7
BXTAP	85	256	0
BXHLD	85	288	7	96
BXTAP	86	0	0
BXTAP	86	32	1
BXTAP	86	64	2
BXTAP	86	96	3
BXTAP	86	128	4
BXTAP	86	160	5
BXTAP	86	192	6
BXTAP	86	224	7
BXTAP	86	256	0
NMTTP	86	288	0	C	1	M1
BXTAP	86	288	1

T_REC_TAP	318
T_REC_BRK	10
T_REC_XTP	22
T_REC_BXX	26
T_REC_HLD	37
T_REC_XHO	23
T_REC_BHO	0
T_REC_BXH	2
T_REC_STR	32
T_REC_BST	0
T_REC_XST	0
T_REC_XBS	1
T_REC_TTP	5
T_REC_THO	0
T_REC_SLD	33
T_REC_BSL	0
T_REC_ALL	509
T_NUM_TAP	377
T_NUM_BRK	39
T_NUM_HLD	60
T_NUM_SLD	33
T_NUM_ALL	509
T_JUDGE_TAP	414
T_JUDGE_HLD	144
T_JUDGE_SLD	33
T_JUDGE_ALL	591
TTM_EACHPAIRS	148
TTM_SCR_TAP	188500
TTM_SCR_BRK	101400
TTM_SCR_HLD	60000
TTM_SCR_SLD	49500
TTM_SCR_ALL	399400
TTM_SCR_S	383650
TTM_SCR_SS	395500
TTM_RAT_ACV	10098

