VERSION	0.00.00	1.04.00
FES_MODE	0
BPM_DEF	140.000	280.000	280.000	140.000
MET_DEF	4	4
RESOLUTION	384
CLK_DEF	384
COMPATIBLE_CODE	MA2

BPM	0	0	140.000
BPM	26	0	142.500
BPM	26	96	145.000
BPM	26	192	150.000
BPM	26	288	155.000
BPM	27	0	160.000
BPM	27	96	165.000
BPM	27	192	170.000
BPM	28	0	180.000
BPM	28	192	185.000
BPM	28	288	190.000
BPM	29	0	195.000
BPM	29	96	200.000
BPM	29	192	205.000
BPM	29	288	210.000
BPM	30	96	215.000
BPM	30	192	225.000
BPM	31	0	230.000
BPM	31	192	235.000
BPM	31	288	245.000
BPM	32	96	255.000
BPM	32	288	260.000
BPM	33	0	265.000
BPM	33	96	270.000
BPM	33	192	280.000
MET	0	0	4	4

NMTTP	2	0	6	B	0	L1
NMTTP	2	96	5	B	0	L1
NMTTP	2	192	4	B	0	L1
NMTTP	2	288	3	B	0	L1
NMTTP	3	0	2	B	0	L1
NMTTP	3	96	1	B	0	L1
NMTTP	3	192	0	B	0	L1
NMTTP	3	192	7	B	0	L1
NMTTP	4	0	1	E	0	L1
NMTTP	4	96	2	E	0	L1
NMTTP	4	192	3	E	0	L1
NMTTP	4	288	4	E	0	L1
NMTTP	5	0	5	E	0	L1
NMTTP	5	96	6	E	0	L1
NMTTP	5	192	7	E	0	L1
NMTTP	6	0	0	B	0	L1
NMTTP	6	96	1	B	0	L1
NMTTP	6	192	2	B	0	L1
NMTTP	6	192	3	B	0	L1
NMTTP	7	0	7	B	0	L1
NMTTP	7	96	6	B	0	L1
NMTTP	7	192	4	B	0	L1
NMTTP	7	192	5	B	0	L1
NMTTP	8	0	1	B	0	L1
NMTTP	8	0	2	B	0	L1
NMTTP	8	0	3	B	0	L1
NMTTP	8	192	4	B	0	L1
NMTTP	8	192	5	B	0	L1
NMTTP	8	192	6	B	0	L1
NMTTP	9	0	0	C	1	L1
NMSTR	10	0	1
NMSI_	10	0	1	96	192	4
NMSTR	11	0	6
NMSI_	11	0	6	96	192	3
NMSTR	12	0	2
NMSI_	12	0	2	96	192	7
NMTAP	13	0	6
NMTAP	13	96	6
NMTAP	13	192	6
NMTAP	13	192	7
NMTAP	13	288	6
NMTAP	13	288	7
NMSTR	14	0	6
NMSI_	14	0	6	96	192	3
NMSTR	15	0	1
NMSI_	15	0	1	96	192	4
NMSTR	16	0	5
NMSI_	16	0	5	96	192	0
NMTAP	17	0	1
NMTAP	17	96	1
NMTAP	17	192	0
NMTAP	17	192	1
NMTAP	17	288	0
NMTAP	17	288	1
NMHLD	18	0	2	192
NMTAP	18	192	3
NMTAP	19	0	2
NMTAP	19	0	3
NMTAP	19	96	2
NMTAP	19	96	3
NMTAP	19	192	2
NMTAP	19	192	3
NMHLD	20	0	5	192
NMTAP	20	192	4
NMTAP	21	0	4
NMTAP	21	0	5
NMTAP	21	96	4
NMTAP	21	96	5
NMTAP	21	192	4
NMTAP	21	192	5
NMHLD	22	0	6	192
NMTAP	22	192	7
NMTAP	23	0	6
NMTAP	23	0	7
NMTAP	23	96	6
NMTAP	23	96	7
NMTAP	23	192	6
NMTAP	23	192	7
NMHLD	24	0	1	192
NMTAP	24	192	0
NMTAP	25	0	0
NMTAP	25	0	1
NMTAP	25	96	0
NMTAP	25	96	1
NMTAP	25	192	0
NMTAP	25	192	1
EXTAP	26	0	1
NMTAP	26	96	1
NMTAP	26	192	0
NMTAP	26	192	1
EXTAP	27	0	2
NMTAP	27	96	2
NMTAP	27	192	2
NMTAP	27	192	3
EXTAP	28	0	3
NMTAP	28	96	3
NMTAP	28	192	3
NMTAP	28	192	4
EXTAP	29	0	5
NMTAP	29	96	5
NMTAP	29	192	4
NMTAP	29	192	5
EXTAP	30	0	6
NMTAP	30	96	6
NMTAP	30	192	6
NMTAP	30	192	7
EXTAP	31	0	5
NMTAP	31	96	5
NMTAP	31	192	4
NMTAP	31	192	5
EXTAP	32	0	4
NMTAP	32	96	4
NMTAP	32	192	3
NMTAP	32	192	4
EXTAP	33	0	2
NMTAP	33	96	2
NMTAP	33	192	2
NMTAP	33	192	3
BRTAP	34	0	3
BRTAP	34	0	4
NMTAP	35	0	6
NMTAP	35	96	6
NMTAP	35	192	5
NMTAP	35	288	5
NMTAP	36	0	4
NMTAP	36	96	4
NMTAP	36	192	3
NMTAP	36	192	4
NMTAP	36	288	3
NMTAP	36	288	4
NMHLD	37	0	5	192
NMHLD	37	192	4	192
NMHLD	38	0	3	192
NMTAP	38	192	2
NMTAP	39	0	1
NMTAP	39	96	1
NMTAP	39	192	2
NMTAP	39	288	2
NMTAP	40	0	3
NMTAP	40	96	3
NMTAP	40	192	3
NMTAP	40	192	4
NMTAP	40	288	3
NMTAP	40	288	4
NMHLD	41	0	2	192
NMHLD	41	192	3	192
NMHLD	42	0	4	192
NMTAP	42	192	5
NMTAP	43	0	6
NMTAP	43	96	6
NMTAP	43	192	5
NMTAP	43	288	5
NMTAP	44	0	4
NMTAP	44	96	4
NMTAP	44	192	2
NMTAP	44	192	3
NMTAP	44	288	2
NMTAP	44	288	3
NMTAP	45	0	1
NMTAP	45	96	1
NMTAP	45	192	2
NMTAP	45	288	2
NMTAP	46	0	3
NMTAP	46	96	3
NMTAP	46	192	4
NMTAP	46	192	5
NMTAP	46	288	4
NMTAP	46	288	5
NMTAP	47	0	6
NMTAP	47	96	6
NMTAP	47	192	5
NMTAP	47	288	5
NMTAP	48	0	4
NMTAP	48	96	4
NMTAP	48	192	2
NMTAP	48	192	3
NMTAP	48	288	2
NMTAP	48	288	3
NMTAP	49	0	1
NMTAP	49	96	1
NMTAP	49	192	2
NMTAP	49	288	2
NMTAP	50	0	3
NMTAP	50	96	3
NMTAP	50	192	4
NMTAP	50	192	5
NMTAP	50	288	4
NMTAP	50	288	5
NMHLD	51	0	6	192
NMTAP	51	192	7
NMTAP	52	0	7
NMTAP	52	96	7
NMTAP	52	192	0
NMTAP	52	288	0
NMHLD	53	0	1	192
NMTAP	53	192	0
NMTAP	54	0	0
NMTAP	54	96	0
NMTAP	54	192	7
NMTAP	54	288	7
NMHLD	55	0	6	192
NMTAP	55	192	7
NMTAP	56	0	7
NMTAP	56	96	7
NMTAP	56	192	0
NMTAP	56	288	0
NMHLD	57	0	1	192
NMTAP	57	192	0
NMTAP	58	0	0
NMTAP	58	96	0
NMTAP	58	192	7
NMTAP	58	288	7
NMHLD	59	0	6	192
NMTAP	59	192	7
NMTAP	60	0	5
NMTAP	60	96	5
NMTAP	60	192	3
NMTAP	60	192	4
NMHLD	61	0	2	192
NMTAP	61	192	3
NMTAP	62	0	1
NMTAP	62	96	1
NMTAP	62	192	0
NMTAP	62	192	7
NMTAP	63	0	6
NMTAP	63	0	7
NMTAP	63	96	6
NMTAP	63	96	7
NMTAP	63	192	6
NMTAP	63	192	7
NMTAP	64	0	0
NMTAP	64	0	1
NMTAP	64	96	0
NMTAP	64	96	1
NMTAP	64	192	0
NMTAP	64	192	1
NMTAP	65	0	1
NMTAP	65	96	1
NMTAP	65	192	0
NMTAP	65	288	0
NMTAP	66	0	7
NMTAP	66	96	7
BRTAP	66	192	0
BRTAP	66	192	7
NMTAP	67	0	6
NMTAP	67	96	6
NMTAP	67	192	6
NMTAP	67	192	7
NMTAP	67	288	6
NMTAP	67	288	7
NMTAP	68	0	0
NMTAP	68	96	0
NMTAP	68	192	0
NMTAP	68	192	7
NMTAP	68	288	0
NMTAP	68	288	7
NMTAP	69	0	1
NMTAP	69	96	1
NMTAP	69	192	0
NMTAP	69	192	1
NMTAP	69	288	0
NMTAP	69	288	1
NMTAP	70	0	2
NMTAP	70	96	2
NMTAP	70	192	2
NMTAP	70	192	3
NMTAP	70	288	2
NMTAP	70	288	3
NMTAP	71	0	1
NMTAP	71	96	1
NMTAP	71	192	0
NMTAP	71	192	1
NMTAP	71	288	0
NMTAP	71	288	1
NMTAP	72	0	7
NMTAP	72	96	7
NMTAP	72	192	0
NMTAP	72	192	7
NMTAP	72	288	0
NMTAP	72	288	7
NMTAP	73	0	6
NMTAP	73	96	6
NMTAP	73	192	6
NMTAP	73	192	7
NMTAP	73	288	6
NMTAP	73	288	7
NMTAP	74	0	5
NMTAP	74	96	5
BXTAP	74	192	3
BXTAP	74	192	4
NMTAP	75	0	2
NMTAP	75	96	2
NMTAP	75	192	0
NMTAP	75	192	1
NMTAP	75	288	0
NMTAP	75	288	1
NMTAP	76	0	2
NMTAP	76	96	2
NMTAP	76	192	3
NMTAP	76	192	4
NMTAP	76	288	3
NMTAP	76	288	4
NMTAP	77	0	5
NMTAP	77	96	5
NMTAP	77	192	6
NMTAP	77	192	7
NMTAP	77	288	6
NMTAP	77	288	7
NMTAP	78	0	5
NMTAP	78	96	5
NMTAP	78	192	3
NMTAP	78	192	4
NMTAP	78	288	3
NMTAP	78	288	4
NMTAP	79	0	2
NMTAP	79	96	2
NMTAP	79	192	0
NMTAP	79	192	1
NMTAP	79	288	0
NMTAP	79	288	1
NMTAP	80	0	2
NMTAP	80	96	2
NMTAP	80	192	3
NMTAP	80	192	4
NMTAP	80	288	3
NMTAP	80	288	4
NMTAP	81	0	5
NMTAP	81	96	5
NMTAP	81	192	6
NMTAP	81	192	7
NMTAP	81	288	6
NMTAP	81	288	7
NMTAP	82	0	5
NMTAP	82	96	5
EXTAP	82	192	3
EXTAP	82	192	4
EXTAP	82	288	3
EXTAP	82	288	4
EXHLD	83	0	3	768
EXHLD	83	0	4	768
BRTAP	85	192	2
BRTAP	85	192	5
NMTHO	86	0	0	288	C	1	L1

T_REC_TAP	262
T_REC_BRK	6
T_REC_XTP	12
T_REC_BXX	2
T_REC_HLD	16
T_REC_XHO	2
T_REC_BHO	0
T_REC_BXH	0
T_REC_STR	6
T_REC_BST	0
T_REC_XST	0
T_REC_XBS	0
T_REC_TTP	30
T_REC_THO	1
T_REC_SLD	6
T_REC_BSL	0
T_REC_ALL	343
T_NUM_TAP	310
T_NUM_BRK	8
T_NUM_HLD	19
T_NUM_SLD	6
T_NUM_ALL	343
T_JUDGE_TAP	318
T_JUDGE_HLD	59
T_JUDGE_SLD	6
T_JUDGE_ALL	383
TTM_EACHPAIRS	79
TTM_SCR_TAP	155000
TTM_SCR_BRK	20800
TTM_SCR_HLD	19000
TTM_SCR_SLD	9000
TTM_SCR_ALL	203800
TTM_SCR_S	196950
TTM_SCR_SS	203000
TTM_RAT_ACV	10039

