VERSION	0.00.00	1.04.00
FES_MODE	0
BPM_DEF	185.000	185.000	185.000	185.000
MET_DEF	4	4
RESOLUTION	384
CLK_DEF	384
COMPATIBLE_CODE	MA2

BPM	0	0	185.000
MET	0	0	4	4

NMTAP	1	240	3
NMTAP	1	264	4
NMSTR	1	288	2
NMSI_	1	288	2	96	48	7
EXSTR	2	0	6
NMSI_	2	0	6	96	48	3
NMSTR	2	96	1
NMSI_	2	96	1	96	48	4
NMSTR	2	192	5
NMSI_	2	192	5	96	48	0
NMSTR	2	288	2
NMSXR	2	288	2	96	144	7
NMHLD	3	0	6	192
EXTAP	3	192	0
EXTAP	3	288	0
NMSTR	3	288	5
NMSI_	3	288	5	96	48	0
NMSTR	4	0	1
NMSI_	4	0	1	96	48	4
NMSTR	4	96	6
NMSI_	4	96	6	96	48	3
NMSTR	4	192	2
NMSI_	4	192	2	96	48	7
NMSTR	4	288	5
NMSXL	4	288	5	96	144	0
NMHLD	5	0	1	192
EXTAP	5	192	7
NMSTR	5	288	2
NMSI_	5	288	2	96	48	7
NMTAP	5	288	7
EXSTR	6	0	6
NMSI_	6	0	6	96	48	3
NMSTR	6	96	1
NMSI_	6	96	1	96	48	4
NMSTR	6	192	5
NMSI_	6	192	5	96	48	0
NMSTR	6	288	2
NMSXL	6	288	2	96	144	5
NMHLD	7	0	7	192
EXTAP	7	192	4
NMSTR	7	288	2
NMSI_	7	288	2	96	48	7
EXTAP	7	288	5
NMSTR	8	0	6
NMSI_	8	0	6	96	48	3
NMSTR	8	96	1
NMSI_	8	96	1	96	48	4
NMTAP	8	192	5
NMTAP	8	288	3
NMTAP	8	288	6
EXTAP	9	0	2
EXTAP	9	0	5
NMTAP	9	48	3
NMTAP	9	72	4
NMTAP	9	96	3
NMTAP	9	144	3
NMTAP	9	144	4
NMTAP	9	192	2
NMTAP	9	192	5
NMTAP	9	240	2
NMTAP	9	240	5
NMSTR	9	288	2
NMSCL	9	288	2	96	288	5
NMTAP	9	288	5
NMTAP	10	0	4
NMTAP	10	192	3
NMSTR	10	288	3
NMSCL	10	288	3	96	288	6
NMTAP	11	0	5
NMTAP	11	192	4
NMSTR	11	288	4
NMSCL	11	288	4	96	288	7
NMTAP	12	0	6
NMTAP	12	192	5
NMSTR	12	288	5
NMSCL	12	288	5	96	96	2
NMTAP	13	0	7
NMTAP	13	192	2
NMTAP	13	192	3
NMTAP	13	288	1
NMTAP	13	288	4
NMSTR	14	0	5
NMSI_	14	0	5	96	48	3
NMTAP	14	96	2
NMTAP	14	144	2
NMSTR	14	192	1
NMSI_	14	192	1	96	48	5
NMTAP	14	288	5
NMSTR	15	0	6
NMSI_	15	0	6	96	48	0
NMTAP	15	96	2
NMTAP	15	144	2
NMSTR	15	192	1
NMSI_	15	192	1	96	48	4
NMSTR	15	288	5
NMSCR	15	288	5	96	192	0
EXTAP	16	0	4
NMTAP	16	96	4
NMTAP	16	192	3
NMSTR	16	288	2
NMSCL	16	288	2	96	192	7
NMTAP	17	0	3
NMTAP	17	96	3
NMTAP	17	192	4
NMTAP	17	288	2
NMSTR	17	288	5
NMSCR	17	288	5	96	288	2
NMTAP	18	0	3
NMTAP	18	192	4
NMSTR	18	288	4
NMSCR	18	288	4	96	288	1
NMTAP	19	0	2
NMTAP	19	192	3
NMSTR	19	288	3
NMSCR	19	288	3	96	288	0
NMTAP	20	0	1
NMTAP	20	192	2
NMSTR	20	288	2
NMSCR	20	288	2	96	96	5
NMTAP	21	0	0
NMTAP	21	192	4
NMTAP	21	192	5
NMTAP	21	288	3
NMTAP	21	288	6
NMSTR	22	0	2
NMSI_	22	0	2	96	48	4
NMTAP	22	96	5
NMTAP	22	144	5
NMSTR	22	192	6
NMSI_	22	192	6	96	48	2
NMTAP	22	288	2
NMSTR	23	0	1
NMSI_	23	0	1	96	48	7
NMTAP	23	96	5
NMTAP	23	144	5
NMSTR	23	192	6
NMSI_	23	192	6	96	48	3
NMSTR	23	288	2
NMSCL	23	288	2	96	192	7
EXTAP	24	0	3
NMTAP	24	96	3
NMTAP	24	192	4
NMSTR	24	288	5
NMSCR	24	288	5	96	192	0
NMTAP	25	0	4
NMTAP	25	96	4
NMTAP	25	192	3
NMTAP	25	288	2
NMTAP	26	0	2
NMTAP	26	0	3
NMTAP	26	48	2
NMTAP	26	48	3
NMTAP	26	96	2
NMTAP	26	144	2
NMTAP	26	192	3
NMTAP	26	192	4
NMTAP	26	240	3
NMTAP	26	240	4
NMTAP	26	288	5
NMTAP	26	336	5
NMTAP	27	0	4
NMTAP	27	0	5
NMTAP	27	48	4
NMTAP	27	48	5
NMTAP	27	96	3
NMTAP	27	144	3
NMTAP	27	192	3
NMTAP	27	192	4
NMTAP	27	240	3
NMTAP	27	240	4
NMTAP	27	288	2
NMTAP	27	288	5
NMTAP	28	0	3
NMTAP	28	24	4
NMTAP	28	48	3
NMTAP	28	72	4
NMTAP	28	96	2
NMTAP	28	120	5
NMTAP	28	144	2
NMTAP	28	168	5
NMTAP	28	192	1
NMTAP	28	216	6
NMTAP	28	240	1
NMTAP	28	264	6
NMSTR	28	288	0
NMSI_	28	288	0	96	48	4
NMTAP	28	312	7
NMTAP	28	336	0
NMTAP	28	360	7
BRTAP	29	0	0
BRTAP	29	96	7
BRTAP	29	192	7
NMTAP	29	240	1
NMTAP	29	240	6
NMTAP	29	288	2
NMSTR	29	288	5
NMSI_	29	288	5	96	48	3
NMSTR	30	0	1
NMSI_	30	0	1	96	48	7
NMTAP	30	0	5
NMTAP	30	96	1
NMTAP	30	96	4
NMTAP	30	192	5
NMTAP	30	240	5
NMTAP	30	264	4
NMTAP	30	312	2
NMTAP	30	336	3
EXTAP	31	0	0
EXTAP	31	48	0
NMTAP	31	96	6
NMTAP	31	144	5
NMTAP	31	192	2
NMTAP	31	192	4
NMTAP	31	240	1
NMTAP	31	264	3
NMTAP	31	312	3
NMTAP	31	336	0
NMTAP	32	0	0
NMTAP	32	48	6
NMTAP	32	96	5
NMTAP	32	144	4
NMTAP	32	192	3
NMTAP	32	240	2
NMTAP	32	288	1
NMTAP	32	336	0
BXSTR	33	0	7
BRSUL	33	0	7	96	48	2
BRSUR	33	0	7	96	48	4
BXTAP	33	96	7
BXSTR	33	192	7
BRSUL	33	192	7	96	48	2
BRSUR	33	192	7	96	48	4
BXTAP	33	288	7
EXTAP	34	0	1
EXSTR	34	0	5
NMSI_	34	0	5	96	48	2
NMSTR	34	96	0
NMSCR	34	96	0	96	48	3
EXTAP	34	192	7
EXHLD	34	240	7	96
NMTAP	34	336	4
NMTAP	35	0	4
NMTTP	35	96	3	B	0	M1
NMTTP	35	96	3	A	1	M1
NMTTP	35	96	5	B	0	M1
NMTTP	35	96	5	A	0	M1
NMTTP	35	192	2	B	0	M1
NMTTP	35	192	2	A	0	M1
NMTTP	35	192	4	B	0	M1
NMTTP	35	192	4	A	1	M1
NMTAP	35	288	1
NMSTR	35	288	7
NMSCL	35	288	7	96	96	3
NMSTR	36	0	3
NMSCL	36	0	3	96	96	7
NMSTR	36	96	7
BRSCL	36	96	7	96	96	3
NMSTR	36	192	3
BRSCL	36	192	3	96	96	7
NMTAP	36	288	7
NMTAP	37	0	3
NMTAP	37	72	0
NMTAP	37	72	6
NMTAP	37	144	1
NMTAP	37	144	5
NMTAP	37	192	1
NMTAP	37	192	5
NMSTR	37	288	2
NMSI_	37	288	2	96	48	4
BRTAP	37	288	7
NMTAP	38	0	2
NMSTR	38	0	6
NMSI_	38	0	6	96	48	0
NMTAP	38	96	3
NMTAP	38	96	6
NMTAP	38	192	2
NMTAP	38	240	2
NMTAP	38	264	3
NMTAP	38	312	5
NMTAP	38	336	4
EXTAP	39	0	7
EXTAP	39	48	7
NMTAP	39	96	1
NMTAP	39	144	2
NMTAP	39	192	3
NMTAP	39	192	5
NMTAP	39	240	6
NMTAP	39	264	4
NMTAP	39	312	4
NMTAP	39	336	7
NMTAP	40	0	7
NMTAP	40	48	2
NMTAP	40	96	3
NMTAP	40	144	4
NMTAP	40	192	5
NMTAP	40	240	6
NMTAP	40	288	7
NMTAP	40	336	0
BXSTR	41	0	1
BRSI_	41	0	1	96	48	7
BRSV_	41	0	1	96	48	3
BXTAP	41	96	1
BXSTR	41	192	1
BRSI_	41	192	1	96	48	7
BRSV_	41	192	1	96	48	3
BXTAP	41	288	1
EXSTR	42	0	4
NMSI_	42	0	4	96	48	0
EXTAP	42	0	6
NMSTR	42	96	7
NMSCL	42	96	7	96	48	4
EXTAP	42	192	0
EXHLD	42	240	0	96
NMTAP	42	336	3
NMTAP	43	0	3
NMTTP	43	96	2	B	0	M1
NMTTP	43	96	2	A	0	M1
NMTTP	43	96	4	B	0	M1
NMTTP	43	96	4	A	1	M1
NMTTP	43	192	3	B	0	M1
NMTTP	43	192	3	A	1	M1
NMTTP	43	192	5	B	0	M1
NMTTP	43	192	5	A	0	M1
NMSTR	43	288	0
NMSLR	43	288	0	96	96	4
NMTAP	43	288	6
NMSTR	44	0	4
NMSLR	44	0	4	96	96	0
NMSTR	44	96	0
BRSLR	44	96	0	96	96	4
NMSTR	44	192	4
BRSLR	44	192	4	96	96	0
NMTAP	44	288	0
NMTAP	45	0	4
NMTAP	45	72	1
NMTAP	45	72	7
NMTAP	45	144	2
NMTAP	45	144	6
NMTAP	45	192	2
NMTAP	45	192	6
NMSTR	45	288	1
NMSI_	45	288	1	96	48	7
NMSTR	45	288	5
NMSI_	45	288	5	96	48	7
NMSTR	46	0	1
NMSI_	46	0	1	96	48	3
NMSTR	46	0	5
NMSI_	46	0	5	96	48	3
EXTAP	46	96	1
EXTAP	46	96	5
NMTAP	46	192	4
NMTAP	46	192	6
NMTAP	46	264	1
NMTAP	46	264	3
NMSTR	46	336	0
NMSI_	46	336	0	96	48	3
NMSTR	46	336	7
NMSI_	46	336	7	96	48	4
NMTAP	47	48	0
NMTAP	47	48	7
NMTAP	47	144	2
NMTAP	47	144	5
NMSTR	47	192	2
BRSI_	47	192	2	96	48	4
NMHLD	47	192	5	96
BRTAP	47	288	2
NMTAP	48	0	6
NMHLD	48	48	6	96
NMTAP	48	144	4
NMTAP	48	192	3
NMHLD	48	240	2	96
NMTAP	48	336	4
NMTAP	49	0	5
NMHLD	49	48	6	96
NMTAP	49	144	4
NMTAP	49	192	3
NMTAP	49	240	3
NMTAP	49	288	2
NMTAP	49	288	4
NMTAP	50	0	1
NMHLD	50	48	1	96
NMTAP	50	144	3
NMTAP	50	192	4
NMHLD	50	240	5	96
NMTAP	50	336	3
NMTAP	51	0	2
NMHLD	51	48	1	96
NMTAP	51	144	3
NMTAP	51	192	4
NMTAP	51	240	4
NMTAP	51	288	3
NMTAP	51	288	5
NMTAP	52	0	2
NMTAP	52	0	6
NMTAP	52	48	5
NMTAP	52	72	3
NMTAP	52	96	4
NMTAP	52	144	4
NMTAP	52	192	3
NMTAP	52	240	3
EXTAP	52	288	2
EXTAP	52	288	4
NMTAP	53	0	1
NMTAP	53	0	5
NMTAP	53	48	2
NMTAP	53	72	4
NMTAP	53	96	3
NMTAP	53	144	3
NMTAP	53	192	4
NMTAP	53	240	4
EXTAP	53	288	3
EXTAP	53	288	5
NMTAP	54	0	2
NMHLD	54	48	2	96
NMTAP	54	144	0
NMTAP	54	192	7
NMHLD	54	240	6	96
NMTAP	54	336	0
NMTAP	55	0	1
NMHLD	55	48	2	96
NMTAP	55	144	0
NMTAP	55	192	7
NMTAP	55	240	6
NMTAP	55	288	3
NMTAP	55	288	5
NMTAP	56	0	4
NMTAP	56	0	5
NMTAP	56	48	4
NMTAP	56	48	5
NMTAP	56	96	5
NMTAP	56	144	5
NMTAP	56	192	3
NMTAP	56	192	4
NMTAP	56	240	3
NMTAP	56	240	4
NMTAP	56	288	2
NMTAP	56	336	2
NMTAP	57	0	2
NMTAP	57	0	3
NMTAP	57	48	2
NMTAP	57	48	3
NMTAP	57	96	4
NMTAP	57	144	5
BXTAP	57	192	3
BXTAP	57	192	6
BXTAP	57	288	1
BXTAP	57	288	4
NMTAP	58	0	0
NMTAP	58	24	7
NMTAP	58	48	0
NMTAP	58	72	7
NMTAP	58	96	1
NMTAP	58	120	6
NMTAP	58	144	1
NMTAP	58	168	6
NMTAP	58	192	2
NMTAP	58	216	5
NMTAP	58	240	2
NMTAP	58	264	5
NMSTR	58	288	3
NMSI_	58	288	3	96	48	0
NMTAP	58	312	4
NMTAP	58	336	3
NMTAP	58	360	4
BRTAP	59	0	3
NMHLD	59	96	7	96
BRTAP	59	192	0
NMTAP	59	240	1
NMTAP	59	240	6
EXSTR	59	288	2
NMSI_	59	288	2	96	48	4
EXTAP	59	288	5
NMTAP	60	0	2
NMSTR	60	0	6
NMSI_	60	0	6	96	48	0
NMTAP	60	96	3
NMTAP	60	96	6
NMTAP	60	192	2
NMTAP	60	240	2
NMTAP	60	264	3
NMTAP	60	312	0
NMTAP	60	336	7
EXTAP	61	0	6
EXTAP	61	0	7
EXTAP	61	48	6
EXTAP	61	48	7
NMTAP	61	96	5
NMTAP	61	144	5
NMTAP	61	192	2
NMTAP	61	192	4
NMTAP	61	240	1
NMTAP	61	264	3
NMTAP	61	312	3
NMTAP	61	336	0
NMTAP	62	0	0
NMTAP	62	48	7
NMTAP	62	96	6
NMTAP	62	144	5
NMTAP	62	192	4
NMTAP	62	240	3
NMTAP	62	288	2
NMTAP	62	336	1
BXSTR	63	0	0
BRSUL	63	0	0	96	48	4
BRSV_	63	0	0	96	48	5
BXTAP	63	96	0
BXSTR	63	192	0
BRSUL	63	192	0	96	48	4
BRSV_	63	192	0	96	48	5
BXTAP	63	288	0
EXSTR	64	0	2
NMSI_	64	0	2	96	48	7
EXTAP	64	0	6
NMSTR	64	96	5
NMSCL	64	96	5	96	48	2
EXTAP	64	192	0
EXHLD	64	240	0	96
NMTAP	64	336	3
NMTAP	65	0	3
NMTTP	65	96	2	B	0	M1
NMTTP	65	96	2	A	0	M1
NMTTP	65	96	4	B	0	M1
NMTTP	65	96	4	A	1	M1
NMTTP	65	192	3	B	0	M1
NMTTP	65	192	3	A	1	M1
NMTTP	65	192	5	B	0	M1
NMTTP	65	192	5	A	0	M1
NMSTR	65	288	0
NMSCR	65	288	0	96	96	4
NMTAP	65	288	6
NMSTR	66	0	4
NMSCR	66	0	4	96	96	0
NMSTR	66	96	0
BRSCR	66	96	0	96	96	4
NMSTR	66	192	4
BRSCR	66	192	4	96	96	0
NMTAP	66	288	0
NMTAP	67	0	4
NMTAP	67	72	1
NMTAP	67	72	7
NMTAP	67	144	2
NMTAP	67	144	6
NMTAP	67	192	2
NMTAP	67	192	6
BRTAP	67	288	0
NMSTR	67	288	5
NMSI_	67	288	5	96	48	3
NMSTR	68	0	1
NMSI_	68	0	1	96	48	7
NMTAP	68	0	5
NMTAP	68	96	1
NMTAP	68	96	4
NMTAP	68	192	5
NMTAP	68	240	5
NMTAP	68	264	4
NMTAP	68	312	7
NMTAP	68	336	0
EXTAP	69	0	0
EXTAP	69	0	1
EXTAP	69	48	0
EXTAP	69	48	1
NMTAP	69	96	2
NMTAP	69	144	2
NMTAP	69	192	3
NMTAP	69	192	5
NMTAP	69	240	6
NMTAP	69	264	4
NMTAP	69	312	4
NMTAP	69	336	7
NMTAP	70	0	7
NMTAP	70	48	2
NMTAP	70	96	3
NMTAP	70	144	4
NMTAP	70	192	5
NMTAP	70	240	6
NMTAP	70	288	7
NMTAP	70	336	0
BXSTR	71	0	1
BRSI_	71	0	1	96	48	6
BRSV_	71	0	1	96	48	4
BXTAP	71	96	1
BXSTR	71	192	1
BRSI_	71	192	1	96	48	6
BRSV_	71	192	1	96	48	4
BXTAP	71	288	1
EXSTR	72	0	3
NMSI_	72	0	3	96	48	0
NMSI_	72	0	3	96	48	7
EXTAP	72	192	0
EXTAP	72	192	7
EXTAP	72	240	0
EXHLD	72	240	7	96
NMTAP	72	336	4
NMTAP	73	0	4
NMTTP	73	96	3	B	0	M1
NMTTP	73	96	3	A	1	M1
NMTTP	73	96	5	B	0	M1
NMTTP	73	96	5	A	0	M1
NMTTP	73	192	2	B	0	M1
NMTTP	73	192	2	A	0	M1
NMTTP	73	192	4	B	0	M1
NMTTP	73	192	4	A	1	M1
NMSTR	73	288	1
NMSI_	73	288	1	96	48	5
NMTAP	73	288	7
NMTAP	74	0	1
NMSTR	74	0	6
NMSI_	74	0	6	96	48	2
NMSTR	74	96	0
BRSI_	74	96	0	96	48	4
NMTAP	74	96	6
NMTAP	74	192	0
NMSTR	74	192	7
BRSI_	74	192	7	96	48	3
NMTAP	74	288	7
EXSTR	75	0	3
NMSCL	75	0	3	96	48	0
EXSTR	75	0	4
NMSCR	75	0	4	96	48	7
EXTAP	75	240	1
EXTAP	75	240	6
EXSTR	75	288	1
NMSI_	75	288	1	96	48	5
EXTAP	75	288	6
NMSTR	76	0	7
NMSI_	76	0	7	96	48	2
NMSTR	76	96	3
NMSXR	76	96	3	96	192	0
EXTAP	76	192	4
EXTAP	76	264	5
EXTAP	76	336	6
NMHLD	77	0	6	96
NMTAP	77	96	4
NMTAP	77	144	4
NMSTR	77	192	3
NMSI_	77	192	3	96	48	6
NMSTR	77	240	3
NMSI_	77	240	3	96	48	0
EXTAP	77	288	3
EXTAP	77	336	3
NMTAP	78	48	7
NMTAP	78	96	7
NMTAP	78	144	0
NMTAP	78	192	0
NMTAP	78	240	4
NMTAP	78	288	5
NMTAP	78	336	5
NMTAP	79	0	5
BXTAP	79	0	7
NMTAP	79	48	5
BXTAP	79	96	1
NMTAP	79	96	5
NMTAP	79	144	5
NMTAP	79	192	5
BXTAP	79	192	7
NMTAP	79	240	5
BXTAP	79	288	1
NMTAP	79	288	5
NMTAP	79	336	5
NMTAP	80	0	5
BXTAP	80	0	7
NMTAP	80	48	5
NMTAP	80	96	5
NMTAP	80	144	4
NMTAP	80	192	4
NMSTR	80	240	3
NMSI_	80	240	3	96	48	7
NMTAP	80	288	2
NMHLD	80	336	1	96
EXTAP	81	48	7
EXSTR	81	96	0
NMSCR	81	96	0	96	48	3
NMTAP	81	144	0
NMSTR	81	192	4
NMSCR	81	192	4	96	48	7
NMTAP	81	240	4
NMTAP	81	288	1
NMTAP	81	336	1
EXTAP	82	0	0
EXTAP	82	0	7
NMTAP	82	72	1
NMTAP	82	72	3
NMTAP	82	144	4
NMTAP	82	144	6
NMTAP	82	192	0
NMTAP	82	192	7
NMTAP	82	264	4
NMTAP	82	264	6
NMTAP	82	336	1
NMTAP	82	336	3
NMTAP	83	0	0
NMTAP	83	0	7
NMTAP	83	72	0
NMTAP	83	72	7
NMTAP	83	144	2
NMTAP	83	144	5
NMSTR	83	192	3
NMSCL	83	192	3	96	48	0
NMSTR	83	192	4
NMSCR	83	192	4	96	48	7
BRTAP	83	288	3
BRTAP	83	288	4
BXHLD	84	0	0	1152
BXHLD	84	0	7	960
EXTAP	87	240	4
EXTAP	87	264	4
EXTAP	87	288	3
EXHLD	87	288	5	768
NMTAP	88	0	4
NMTAP	88	96	4
NMTAP	88	192	4
NMTAP	88	288	4
NMTAP	89	0	3
NMTAP	89	96	3
NMTAP	89	192	3
NMTAP	89	288	3
NMTAP	90	0	2
NMTAP	90	0	6
NMTAP	90	48	2
NMTAP	90	48	6
NMTAP	90	144	1
NMTAP	90	144	5
NMTAP	90	240	3
NMTAP	90	240	4
NMSTR	90	288	3
BRSXL	90	288	3	96	192	0
NMSTR	90	288	4
BRSXR	90	288	4	96	192	7
BXSTR	91	288	1
NMSI_	91	288	1	96	48	5
BXTAP	91	288	6
NMTAP	92	0	1
NMSTR	92	0	7
NMSI_	92	0	7	96	48	3
NMTAP	92	96	2
NMTAP	92	96	7
NMTAP	92	192	1
NMTAP	92	240	1
NMTAP	92	264	0
NMTAP	92	312	5
NMTAP	92	336	4
EXTAP	93	0	6
EXTAP	93	0	7
EXTAP	93	48	6
EXTAP	93	48	7
NMTAP	93	96	0
NMTAP	93	144	1
NMTAP	93	192	2
NMTAP	93	192	3
NMTAP	93	240	5
NMTAP	93	264	4
NMTAP	93	312	4
NMTAP	93	336	6
NMTAP	94	0	3
NMTAP	94	0	7
NMTAP	94	48	3
NMTAP	94	48	7
NMTAP	94	96	4
NMTAP	94	144	5
NMTAP	94	192	6
NMTAP	94	192	7
NMTAP	94	240	0
NMTAP	94	288	1
NMTAP	94	288	3
NMTAP	94	336	4
BXSTR	95	0	3
BRSUR	95	0	3	96	48	0
BXSTR	95	0	5
BRSUL	95	0	5	96	48	0
BXTAP	95	96	3
BXTAP	95	96	5
BXSTR	95	192	3
BRSUR	95	192	3	96	48	0
BXSTR	95	192	5
BRSUL	95	192	5	96	48	0
BXTAP	95	288	3
BXTAP	95	288	5
EXSTR	96	0	2
NMSI_	96	0	2	96	48	5
EXTAP	96	0	6
NMSTR	96	96	7
NMSCL	96	96	7	96	48	4
EXTAP	96	192	0
EXHLD	96	240	0	96
NMTAP	96	336	3
NMSTR	97	0	3
NMSI_	97	0	3	96	48	7
NMSTR	97	96	1
NMSI_	97	96	1	96	48	5
NMTTP	97	96	3	A	1	M1
NMTTP	97	192	1	A	1	M1
EXTAP	97	192	7
NMSTR	97	288	0
NMSCR	97	288	0	96	96	4
NMTAP	97	288	6
NMSTR	98	0	4
NMSCR	98	0	4	96	96	0
NMSTR	98	96	0
BRSCR	98	96	0	96	96	4
NMSTR	98	192	4
BRSCR	98	192	4	96	96	0
NMTAP	98	288	0
NMTAP	99	0	4
NMTAP	99	72	1
NMTAP	99	72	7
NMTAP	99	144	2
NMTAP	99	144	6
NMTAP	99	192	2
NMTAP	99	192	6
BRTAP	99	288	3
NMSTR	99	288	5
NMSCR	99	288	5	96	48	0
NMSTR	100	0	1
NMSCR	100	0	1	96	48	4
NMTAP	100	0	5
NMTAP	100	96	1
NMTAP	100	96	7
NMTAP	100	192	6
NMTAP	100	240	6
NMTAP	100	264	7
NMTAP	100	312	2
NMTAP	100	336	3
EXTAP	101	0	0
EXTAP	101	0	1
EXTAP	101	48	0
EXTAP	101	48	1
NMTAP	101	96	7
NMTAP	101	144	6
NMTAP	101	192	4
NMTAP	101	192	5
NMTAP	101	240	2
NMTAP	101	264	3
NMTAP	101	312	3
NMTAP	101	336	1
NMTAP	102	0	0
NMTAP	102	0	4
NMTAP	102	48	0
NMTAP	102	48	4
NMTAP	102	96	5
NMTAP	102	144	6
NMTAP	102	192	1
NMTAP	102	192	7
NMTAP	102	240	2
NMTAP	102	288	3
NMTAP	102	288	5
NMTAP	102	336	6
BXSTR	103	0	3
BRSV_	103	0	3	96	48	1
BXSTR	103	0	7
BRSI_	103	0	7	96	48	1
BXTAP	103	96	3
BXTAP	103	96	7
BXSTR	103	192	3
BRSV_	103	192	3	96	48	1
BXSTR	103	192	7
BRSI_	103	192	7	96	48	1
BXTAP	103	288	3
BXTAP	103	288	7
EXSTR	104	0	0
NMSV_	104	0	0	96	48	5
EXSTR	104	0	2
NMSV_	104	0	2	96	48	5
NMTAP	104	96	0
NMTAP	104	96	2
EXTAP	104	192	7
EXHLD	104	240	7	96
NMTAP	104	336	4
NMSTR	105	0	4
NMSCL	105	0	4	96	48	2
NMSCR	105	0	4	96	48	6
EXTAP	105	96	4
EXTAP	105	192	2
EXTAP	105	192	6
NMSTR	105	288	0
NMSLR	105	288	0	96	96	4
NMSTR	106	0	4
NMSLR	106	0	4	96	96	0
NMSTR	106	96	0
NMSLR	106	96	0	96	96	4
NMSTR	106	192	4
NMSLR	106	192	4	96	96	0
NMSTR	106	288	0
BRSLR	106	288	0	96	96	4
BRSTR	107	0	4
BRSLR	107	0	4	96	96	0
BRSTR	107	96	0
BRSLR	107	96	0	96	96	4
BRSTR	107	192	4
BRSLR	107	192	4	96	96	0
BRTAP	107	288	0
NMSTR	108	0	4
NMSF_	108	0	4	96	48	0
EXTAP	108	96	4
EXTAP	108	192	0
EXTAP	108	192	6
NMTAP	108	264	2
NMTAP	108	264	4
BRTAP	108	336	1
BRTAP	108	336	5

T_REC_TAP	457
T_REC_BRK	14
T_REC_XTP	69
T_REC_BXX	26
T_REC_HLD	16
T_REC_XHO	7
T_REC_BHO	0
T_REC_BXH	2
T_REC_STR	98
T_REC_BST	3
T_REC_XST	14
T_REC_XBS	17
T_REC_TTP	34
T_REC_THO	0
T_REC_SLD	101
T_REC_BSL	41
T_REC_ALL	899
T_NUM_TAP	672
T_NUM_BRK	103
T_NUM_HLD	23
T_NUM_SLD	101
T_NUM_ALL	899
T_JUDGE_TAP	732
T_JUDGE_HLD	110
T_JUDGE_SLD	142
T_JUDGE_ALL	984
TTM_EACHPAIRS	155
TTM_SCR_TAP	336000
TTM_SCR_BRK	267800
TTM_SCR_HLD	23000
TTM_SCR_SLD	151500
TTM_SCR_ALL	778300
TTM_SCR_S	745000
TTM_SCR_SS	768000
TTM_RAT_ACV	10134

