VERSION	0.00.00	1.04.00
FES_MODE	0
BPM_DEF	185.000	185.000	185.000	185.000
MET_DEF	4	4
RESOLUTION	384
CLK_DEF	384
COMPATIBLE_CODE	MA2

BPM	0	0	185.000
MET	0	0	4	4

NMTAP	2	0	1
NMTAP	2	96	1
NMTAP	2	96	3
NMTAP	2	192	6
NMTAP	2	288	4
NMTAP	2	288	6
NMHLD	3	0	1	96
NMHLD	3	96	2	96
NMHLD	3	192	3	96
NMTAP	3	288	4
NMTAP	4	0	6
NMTAP	4	96	4
NMTAP	4	96	6
NMTAP	4	192	1
NMTAP	4	288	1
NMTAP	4	288	3
NMHLD	5	0	6	96
NMHLD	5	96	5	96
NMHLD	5	192	4	96
NMTAP	5	288	3
NMTAP	6	0	1
NMTAP	6	96	1
NMTAP	6	96	3
NMTAP	6	192	6
NMTAP	6	288	4
NMTAP	6	288	6
NMHLD	7	0	1	96
NMHLD	7	96	2	96
NMHLD	7	192	3	96
NMTAP	7	288	4
NMTAP	8	0	6
NMTAP	8	96	4
NMTAP	8	96	6
NMTAP	8	192	1
NMTAP	8	288	1
NMTAP	8	288	3
EXTAP	9	0	0
EXTAP	9	0	7
NMTAP	9	96	3
NMTAP	9	144	4
NMTAP	9	192	3
EXTAP	9	288	1
EXTAP	9	288	6
NMHLD	10	0	2	672
NMTAP	10	0	4
NMTAP	10	96	4
NMTAP	10	192	3
NMTAP	10	288	3
NMHLD	11	0	1	96
NMHLD	11	192	1	96
NMHLD	12	0	2	672
NMTAP	12	0	4
NMTAP	12	96	4
NMTAP	12	192	3
NMTAP	12	288	3
NMHLD	13	0	1	96
NMHLD	13	192	1	96
NMTAP	14	0	2
NMTAP	14	48	2
NMTAP	14	96	3
NMTAP	14	192	4
NMTAP	14	192	5
NMTAP	14	288	3
NMTAP	14	288	6
NMTAP	15	0	5
NMTAP	15	48	5
NMTAP	15	96	4
NMTAP	15	192	2
NMTAP	15	192	3
NMTAP	15	288	1
NMTAP	15	288	4
NMHLD	16	0	2	96
NMTAP	16	96	3
NMHLD	16	192	5	96
NMSTR	16	288	4
NMSUL	16	288	4	96	192	2
NMTAP	18	0	3
NMHLD	18	0	5	672
NMTAP	18	96	3
NMTAP	18	192	4
NMTAP	18	288	4
NMHLD	19	0	6	96
NMHLD	19	192	6	96
NMTAP	20	0	3
NMHLD	20	0	5	672
NMTAP	20	96	3
NMTAP	20	192	4
NMTAP	20	288	4
NMHLD	21	0	6	96
NMHLD	21	192	6	96
NMTAP	22	0	5
NMTAP	22	48	5
NMTAP	22	96	4
NMTAP	22	192	2
NMTAP	22	192	3
NMTAP	22	288	1
NMTAP	22	288	4
NMTAP	23	0	2
NMTAP	23	48	2
NMTAP	23	96	3
NMTAP	23	192	4
NMTAP	23	192	5
NMTAP	23	288	3
NMTAP	23	288	6
NMHLD	24	0	5	192
NMTAP	24	96	4
NMHLD	24	192	2	192
NMSTR	24	288	3
NMSUR	24	288	3	96	192	4
NMTAP	26	0	1
NMTAP	26	0	3
NMTAP	26	48	1
NMTAP	26	48	3
NMTAP	26	192	2
NMTAP	26	192	4
NMTAP	26	240	2
NMTAP	26	240	4
NMTAP	27	0	3
NMTAP	27	0	5
NMTAP	27	48	3
NMTAP	27	48	5
EXTAP	27	192	4
EXTAP	27	192	6
EXTAP	27	288	0
EXTAP	27	288	7
NMTAP	28	0	2
NMTAP	28	48	2
NMTAP	28	96	5
NMTAP	28	144	5
NMTAP	28	192	3
NMTAP	28	240	3
NMTAP	28	288	4
NMSTR	29	0	3
BRSI_	29	0	3	96	72	1
NMSTR	29	0	4
BRSI_	29	0	4	96	72	6
CNSCL	29	168	1	0	24	0
CNSCR	29	168	6	0	24	7
EXTAP	29	288	1
EXTAP	29	288	6
NMTAP	30	0	4
NMSTR	30	0	5
NMSCR	30	0	5	96	48	7
NMSTR	30	192	2
NMSCL	30	192	2	96	48	0
NMTAP	30	192	3
NMTAP	31	0	4
NMTAP	31	0	5
NMTAP	31	96	2
NMTAP	31	96	3
NMTAP	31	192	0
NMTAP	31	192	1
NMTAP	31	288	6
NMTAP	31	288	7
NMTAP	32	0	5
NMTAP	32	48	5
NMTAP	32	96	4
NMTAP	32	96	5
NMTAP	32	192	2
NMTAP	32	240	2
NMTAP	32	288	2
NMTAP	32	288	3
NMTAP	33	0	0
NMTAP	33	0	7
EXTAP	33	96	3
EXTAP	33	96	5
NMTAP	33	192	0
NMTAP	33	192	7
EXTAP	33	288	2
EXTAP	33	288	4
NMSTR	34	0	2
NMSCL	34	0	2	96	48	0
NMTAP	34	0	3
NMTAP	34	192	4
NMSTR	34	192	5
NMSCR	34	192	5	96	48	7
NMTAP	35	0	2
NMTAP	35	48	2
NMTAP	35	96	3
NMHLD	35	192	1	768
NMTAP	35	192	4
NMTTP	36	0	2	E	0	M1
NMTTP	36	96	3	E	0	M1
NMTTP	36	192	4	E	0	M1
NMTTP	36	288	5	E	0	M1
NMTAP	37	0	6
NMTAP	37	96	7
BRTAP	37	192	0
NMSTR	38	0	2
NMSCL	38	0	2	96	48	0
NMTAP	38	0	3
NMTAP	38	192	4
NMSTR	38	192	5
NMSCR	38	192	5	96	48	7
NMTAP	39	0	2
NMTAP	39	0	3
NMTAP	39	96	4
NMTAP	39	96	5
NMTAP	39	192	6
NMTAP	39	192	7
NMTAP	39	288	0
NMTAP	39	288	1
NMTAP	40	0	2
NMTAP	40	48	2
NMTAP	40	96	2
NMTAP	40	96	3
NMTAP	40	192	5
NMTAP	40	240	5
NMTAP	40	288	4
NMTAP	40	288	5
NMTAP	41	0	0
NMTAP	41	0	7
EXTAP	41	96	2
EXTAP	41	96	4
NMTAP	41	192	0
NMTAP	41	192	7
EXTAP	41	288	3
EXTAP	41	288	5
NMTAP	42	0	4
NMSTR	42	0	5
NMSCR	42	0	5	96	48	7
NMSTR	42	192	2
NMSCL	42	192	2	96	48	0
NMTAP	42	192	3
NMTAP	43	0	5
NMTAP	43	48	5
NMTAP	43	96	4
NMTAP	43	192	3
NMHLD	43	192	6	480
NMTTP	44	0	6	E	0	M1
NMTTP	44	96	5	E	0	M1
NMTTP	44	192	4	E	0	M1
NMTTP	44	288	3	E	0	M1
NMTAP	45	0	5
NMTAP	45	48	5
NMTAP	45	96	5
NMTAP	45	144	5
NMTAP	45	192	3
NMTAP	45	240	3
NMTAP	45	288	3
NMTAP	45	336	3
EXSTR	46	96	3
NMSCL	46	96	3	96	96	0
EXSTR	46	96	5
NMSCR	46	96	5	96	96	0
NMTAP	47	48	2
NMTAP	47	48	3
NMTAP	47	144	4
NMTAP	47	144	5
NMTAP	47	192	4
NMTAP	47	192	5
BXTAP	47	288	1
BXTAP	47	288	6
NMHLD	48	0	2	672
NMTAP	48	0	4
NMTAP	48	96	4
NMTAP	48	192	3
NMTAP	48	288	3
NMHLD	49	0	1	96
NMSTR	49	192	1
NMSI_	49	192	1	96	48	7
NMHLD	50	0	2	672
NMTAP	50	0	4
NMTAP	50	96	4
NMTAP	50	192	3
NMTAP	50	288	3
NMHLD	51	0	1	96
NMSTR	51	192	1
NMSI_	51	192	1	96	48	7
NMTAP	52	0	5
NMTAP	52	48	5
NMTAP	52	96	4
NMTAP	52	192	2
NMTAP	52	192	4
NMTAP	52	288	3
NMTAP	52	288	6
NMTAP	53	0	2
NMTAP	53	48	2
NMTAP	53	96	3
NMTAP	53	192	3
NMTAP	53	192	5
NMTAP	53	288	1
NMTAP	53	288	4
NMTAP	54	0	3
NMHLD	54	0	5	576
NMTAP	54	96	3
NMTAP	54	192	4
NMTAP	54	288	4
NMHLD	55	0	6	96
NMTAP	55	192	6
EXTAP	55	288	0
EXTAP	55	288	4
NMTAP	56	0	1
NMTAP	56	0	3
NMHLD	56	48	1	96
NMHLD	56	48	3	96
NMTAP	56	192	2
NMTAP	56	192	4
NMHLD	56	240	2	96
NMHLD	56	240	4	96
NMTAP	57	0	3
NMTAP	57	0	5
NMHLD	57	48	3	96
NMHLD	57	48	5	96
EXTAP	57	192	4
EXTAP	57	192	6
EXTAP	57	288	0
EXTAP	57	288	7
NMTAP	58	0	6
NMTAP	58	48	6
NMTAP	58	96	1
NMTAP	58	144	1
NMTAP	58	192	5
NMTAP	58	240	5
NMTAP	58	288	2
NMSTR	59	0	3
BRSI_	59	0	3	96	48	1
NMSTR	59	0	4
BRSI_	59	0	4	96	48	6
CNSCL	59	144	1	0	48	0
CNSCR	59	144	6	0	48	7
EXTAP	59	288	1
EXTAP	59	288	6
NMSTR	60	0	4
NMSCR	60	0	4	96	48	7
NMTAP	60	0	6
NMTAP	60	192	1
NMSTR	60	192	3
NMSCL	60	192	3	96	48	0
NMTAP	61	0	6
NMTAP	61	0	7
NMTAP	61	96	4
NMTAP	61	96	5
NMTAP	61	192	2
NMTAP	61	192	3
NMTAP	61	288	0
NMTAP	61	288	1
NMTAP	62	0	6
NMTAP	62	48	6
NMTAP	62	96	5
NMTAP	62	96	7
NMTAP	62	192	1
NMTAP	62	240	1
NMTAP	62	288	0
NMTAP	62	288	2
NMTAP	63	0	6
NMTAP	63	0	7
EXTAP	63	96	3
EXTAP	63	96	5
NMTAP	63	192	0
NMTAP	63	192	1
EXTAP	63	288	2
EXTAP	63	288	4
NMTAP	64	0	1
NMSTR	64	0	3
NMSCL	64	0	3	96	48	0
NMSTR	64	192	4
NMSCR	64	192	4	96	48	7
NMTAP	64	192	6
NMTAP	65	0	1
NMTAP	65	48	1
NMTAP	65	96	3
NMHLD	65	192	2	768
NMTAP	65	192	7
NMTTP	66	0	6	E	0	M1
NMTTP	66	96	5	E	0	M1
NMTTP	66	192	4	E	0	M1
NMTTP	66	288	3	E	0	M1
NMTAP	67	0	1
NMTAP	67	96	0
BRTAP	67	192	7
NMTAP	68	0	1
NMSTR	68	0	3
NMSCL	68	0	3	96	48	0
NMSTR	68	192	4
NMSCR	68	192	4	96	48	7
NMTAP	68	192	6
NMTAP	69	0	0
NMTAP	69	0	1
NMTAP	69	96	2
NMTAP	69	96	3
NMTAP	69	192	4
NMTAP	69	192	5
NMTAP	69	288	6
NMTAP	69	288	7
NMTAP	70	0	1
NMTAP	70	48	1
NMTAP	70	96	0
NMTAP	70	96	2
NMTAP	70	192	6
NMTAP	70	240	6
NMTAP	70	288	5
NMTAP	70	288	7
NMTAP	71	0	0
NMTAP	71	0	1
EXTAP	71	96	2
EXTAP	71	96	4
NMTAP	71	192	6
NMTAP	71	192	7
EXTAP	71	288	3
EXTAP	71	288	5
NMSTR	72	0	4
NMSCR	72	0	4	96	48	7
NMTAP	72	0	6
NMTAP	72	192	1
NMSTR	72	192	3
NMSCL	72	192	3	96	48	0
NMTAP	73	0	6
NMTAP	73	48	6
NMTAP	73	96	4
NMTAP	73	192	0
NMHLD	73	192	5	480
NMTTP	74	0	2	E	0	M1
NMTTP	74	96	3	E	0	M1
NMTTP	74	192	4	E	0	M1
NMTTP	74	288	5	E	0	M1
NMTAP	75	0	6
NMTAP	75	0	7
NMTAP	75	96	1
NMTAP	75	96	7
BRSTR	75	144	1
NMSCR	75	144	1	96	48	4
BRSTR	75	144	7
NMSCL	75	144	7	96	48	4
NMTAP	76	0	3
NMTAP	76	0	4
NMTAP	76	96	2
NMSTR	76	96	7
NMSCL	76	96	7	96	96	3
NMTAP	77	0	2
NMTAP	77	0	3
NMTAP	77	96	4
NMTAP	77	96	5
NMTAP	77	192	6
NMTAP	77	240	7
NMTAP	77	288	6
NMHLD	78	0	0	96
NMHLD	78	96	2	96
NMHLD	78	192	4	96
NMHLD	78	288	6	96
NMTAP	79	0	7
EXTAP	79	96	2
EXTAP	79	96	4
NMTAP	79	192	0
NMTAP	79	192	1
EXTAP	79	288	3
EXTAP	79	288	5
NMTAP	80	0	2
NMTAP	80	48	3
NMTAP	80	96	2
NMTAP	80	144	3
NMHLD	80	192	2	96
NMTAP	80	288	0
NMTAP	81	0	5
NMTAP	81	48	4
NMTAP	81	96	5
NMTAP	81	144	4
NMHLD	81	192	5	96
NMTAP	81	288	7
EXSTR	82	0	0
NMSCR	82	0	0	96	48	3
EXSTR	82	192	7
NMSCL	82	192	7	96	48	4
BXSTR	83	0	0
NMSCR	83	0	0	96	192	7
EXTAP	84	0	2
EXHLD	84	0	5	576
NMTTP	84	192	7	B	0	M1
NMTTP	85	0	0	B	0	M1
NMTHO	85	192	0	768	C	0	M1
NMSTR	86	0	7
NMSCL	86	0	7	96	480	2
NMTTP	88	0	0	E	0	M1
NMTTP	88	96	1	E	0	M1
NMTTP	88	192	2	E	0	M1
NMTTP	88	288	3	E	0	M1
NMTTP	89	0	4	E	0	M1
NMTTP	89	96	5	E	0	M1
NMTTP	89	192	6	E	0	M1
NMTTP	89	288	7	E	0	M1
NMTTP	90	0	0	E	0	M1
NMTAP	90	192	1
NMTAP	90	192	3
NMTAP	90	288	4
NMTAP	90	288	6
NMSTR	91	0	3
BRSI_	91	0	3	96	48	1
NMSTR	91	0	4
BRSI_	91	0	4	96	48	6
CNSCL	91	144	1	0	48	0
CNSCR	91	144	6	0	48	7
EXTAP	91	288	1
EXTAP	91	288	6
NMSTR	92	0	4
NMSI_	92	0	4	96	48	0
NMSTR	92	0	5
NMSI_	92	0	5	96	48	7
NMSTR	92	192	2
NMSI_	92	192	2	96	48	0
NMSTR	92	192	3
NMSI_	92	192	3	96	48	7
NMTAP	93	0	5
NMTAP	93	0	6
NMTAP	93	96	3
NMTAP	93	96	4
NMTAP	93	192	1
NMTAP	93	192	2
NMTAP	93	288	0
NMTAP	93	288	7
NMTAP	94	0	5
NMTAP	94	48	5
NMTAP	94	96	4
NMTAP	94	96	6
NMTAP	94	192	2
NMTAP	94	240	2
NMTAP	94	288	1
NMTAP	94	288	3
NMTAP	95	0	0
NMTAP	95	0	1
EXTAP	95	96	3
EXTAP	95	96	5
NMTAP	95	192	6
NMTAP	95	192	7
EXTAP	95	288	2
EXTAP	95	288	4
NMSTR	96	0	0
NMSI_	96	0	0	96	48	4
NMSTR	96	0	1
NMSI_	96	0	1	96	48	3
NMSTR	96	192	6
NMSI_	96	192	6	96	48	4
NMSTR	96	192	7
NMSI_	96	192	7	96	48	3
NMTAP	97	0	2
NMTAP	97	48	2
NMTAP	97	96	3
NMHLD	97	192	1	672
NMTAP	97	192	4
NMTTP	98	0	2	E	0	M1
NMTTP	98	96	3	E	0	M1
NMTTP	98	192	4	E	0	M1
NMTTP	98	288	5	E	0	M1
NMTAP	99	0	7
NMTAP	99	96	0
BRTAP	99	192	2
BRTAP	99	192	7
NMSTR	100	0	2
NMSI_	100	0	2	96	48	0
NMSTR	100	0	3
NMSI_	100	0	3	96	48	7
NMSTR	100	192	4
NMSI_	100	192	4	96	48	0
NMSTR	100	192	5
NMSI_	100	192	5	96	48	7
NMTAP	101	0	1
NMTAP	101	0	2
NMTAP	101	96	3
NMTAP	101	96	4
NMTAP	101	192	5
NMTAP	101	192	6
NMTAP	101	288	0
NMTAP	101	288	7
NMTAP	102	0	2
NMTAP	102	48	2
NMTAP	102	96	1
NMTAP	102	96	3
NMTAP	102	192	5
NMTAP	102	240	5
NMTAP	102	288	4
NMTAP	102	288	6
NMTAP	103	0	6
NMTAP	103	0	7
EXTAP	103	96	2
EXTAP	103	96	4
NMTAP	103	192	0
NMTAP	103	192	1
EXTAP	103	288	3
EXTAP	103	288	5
NMSTR	104	0	6
NMSI_	104	0	6	96	48	4
NMSTR	104	0	7
NMSI_	104	0	7	96	48	3
NMSTR	104	192	0
NMSI_	104	192	0	96	48	4
NMSTR	104	192	1
NMSI_	104	192	1	96	48	3
NMTAP	105	0	5
NMTAP	105	48	5
NMTAP	105	96	4
NMTAP	105	192	3
NMHLD	105	192	6	480
NMTTP	106	0	6	E	0	M1
NMTTP	106	96	5	E	0	M1
NMTTP	106	192	4	E	0	M1
NMTTP	106	288	3	E	0	M1
NMTAP	107	0	6
NMTAP	107	48	6
NMTAP	107	96	6
NMTAP	107	144	6
NMTAP	107	192	3
NMTAP	107	192	5
NMTAP	107	240	3
NMTAP	107	240	5
NMTAP	107	288	3
NMTAP	107	288	5
NMTAP	107	336	3
NMTAP	107	336	5
EXTAP	108	96	0
EXTAP	108	96	7
BXTAP	108	192	4
BXTAP	108	192	6
BXTAP	108	264	1
BXTAP	108	264	3
BXTAP	108	336	0
BXTAP	108	336	7

T_REC_TAP	358
T_REC_BRK	4
T_REC_XTP	51
T_REC_BXX	8
T_REC_HLD	49
T_REC_XHO	1
T_REC_BHO	0
T_REC_BXH	0
T_REC_STR	44
T_REC_BST	2
T_REC_XST	4
T_REC_XBS	1
T_REC_TTP	35
T_REC_THO	1
T_REC_SLD	45
T_REC_BSL	6
T_REC_ALL	609
T_NUM_TAP	492
T_NUM_BRK	21
T_NUM_HLD	51
T_NUM_SLD	45
T_NUM_ALL	609
T_JUDGE_TAP	507
T_JUDGE_HLD	276
T_JUDGE_SLD	51
T_JUDGE_ALL	834
TTM_EACHPAIRS	169
TTM_SCR_TAP	246000
TTM_SCR_BRK	54600
TTM_SCR_HLD	51000
TTM_SCR_SLD	67500
TTM_SCR_ALL	419100
TTM_SCR_S	404500
TTM_SCR_SS	417000
TTM_RAT_ACV	10050

