VERSION	0.00.00	1.04.00
FES_MODE	0
BPM_DEF	185.000	185.000	185.000	185.000
MET_DEF	4	4
RESOLUTION	384
CLK_DEF	384
COMPATIBLE_CODE	MA2

BPM	0	0	185.000
MET	0	0	4	4

NMTAP	2	0	1
NMTAP	2	192	1
NMTAP	3	0	2
NMTAP	3	192	2
NMTAP	4	0	3
NMTAP	4	192	3
NMTAP	5	0	4
NMTAP	5	192	4
NMTAP	5	192	5
NMTAP	6	0	6
NMTAP	6	192	6
NMTAP	7	0	5
NMTAP	7	192	5
NMTAP	8	0	4
NMTAP	8	192	4
EXTAP	9	0	3
EXTAP	9	192	2
EXTAP	9	192	3
NMHLD	10	0	2	384
NMTAP	11	0	3
NMTAP	11	192	2
NMTAP	11	192	3
NMHLD	12	0	5	384
NMTAP	13	0	4
NMTAP	13	192	4
NMTAP	13	192	5
NMTAP	14	0	6
NMTAP	14	96	6
NMTAP	14	192	6
NMTAP	15	0	7
NMTAP	15	96	7
NMTAP	15	192	7
NMTAP	16	0	0
NMTAP	16	96	0
NMTAP	16	192	0
NMTAP	17	0	1
NMTAP	17	96	1
NMTAP	17	192	2
NMTAP	17	192	3
NMHLD	18	0	5	384
NMTAP	19	0	4
NMTAP	19	192	4
NMTAP	19	192	5
NMHLD	20	0	2	384
NMTAP	21	0	3
NMTAP	21	192	2
NMTAP	21	192	3
NMTAP	22	0	1
NMTAP	22	96	1
NMTAP	22	192	1
NMTAP	23	0	0
NMTAP	23	96	0
NMTAP	23	192	0
NMTAP	24	0	7
NMTAP	24	96	7
NMTAP	24	192	7
NMTAP	25	0	6
NMTAP	25	96	6
NMTAP	25	192	4
NMTAP	25	192	5
NMSTR	26	0	6
NMSI_	26	0	6	96	288	3
NMSTR	26	0	7
NMSI_	26	0	7	96	288	2
NMTAP	28	0	2
NMTAP	28	96	2
NMTAP	28	192	1
NMTAP	28	288	1
BRTAP	29	0	0
BRTAP	29	0	7
EXTAP	30	0	0
EXTAP	30	96	0
NMTAP	30	192	1
NMTAP	30	288	1
NMTAP	31	0	2
NMTAP	31	96	2
NMTAP	31	192	2
NMTAP	31	192	3
NMTAP	32	0	3
NMTAP	32	96	3
NMTAP	32	192	4
NMTAP	32	288	4
BXTAP	33	0	5
BXTAP	33	96	5
BXTAP	33	192	5
NMTAP	34	0	6
NMTAP	34	96	6
NMTAP	34	192	5
NMTAP	34	288	5
NMTAP	35	0	4
NMTAP	35	96	4
NMTAP	35	192	2
NMTAP	35	192	3
NMTAP	36	0	3
NMTAP	36	96	3
NMTAP	36	192	4
NMTAP	36	288	4
NMTAP	37	0	5
NMTAP	37	96	5
NMTAP	37	192	6
NMTAP	37	288	6
EXTAP	38	0	7
EXTAP	38	96	7
NMTAP	38	192	6
NMTAP	38	288	6
NMTAP	39	0	5
NMTAP	39	96	5
NMTAP	39	192	4
NMTAP	39	192	5
NMTAP	40	0	4
NMTAP	40	96	4
NMTAP	40	192	3
NMTAP	40	288	3
BXTAP	41	0	2
BXTAP	41	96	2
BXTAP	41	192	2
NMTAP	42	0	1
NMTAP	42	96	1
NMTAP	42	192	2
NMTAP	42	288	2
NMTAP	43	0	3
NMTAP	43	96	3
NMTAP	43	192	4
NMTAP	43	192	5
NMTAP	44	0	4
NMTAP	44	96	4
NMTAP	44	192	3
NMTAP	44	288	3
NMTAP	45	0	2
NMTAP	45	96	2
NMTAP	45	192	1
NMTAP	45	288	1
EXTAP	46	0	0
EXTAP	46	96	0
EXTAP	46	192	0
EXHLD	46	288	0	288
EXHLD	46	288	7	288
NMTTP	48	0	1	B	0	L1
NMTTP	48	96	2	B	0	L1
NMTTP	48	192	3	B	0	L1
NMTTP	49	0	6	B	0	L1
NMTTP	49	96	5	B	0	L1
NMTTP	49	192	4	B	0	L1
NMTTP	50	0	0	B	0	L1
NMTTP	50	96	1	B	0	L1
NMTTP	50	192	2	B	0	L1
NMTTP	50	192	3	B	0	L1
NMTTP	51	0	7	B	0	L1
NMTTP	51	96	6	B	0	L1
NMTTP	51	192	4	B	0	L1
NMTTP	51	192	5	B	0	L1
NMTTP	52	0	1	E	0	L1
NMTTP	52	96	2	E	0	L1
NMTTP	52	192	3	E	0	L1
NMTTP	52	288	4	E	0	L1
NMTTP	53	0	5	E	0	L1
NMTTP	53	96	6	E	0	L1
NMTTP	53	192	0	B	0	L1
NMTTP	53	192	7	B	0	L1
NMTTP	54	0	6	B	0	L1
NMTTP	54	96	5	B	0	L1
NMTTP	54	192	4	B	0	L1
NMTTP	54	288	3	B	0	L1
NMTTP	55	0	2	B	0	L1
NMTTP	55	96	1	B	0	L1
NMTTP	55	192	0	C	0	L1
NMSTR	56	0	0
NMSI_	56	0	0	96	288	5
NMSTR	56	0	1
NMSI_	56	0	1	96	288	4
NMTAP	58	0	5
NMTAP	58	96	5
NMTAP	58	192	6
NMTAP	58	288	6
BRTAP	59	0	0
BRTAP	59	0	7
EXTAP	60	0	0
EXTAP	60	96	0
NMTAP	60	192	1
NMTAP	60	288	1
NMTAP	61	0	2
NMTAP	61	96	2
NMTAP	61	192	2
NMTAP	61	192	3
NMTAP	62	0	3
NMTAP	62	96	3
NMTAP	62	192	4
NMTAP	62	288	4
BXTAP	63	0	5
BXTAP	63	96	5
BXTAP	63	192	5
NMTAP	64	0	6
NMTAP	64	96	6
NMTAP	64	192	5
NMTAP	64	288	5
NMTAP	65	0	4
NMTAP	65	96	4
NMTAP	65	192	2
NMTAP	65	192	3
NMTAP	66	0	3
NMTAP	66	96	3
NMTAP	66	192	4
NMTAP	66	288	4
NMTAP	67	0	5
NMTAP	67	96	5
NMTAP	67	192	6
NMTAP	67	288	6
EXTAP	68	0	7
EXTAP	68	96	7
NMTAP	68	192	6
NMTAP	68	288	6
NMTAP	69	0	5
NMTAP	69	96	5
NMTAP	69	192	4
NMTAP	69	192	5
NMTAP	70	0	4
NMTAP	70	96	4
NMTAP	70	192	3
NMTAP	70	288	3
BXTAP	71	0	2
BXTAP	71	96	2
BXTAP	71	192	2
NMTAP	72	0	1
NMTAP	72	96	1
NMTAP	72	192	2
NMTAP	72	288	2
NMTAP	73	0	3
NMTAP	73	96	3
NMTAP	73	192	4
NMTAP	73	192	5
NMTAP	74	0	4
NMTAP	74	96	4
NMTAP	74	192	3
NMTAP	74	288	3
NMTAP	75	0	2
NMTAP	75	96	2
BXTAP	75	192	0
BXTAP	75	192	1
NMSTR	76	0	0
NMSI_	76	0	0	96	288	5
NMSTR	76	0	1
NMSI_	76	0	1	96	288	4
NMTAP	77	192	6
NMTAP	77	192	7
NMSTR	78	0	6
NMSI_	78	0	6	96	288	3
NMSTR	78	0	7
NMSI_	78	0	7	96	288	2
NMTAP	79	192	0
NMTAP	79	192	1
NMSTR	80	0	0
NMSI_	80	0	0	96	288	5
NMSTR	80	0	1
NMSI_	80	0	1	96	288	4
NMTAP	81	192	6
NMTAP	81	192	7
NMSTR	82	0	6
NMSI_	82	0	6	96	288	3
NMSTR	82	0	7
NMSI_	82	0	7	96	288	2
NMTAP	83	192	0
NMTAP	83	192	1
NMHLD	84	0	0	192
NMHLD	84	0	1	192
NMHLD	85	0	2	192
NMHLD	85	192	3	192
NMHLD	86	0	4	192
NMHLD	86	192	5	192
NMTAP	87	0	6
NMTAP	87	192	6
NMTAP	87	192	7
NMHLD	88	0	6	192
NMHLD	88	0	7	192
NMHLD	89	0	5	192
NMHLD	89	192	4	192
NMHLD	90	0	3	192
NMHLD	90	192	2	192
NMTAP	91	0	1
BRTAP	91	192	0
BRTAP	91	192	1
EXTAP	92	0	1
EXTAP	92	96	1
NMTAP	92	192	0
NMTAP	92	192	1
NMTAP	92	288	0
NMTAP	92	288	1
NMTAP	93	0	2
NMTAP	93	96	2
NMTAP	93	192	2
NMTAP	93	192	3
NMTAP	93	288	2
NMTAP	93	288	3
NMTAP	94	0	4
NMTAP	94	96	4
NMTAP	94	192	4
NMTAP	94	192	5
NMTAP	94	288	4
NMTAP	94	288	5
BXTAP	95	0	6
BXTAP	95	96	6
BXTAP	95	192	6
NMTAP	96	0	7
NMTAP	96	96	7
NMTAP	96	192	6
NMTAP	96	288	6
NMTAP	97	0	5
NMTAP	97	96	5
NMTAP	97	192	3
NMTAP	97	192	4
NMTAP	97	288	3
NMTAP	97	288	4
NMTAP	98	0	2
NMTAP	98	96	2
NMTAP	98	192	3
NMTAP	98	288	3
NMTAP	99	0	4
NMTAP	99	96	4
NMTAP	99	192	4
NMTAP	99	192	5
EXTAP	100	0	6
EXTAP	100	96	6
NMTAP	100	192	6
NMTAP	100	192	7
NMTAP	100	288	6
NMTAP	100	288	7
NMTAP	101	0	5
NMTAP	101	96	5
NMTAP	101	192	4
NMTAP	101	192	5
NMTAP	101	288	4
NMTAP	101	288	5
NMTAP	102	0	3
NMTAP	102	96	3
NMTAP	102	192	2
NMTAP	102	192	3
NMTAP	102	288	2
NMTAP	102	288	3
BXTAP	103	0	1
BXTAP	103	96	1
BXTAP	103	192	1
NMTAP	104	0	0
NMTAP	104	96	0
NMTAP	104	192	1
NMTAP	104	288	1
NMTAP	105	0	2
NMTAP	105	96	2
NMTAP	105	192	3
NMTAP	105	192	4
NMTAP	105	288	3
NMTAP	105	288	4
NMTAP	106	0	5
NMTAP	106	96	5
NMTAP	106	192	4
NMTAP	106	288	4
NMTAP	107	0	3
NMTAP	107	96	3
NMTAP	107	192	2
NMTAP	107	192	3
NMTAP	108	0	1
NMTAP	108	96	1
BXTAP	108	192	0
BXTAP	108	192	7
BXTAP	108	288	0
BXTAP	108	288	7

T_REC_TAP	245
T_REC_BRK	6
T_REC_XTP	18
T_REC_BXX	24
T_REC_HLD	16
T_REC_XHO	2
T_REC_BHO	0
T_REC_BXH	0
T_REC_STR	12
T_REC_BST	0
T_REC_XST	0
T_REC_XBS	0
T_REC_TTP	29
T_REC_THO	0
T_REC_SLD	12
T_REC_BSL	0
T_REC_ALL	364
T_NUM_TAP	304
T_NUM_BRK	30
T_NUM_HLD	18
T_NUM_SLD	12
T_NUM_ALL	364
T_JUDGE_TAP	334
T_JUDGE_HLD	92
T_JUDGE_SLD	12
T_JUDGE_ALL	438
TTM_EACHPAIRS	54
TTM_SCR_TAP	152000
TTM_SCR_BRK	78000
TTM_SCR_HLD	18000
TTM_SCR_SLD	18000
TTM_SCR_ALL	266000
TTM_SCR_S	255150
TTM_SCR_SS	263000
TTM_RAT_ACV	10114

