VERSION	0.00.00	1.04.00
FES_MODE	0
BPM_DEF	190.000	190.000	190.000	190.000
MET_DEF	4	4
RESOLUTION	384
CLK_DEF	384
COMPATIBLE_CODE	MA2

BPM	0	0	190.000
MET	0	0	4	4

EXTAP	1	0	5
EXTAP	1	24	4
EXSTR	1	48	3
NMSF_	1	48	3	96	528	7
NMTHO	3	0	0	288	C	0	M1
EXSTR	4	0	0
NMSI_	4	0	0	96	48	4
EXTAP	4	0	7
NMTAP	4	96	6
NMTAP	4	192	5
NMTAP	4	240	5
NMTAP	4	336	3
NMSTR	4	336	6
NMSI_	4	336	6	96	48	3
NMTAP	5	48	2
NMTAP	5	96	2
NMTAP	5	192	1
NMTAP	5	192	4
NMTAP	5	240	5
NMTAP	5	288	1
NMTAP	5	288	6
NMTAP	5	336	0
NMTAP	5	360	7
NMSTR	6	0	0
NMSCR	6	0	0	96	48	3
NMTAP	6	96	4
NMTAP	6	192	5
NMTAP	6	240	5
NMSTR	6	336	6
NMSV_	6	336	6	96	96	4
NMTAP	6	336	7
NMTAP	7	48	1
NMTAP	7	96	2
NMHLD	7	144	3	96
NMTAP	7	240	5
NMTAP	7	288	6
NMTAP	7	336	7
NMTAP	8	0	0
NMSTR	8	0	7
NMSI_	8	0	7	96	48	3
NMTAP	8	96	1
NMTAP	8	192	2
NMTAP	8	240	2
NMSTR	8	336	1
NMSI_	8	336	1	96	48	4
NMTAP	8	336	4
NMTAP	9	48	5
NMTAP	9	96	5
NMTAP	9	192	3
NMTAP	9	192	6
NMTAP	9	240	2
NMTAP	9	288	1
NMTAP	9	288	6
NMTAP	9	336	7
NMTAP	9	360	0
NMSTR	10	0	7
NMSCL	10	0	7	96	48	4
NMTAP	10	96	3
NMTAP	10	192	2
NMTAP	10	240	2
NMTAP	10	336	0
NMSTR	10	336	1
NMSV_	10	336	1	96	96	3
NMTAP	11	48	6
NMTAP	11	96	5
NMTAP	11	144	4
NMTAP	11	240	2
BRTAP	11	288	1
BRTAP	11	288	3
NMHLD	12	0	3	96
NMHLD	12	0	5	96
NMHLD	12	144	4	432
NMHLD	12	144	6	384
NMTAP	13	192	5
NMTAP	13	240	3
NMTAP	13	288	3
NMTAP	13	288	5
NMHLD	14	0	2	96
NMHLD	14	0	4	96
NMHLD	14	144	1	48
NMHLD	14	144	3	96
NMTAP	14	240	2
NMTAP	14	288	4
NMHLD	14	336	2	96
NMHLD	14	336	4	96
NMHLD	15	96	3	48
NMHLD	15	96	5	48
NMTAP	15	192	3
NMTAP	15	192	5
NMTAP	15	288	1
NMTAP	15	288	6
NMHLD	16	0	2	96
NMHLD	16	0	4	96
NMHLD	16	144	1	384
NMHLD	16	144	3	432
NMTAP	17	192	2
NMTAP	17	240	4
NMTAP	17	288	2
NMTAP	17	288	4
NMHLD	18	0	3	96
NMHLD	18	0	5	96
NMHLD	18	144	4	96
NMHLD	18	144	6	48
NMTAP	18	240	5
NMTAP	18	288	3
NMHLD	18	336	3	96
NMHLD	18	336	5	96
NMTAP	19	96	2
NMTAP	19	96	4
NMTAP	19	192	1
NMTAP	19	240	1
NMTAP	19	288	0
NMTAP	19	288	1
EXTAP	20	0	0
EXSTR	20	0	7
NMSUL	20	0	7	96	48	3
NMTAP	20	96	1
NMTAP	20	192	2
NMTAP	20	240	2
NMSTR	20	336	1
NMSV_	20	336	1	96	48	4
NMTAP	20	336	3
NMTAP	21	48	5
NMTAP	21	96	5
NMTAP	21	192	3
NMTAP	21	192	6
NMTAP	21	240	2
NMTAP	21	288	1
NMTAP	21	288	6
NMTAP	21	336	7
NMTAP	21	360	0
NMSTR	22	0	7
NMSCL	22	0	7	96	48	4
NMTAP	22	96	3
NMTAP	22	192	2
NMTAP	22	240	2
NMTAP	22	336	0
NMSTR	22	336	1
NMSV_	22	336	1	96	96	3
NMTAP	23	48	6
NMTAP	23	96	5
NMTAP	23	144	4
NMTAP	23	240	0
NMTAP	23	240	1
BRTAP	23	288	0
BRTAP	23	288	1
NMTAP	24	0	2
NMHLD	24	0	3	96
BXTAP	24	96	2
NMHLD	24	144	4	480
NMTAP	24	192	2
NMTAP	24	288	2
NMTAP	25	0	1
NMTAP	25	96	1
NMTAP	25	192	1
NMTAP	25	288	1
NMTAP	25	288	5
NMTAP	26	0	0
NMHLD	26	0	4	96
NMTAP	26	96	0
NMHLD	26	144	3	48
NMTAP	26	192	0
NMTAP	26	240	4
NMTAP	26	288	0
NMTAP	26	288	5
NMHLD	26	336	6	96
NMHLD	26	336	7	96
NMHLD	27	96	0	48
NMHLD	27	96	7	48
NMTAP	27	192	0
NMTAP	27	192	1
NMTAP	27	288	2
NMTAP	27	288	3
NMHLD	28	0	4	96
NMTAP	28	0	5
NMTAP	28	96	5
NMHLD	28	144	3	480
NMTAP	28	192	5
NMTAP	28	288	5
NMTAP	29	0	6
NMTAP	29	96	6
NMTAP	29	192	6
NMTAP	29	288	2
NMTAP	29	288	7
NMHLD	30	0	1	96
NMHLD	30	0	6	96
NMHLD	30	144	0	48
NMHLD	30	144	5	96
NMTAP	30	240	1
NMTAP	30	288	2
NMTAP	30	336	3
NMTAP	31	0	4
NMTAP	31	48	5
NMTAP	31	96	4
NMTAP	31	96	6
NMTAP	31	192	1
NMTAP	31	192	3
NMSTR	31	288	0
NMSI_	31	288	0	96	48	3
NMSTR	31	288	7
NMSI_	31	288	7	96	48	4
BXTAP	32	0	0
BXTAP	32	0	7
EXTAP	32	96	4
EXTAP	32	96	5
NMTAP	32	144	2
NMTAP	32	168	3
NMTAP	32	192	2
NMTTP	32	240	4	B	0	M1
NMTTP	32	288	1	B	0	M1
NMTTP	32	336	7	E	0	M1
NMTAP	33	48	3
NMTAP	33	72	4
NMTAP	33	96	3
NMTAP	33	144	5
NMTAP	33	168	4
NMTAP	33	192	5
NMTTP	33	240	3	B	0	M1
NMTTP	33	288	6	B	0	M1
NMTTP	33	336	1	E	0	M1
NMTAP	34	48	5
NMTAP	34	72	4
NMTAP	34	96	5
NMTAP	34	144	2
NMTAP	34	168	3
NMTAP	34	192	2
NMTAP	34	240	5
NMTAP	34	264	4
NMTAP	34	288	5
NMTAP	34	336	3
NMTAP	34	336	6
NMTTP	35	0	5	B	0	M1
NMTTP	35	48	3	B	0	M1
NMTTP	35	96	7	B	0	M1
NMTTP	35	144	1	B	0	M1
NMTTP	35	192	0	D	0	M1
NMTTP	35	240	1	D	0	M1
EXTAP	35	288	2
EXTAP	35	288	6
NMTAP	36	0	3
NMTAP	36	48	4
NMTAP	36	96	5
NMSTR	36	192	7
NMSI_	36	192	7	96	96	1
NMTAP	36	288	1
CNSI_	37	0	1	0	96	5
NMHLD	37	0	2	192
CNSI_	37	96	5	0	96	3
NMTAP	37	288	0
NMTAP	37	288	1
NMTAP	38	0	7
NMTAP	38	48	6
NMTAP	38	96	5
NMSTR	38	192	3
NMSI_	38	192	3	96	48	5
NMTAP	38	288	5
CNSI_	38	336	5	0	24	1
CNSI_	38	360	1	0	216	7
NMSTR	39	0	6
NMSUR	39	0	6	96	96	2
BRTAP	39	288	3
BRTAP	39	288	4
EXTAP	40	0	0
EXSTR	40	0	1
NMSI_	40	0	1	96	48	4
NMTAP	40	96	1
NMTAP	40	96	7
NMSTR	40	144	6
NMSI_	40	144	6	96	48	3
NMTAP	40	240	6
NMTAP	40	240	7
EXSTR	40	336	2
NMSI_	40	336	2	96	48	7
NMTAP	41	48	2
NMTAP	41	48	4
NMSTR	41	96	5
NMSI_	41	96	5	96	48	0
NMTAP	41	192	4
NMTAP	41	192	5
NMTAP	41	288	1
NMTAP	41	336	2
NMSTR	42	0	3
NMSI_	42	0	3	96	48	7
NMTAP	42	96	3
NMHLD	42	96	6	144
NMTAP	42	192	0
NMSTR	42	240	0
NMSI_	42	240	0	96	48	4
NMSTR	42	336	7
NMSI_	42	336	7	96	48	5
NMTAP	43	48	2
NMTAP	43	96	1
NMTAP	43	144	0
NMSTR	43	192	0
NMSI_	43	192	0	96	48	4
NMSTR	43	192	7
NMSI_	43	192	7	96	48	5
BRTAP	43	288	0
BRTAP	43	288	7
EXTAP	44	0	0
EXTAP	44	0	7
NMTAP	44	96	0
NMTAP	44	96	1
NMTAP	44	144	0
NMSTR	44	144	1
NMSCR	44	144	1	96	96	6
NMTTP	44	240	3	B	0	M1
NMTTP	44	240	4	B	0	M1
NMTTP	44	240	4	E	0	M1
EXTAP	44	336	7
NMTAP	45	48	0
NMTAP	45	48	6
NMSTR	45	96	6
NMSCL	45	96	6	96	96	1
NMTAP	45	96	7
NMTTP	45	192	3	B	0	M1
NMTTP	45	192	4	B	0	M1
NMTTP	45	192	4	E	0	M1
EXTAP	45	288	0
NMTAP	45	336	0
NMSTR	46	0	0
NMSCR	46	0	0	96	96	4
NMSTR	46	96	4
NMSCR	46	96	4	96	96	0
NMSTR	46	192	0
NMSCR	46	192	0	96	96	4
NMSTR	46	288	4
NMSCR	46	288	4	96	96	0
NMSTR	47	0	0
NMSLR	47	0	0	96	96	5
NMTAP	47	96	4
NMTAP	47	144	5
CNSI_	47	192	5	0	48	1
NMTAP	47	192	6
BRTAP	47	240	7
BRTAP	47	288	7
EXSTR	48	0	6
NMSI_	48	0	6	96	48	3
EXTAP	48	0	7
NMTAP	48	96	0
NMTAP	48	96	6
NMSTR	48	144	1
NMSI_	48	144	1	96	48	4
NMTAP	48	240	0
NMTAP	48	240	1
EXSTR	48	336	5
NMSI_	48	336	5	96	48	0
NMTAP	49	48	3
NMTAP	49	48	5
NMSTR	49	96	2
NMSI_	49	96	2	96	48	7
NMTAP	49	192	2
NMTAP	49	192	3
NMTAP	49	288	6
NMTAP	49	336	5
NMSTR	50	0	4
NMSI_	50	0	4	96	48	0
NMHLD	50	96	1	144
NMTAP	50	96	4
NMTAP	50	192	7
NMSTR	50	240	7
NMSI_	50	240	7	96	48	3
NMSTR	50	336	0
NMSI_	50	336	0	96	48	2
NMTAP	51	48	5
NMTAP	51	96	6
NMTAP	51	144	7
NMSTR	51	192	0
NMSI_	51	192	0	96	48	2
NMSTR	51	192	7
NMSI_	51	192	7	96	48	3
BRTAP	51	288	0
BRTAP	51	288	7
EXTAP	52	0	1
EXTAP	52	0	6
NMTAP	52	96	4
NMTAP	52	96	5
NMTAP	52	144	4
NMSTR	52	144	5
NMSCR	52	144	5	96	96	2
NMTTP	52	240	0	B	0	M1
NMTTP	52	240	0	E	0	M1
NMTTP	52	240	7	B	0	M1
EXTAP	52	336	3
NMTAP	53	48	2
NMTAP	53	48	4
NMSTR	53	96	2
NMSCL	53	96	2	96	96	5
NMTAP	53	96	3
NMTTP	53	192	0	B	0	M1
NMTTP	53	192	0	E	0	M1
NMTTP	53	192	7	B	0	M1
EXSTR	53	288	4
NMSI_	53	288	4	96	48	7
NMTAP	53	336	4
NMSTR	54	0	0
NMSI_	54	0	0	96	48	4
NMTAP	54	48	0
NMSTR	54	96	6
NMSI_	54	96	6	96	48	2
NMTAP	54	144	6
NMSTR	54	192	7
NMSCR	54	192	7	96	48	3
NMTAP	54	240	7
NMSTR	54	288	5
NMSUL	54	288	5	96	192	2
NMTAP	54	336	5
BRTAP	55	288	1
NMHLD	56	0	2	432
NMHLD	56	0	4	432
NMTAP	57	96	1
NMTAP	57	96	3
NMTAP	57	192	2
NMTAP	57	192	4
NMTAP	57	288	3
NMTAP	57	288	5
NMHLD	58	0	4	96
NMHLD	58	0	6	96
NMHLD	58	144	3	96
NMHLD	58	144	5	96
NMTAP	58	336	2
NMTAP	58	336	4
NMTAP	59	48	5
NMTAP	59	96	3
NMTAP	59	96	5
NMTAP	59	144	2
NMTAP	59	192	2
NMTAP	59	192	4
NMTAP	59	288	1
NMTAP	59	288	6
NMTAP	60	0	6
NMHLD	60	0	7	96
NMTAP	60	96	6
NMHLD	60	144	0	96
NMTAP	60	192	6
NMTAP	60	288	6
NMTAP	60	288	7
NMHLD	60	336	0	96
NMTAP	61	0	5
NMTAP	61	96	5
NMHLD	61	96	7	48
NMTAP	61	192	0
NMTAP	61	192	5
NMTAP	61	240	1
NMTAP	61	288	2
NMTAP	61	288	5
NMTAP	62	0	6
NMTAP	62	0	7
NMTAP	62	96	0
NMTAP	62	96	7
NMTAP	62	192	0
NMTAP	62	192	1
NMSTR	62	240	0
NMSI_	62	240	0	96	48	4
NMTAP	62	240	1
NMTAP	62	336	2
NMTAP	63	48	1
NMSTR	63	96	1
NMSSL	63	96	1	96	96	5
NMTAP	63	192	6
NMTAP	64	0	4
NMSTR	64	0	5
NMSI_	64	0	5	96	48	0
BXTAP	64	96	1
NMSTR	64	192	2
NMSI_	64	192	2	96	48	7
NMTAP	64	192	3
NMTAP	64	288	6
NMSTR	65	0	5
NMSI_	65	0	5	96	48	1
NMSTR	65	96	2
NMSI_	65	96	2	96	48	6
NMSTR	65	192	4
NMSCR	65	192	4	96	48	7
NMTAP	65	288	1
NMHLD	65	336	1	240
NMTAP	66	48	0
NMSTR	66	96	0
NMSI_	66	96	0	96	48	4
NMTAP	66	288	5
NMHLD	66	336	6	192
NMSTR	67	48	7
NMSI_	67	48	7	96	48	3
NMTAP	67	240	2
NMHLD	67	288	1	96
NMSTR	67	288	5
NMSI_	67	288	5	96	48	1
NMTAP	68	96	0
NMTAP	68	144	0
NMTAP	68	144	7
NMTAP	68	240	6
NMTAP	68	240	7
NMTAP	68	288	5
NMTAP	68	336	4
NMTAP	69	0	3
NMTAP	69	0	4
NMTAP	69	48	2
NMTAP	69	96	1
NMTAP	69	144	0
NMTAP	69	144	1
NMTAP	69	240	0
NMTAP	69	288	7
NMTAP	69	336	6
NMSTR	70	0	6
NMSI_	70	0	6	96	48	2
NMTAP	70	96	7
NMSTR	70	192	1
NMSI_	70	192	1	96	48	5
NMTAP	70	288	0
NMSTR	70	336	0
NMSCL	70	336	0	96	96	4
NMTAP	71	48	3
NMTAP	71	96	3
NMTAP	71	144	2
NMTAP	71	192	1
NMSTR	71	288	6
NMSI_	71	288	6	96	48	4
NMSTR	71	288	7
NMSI_	71	288	7	96	48	1
EXTAP	72	96	2
EXTAP	72	96	3
NMTAP	72	144	5
NMTAP	72	168	4
NMTAP	72	192	5
NMTTP	72	240	3	B	0	M1
NMTTP	72	288	6	B	0	M1
NMTTP	72	336	1	B	0	M1
NMTTP	72	336	1	E	0	M1
NMTAP	73	48	4
NMTAP	73	72	3
NMTAP	73	96	4
NMTAP	73	144	2
NMTAP	73	168	3
NMTAP	73	192	2
NMTTP	73	240	4	B	0	M1
NMTTP	73	288	1	B	0	M1
NMTTP	73	336	6	B	0	M1
NMTTP	73	336	7	E	0	M1
NMTAP	74	48	2
NMTAP	74	72	3
NMTAP	74	96	2
NMTAP	74	144	5
NMTAP	74	168	4
NMTAP	74	192	5
NMTAP	74	240	2
NMTAP	74	264	3
NMTAP	74	288	2
NMTAP	74	336	1
NMTAP	74	336	4
NMTTP	75	0	2	B	0	M1
NMTTP	75	48	4	B	0	M1
NMTTP	75	96	0	B	0	M1
NMTTP	75	144	6	B	0	M1
NMTTP	75	192	0	E	0	M1
NMTTP	75	192	0	D	0	M1
NMTTP	75	240	7	E	0	M1
NMTTP	75	240	7	D	0	M1
EXTAP	75	288	1
EXTAP	75	288	5
NMTAP	76	0	2
NMTAP	76	48	3
NMTAP	76	96	4
NMSTR	76	192	6
NMSI_	76	192	6	96	96	0
NMTAP	76	288	0
CNSI_	77	0	0	0	96	4
NMHLD	77	0	3	192
CNSI_	77	96	4	0	96	2
NMTAP	77	288	4
NMTAP	77	288	5
NMTAP	78	0	6
NMTAP	78	48	7
NMTAP	78	96	0
NMSTR	78	192	2
NMSI_	78	192	2	96	96	4
NMTAP	78	288	4
CNSI_	79	0	4	0	120	0
NMSTR	79	0	5
NMSUR	79	0	5	96	96	1
CNSI_	79	120	0	0	72	6
NMSTR	79	288	0
NMSF_	79	288	0	96	768	4
BRTAP	80	0	0
NMTAP	84	0	4
NMHLD	84	0	5	288
NMTAP	84	96	4
NMTAP	84	192	4
NMTAP	84	288	4
NMTAP	85	0	3
NMHLD	85	0	4	288
NMTAP	85	96	3
NMTAP	85	192	3
NMTAP	85	288	3
NMTHO	86	0	0	336	C	0	M1
NMTAP	86	0	2
NMTAP	86	96	2
NMTAP	86	192	2
NMTAP	86	288	2
BXTAP	87	288	1
EXTAP	87	300	2
EXTAP	87	312	3
EXTAP	87	324	4
EXTAP	87	336	5
EXTAP	87	348	6
EXTAP	87	360	7
EXTAP	87	372	0
EXSTR	88	0	1
NMSI_	88	0	1	96	48	4
NMTAP	88	96	1
NMTAP	88	96	7
NMSTR	88	144	6
NMSI_	88	144	6	96	48	3
NMTAP	88	240	6
NMTAP	88	240	7
EXSTR	88	336	2
NMSI_	88	336	2	96	48	7
NMTAP	89	48	2
NMTAP	89	48	4
NMSTR	89	96	5
NMSI_	89	96	5	96	48	0
NMTAP	89	192	4
NMTAP	89	192	5
NMTAP	89	288	1
NMTAP	89	336	2
NMSTR	90	0	3
NMSI_	90	0	3	96	48	7
NMTAP	90	96	3
NMHLD	90	96	6	144
NMTAP	90	192	0
NMSTR	90	240	0
NMSUL	90	240	0	96	48	4
NMSTR	90	336	7
NMSCL	90	336	7	96	48	5
NMTAP	91	48	2
NMTAP	91	96	1
NMTAP	91	144	0
NMSTR	91	192	0
NMSUL	91	192	0	96	48	4
NMSTR	91	192	7
NMSCL	91	192	7	96	48	5
BRTAP	91	288	0
BRTAP	91	288	7
EXTAP	92	0	0
EXTAP	92	0	7
NMTAP	92	96	0
NMTAP	92	96	1
NMTAP	92	144	0
NMSTR	92	144	1
NMSCR	92	144	1	96	96	6
NMTTP	92	240	3	B	0	M1
NMTTP	92	240	4	B	0	M1
NMTTP	92	240	4	E	0	M1
EXTAP	92	336	7
NMTAP	93	48	0
NMTAP	93	48	6
NMSTR	93	96	6
NMSCL	93	96	6	96	96	1
NMTAP	93	96	7
NMTTP	93	192	3	B	0	M1
NMTTP	93	192	4	B	0	M1
NMTTP	93	192	4	E	0	M1
EXTAP	93	288	0
NMTAP	93	336	0
NMSTR	94	0	0
NMSCR	94	0	0	96	96	4
NMSTR	94	96	4
NMSCR	94	96	4	96	96	0
NMSTR	94	192	0
NMSCR	94	192	0	96	96	4
NMSTR	94	288	4
NMSCR	94	288	4	96	96	0
NMSTR	95	0	0
NMSLR	95	0	0	96	96	5
NMTAP	95	96	4
NMTAP	95	144	5
CNSI_	95	192	5	0	48	1
NMTAP	95	192	6
BRTAP	95	240	7
BRTAP	95	288	7
EXSTR	96	0	6
NMSI_	96	0	6	96	48	3
EXTAP	96	0	7
NMTAP	96	96	0
NMTAP	96	96	6
NMSTR	96	144	1
NMSI_	96	144	1	96	48	4
NMTAP	96	240	0
NMTAP	96	240	1
EXSTR	96	336	5
NMSI_	96	336	5	96	48	0
NMTAP	97	48	3
NMTAP	97	48	5
NMSTR	97	96	2
NMSI_	97	96	2	96	48	7
NMTAP	97	192	2
NMTAP	97	192	3
NMTAP	97	288	6
NMTAP	97	336	5
NMSTR	98	0	4
NMSI_	98	0	4	96	48	0
NMHLD	98	96	1	144
NMTAP	98	96	4
NMTAP	98	192	7
NMSTR	98	240	7
NMSUR	98	240	7	96	48	3
NMSTR	98	336	0
NMSCR	98	336	0	96	48	2
NMTAP	99	48	5
NMTAP	99	96	6
NMTAP	99	144	7
NMSTR	99	192	0
NMSCR	99	192	0	96	48	2
NMSTR	99	192	7
NMSUR	99	192	7	96	48	3
BRTAP	99	288	0
BRTAP	99	288	7
EXTAP	100	0	1
EXTAP	100	0	6
NMTAP	100	96	4
NMTAP	100	96	5
NMTAP	100	144	4
NMSTR	100	144	5
NMSCR	100	144	5	96	96	2
NMTTP	100	240	0	B	0	M1
NMTTP	100	240	0	E	0	M1
NMTTP	100	240	7	B	0	M1
EXTAP	100	336	3
NMTAP	101	48	2
NMTAP	101	48	4
NMSTR	101	96	2
NMSCL	101	96	2	96	96	5
NMTAP	101	96	3
NMTTP	101	192	0	B	0	M1
NMTTP	101	192	0	E	0	M1
NMTTP	101	192	7	B	0	M1
EXSTR	101	288	4
NMSI_	101	288	4	96	48	7
NMTAP	101	336	4
NMSTR	102	0	0
NMSI_	102	0	0	96	48	4
NMTAP	102	48	0
NMSTR	102	96	6
NMSI_	102	96	6	96	48	2
NMTAP	102	144	6
NMSTR	102	192	7
NMSCR	102	192	7	96	48	3
NMTAP	102	240	7
NMSTR	102	288	5
NMSXL	102	288	5	96	192	1
NMTAP	102	336	5
NMTAP	103	48	3
NMTAP	103	96	3
NMTAP	103	144	3
NMTAP	103	192	3
BRTAP	103	288	0
BRTAP	103	288	7
EXSTR	104	0	4
NMSI_	104	0	4	96	48	0
EXTAP	104	0	5
NMTAP	104	96	3
NMTAP	104	96	4
NMSTR	104	144	2
NMSI_	104	144	2	96	48	6
NMTAP	104	240	2
NMTAP	104	240	3
EXTAP	104	336	5
EXSTR	104	336	7
NMSI_	104	336	7	96	48	3
NMTAP	105	48	0
NMTAP	105	48	7
NMSTR	105	96	1
NMSCL	105	96	1	96	96	3
NMTTP	105	192	0	C	1	M1
NMHLD	106	0	1	672
NMSTR	106	0	7
NMSUR	106	0	7	96	48	3
NMSTR	106	192	4
NMSCR	106	192	4	96	48	7
NMSTR	107	0	0
NMSI_	107	0	0	96	48	6
NMSTR	107	96	0
NMSI_	107	96	0	96	48	2
NMSTR	107	192	0
NMSI_	107	192	0	96	48	4
NMTAP	107	288	0
EXSTR	108	0	3
NMSI_	108	0	3	96	48	7
NMTAP	108	96	3
NMTAP	108	96	6
NMSTR	108	144	5
NMSI_	108	144	5	96	48	1
NMTAP	108	240	4
NMTAP	108	240	5
EXSTR	108	336	0
NMSI_	108	336	0	96	48	4
EXTAP	108	336	2
NMTAP	109	48	0
NMTAP	109	48	7
NMSTR	109	96	6
NMSCR	109	96	6	96	96	4
NMTTP	109	192	0	C	1	M1
NMSTR	110	0	0
NMSUL	110	0	0	96	48	4
NMHLD	110	0	6	672
NMSTR	110	192	3
NMSCL	110	192	3	96	48	0
NMSTR	111	0	7
NMSI_	111	0	7	96	48	1
NMSTR	111	96	7
NMSI_	111	96	7	96	48	5
NMSTR	111	192	7
BRSI_	111	192	7	96	48	3
BXTAP	111	288	7
EXSTR	112	0	2
NMSI_	112	0	2	96	48	7
NMSTR	112	96	6
NMSI_	112	96	6	96	48	3
NMSTR	112	192	1
NMSI_	112	192	1	96	48	6
NMSTR	112	288	5
NMSI_	112	288	5	96	48	2
NMSTR	113	0	0
NMSI_	113	0	0	96	48	5
NMSTR	113	96	4
NMSI_	113	96	4	96	48	1
NMTAP	113	192	7
NMTAP	113	240	0
NMTAP	113	288	1
NMTAP	113	336	2
NMTAP	114	0	3
EXSTR	114	0	5
NMSI_	114	0	5	96	48	0
NMSTR	114	96	1
NMSI_	114	96	1	96	48	4
NMSTR	114	192	6
NMSI_	114	192	6	96	48	1
NMSTR	114	288	2
NMSI_	114	288	2	96	48	5
NMSTR	115	0	7
NMSI_	115	0	7	96	48	2
NMSTR	115	96	3
NMSI_	115	96	3	96	48	6
NMSTR	115	192	0
BRSCR	115	192	0	96	48	3
NMTAP	115	288	0
NMTAP	115	288	7
EXSTR	116	0	6
NMSI_	116	0	6	96	48	3
NMTAP	116	48	6
NMSTR	116	96	7
NMSI_	116	96	7	96	48	2
NMTAP	116	144	7
NMSTR	116	192	5
NMSI_	116	192	5	96	48	0
NMTAP	116	240	5
NMSTR	116	288	4
NMSI_	116	288	4	96	48	1
NMTAP	116	336	4
NMSTR	117	0	6
NMSI_	117	0	6	96	48	1
NMTAP	117	48	6
NMSTR	117	96	2
NMSI_	117	96	2	96	48	5
NMTAP	117	144	2
NMTAP	117	192	7
BRTAP	117	288	1
BRTAP	117	288	6
NMSTR	118	0	5
NMSI_	118	0	5	96	48	7
NMSTR	118	48	7
NMSV_	118	48	7	96	96	0
NMSTR	118	144	0
NMSI_	118	144	0	96	48	2
NMTAP	118	240	2
NMTAP	118	288	3
NMTAP	118	336	3
NMTAP	118	336	4

T_REC_TAP	400
T_REC_BRK	24
T_REC_XTP	39
T_REC_BXX	6
T_REC_HLD	60
T_REC_XHO	0
T_REC_BHO	0
T_REC_BXH	0
T_REC_STR	121
T_REC_BST	0
T_REC_XST	20
T_REC_XBS	0
T_REC_TTP	54
T_REC_THO	2
T_REC_SLD	139
T_REC_BSL	2
T_REC_ALL	867
T_NUM_TAP	634
T_NUM_BRK	32
T_NUM_HLD	62
T_NUM_SLD	139
T_NUM_ALL	867
T_JUDGE_TAP	664
T_JUDGE_HLD	225
T_JUDGE_SLD	141
T_JUDGE_ALL	1030
TTM_EACHPAIRS	156
TTM_SCR_TAP	317000
TTM_SCR_BRK	83200
TTM_SCR_HLD	62000
TTM_SCR_SLD	208500
TTM_SCR_ALL	670700
TTM_SCR_S	647500
TTM_SCR_SS	667500
TTM_RAT_ACV	10047

