VERSION	0.00.00	1.04.00
FES_MODE	0
BPM_DEF	190.000	190.000	190.000	190.000
MET_DEF	4	4
RESOLUTION	384
CLK_DEF	384
COMPATIBLE_CODE	MA2

BPM	0	0	190.000
MET	0	0	4	4

NMHLD	1	0	3	672
NMHLD	1	0	4	1056
EXTAP	3	288	3
NMHLD	4	0	2	96
NMTAP	4	96	3
NMHLD	4	192	5	96
NMTAP	4	288	4
NMHLD	5	0	2	96
NMTAP	5	96	3
NMTAP	5	192	5
NMTAP	5	288	4
NMTAP	5	288	6
NMHLD	6	0	5	96
NMTAP	6	96	4
NMHLD	6	192	2	96
NMTAP	6	288	3
NMHLD	7	0	5	96
NMTAP	7	96	4
NMTAP	7	192	2
NMTAP	7	288	2
NMTAP	7	288	4
NMHLD	8	0	1	96
NMTAP	8	96	3
NMHLD	8	192	6	96
NMTAP	8	288	4
NMHLD	9	0	1	96
NMTAP	9	96	3
NMTAP	9	192	5
NMTAP	9	288	4
NMTAP	9	288	5
NMHLD	10	0	6	96
NMTAP	10	96	4
NMHLD	10	192	1	96
NMTAP	10	288	3
NMHLD	11	0	6	96
NMTAP	11	96	4
NMTAP	11	192	3
NMTAP	11	192	5
NMHLD	12	0	2	96
NMHLD	12	0	4	96
NMHLD	12	144	1	432
NMHLD	12	144	5	432
NMHLD	14	0	2	96
NMHLD	14	0	4	96
NMHLD	14	144	1	192
NMTAP	14	144	5
NMTAP	14	336	3
NMTAP	15	48	4
NMTAP	15	96	4
NMTAP	15	192	3
NMTAP	15	192	5
NMTAP	15	288	3
NMTAP	15	288	5
NMHLD	16	0	3	96
NMHLD	16	0	5	96
NMHLD	16	144	2	432
NMHLD	16	144	6	432
NMHLD	18	0	3	96
NMHLD	18	0	5	96
NMTAP	18	144	2
NMHLD	18	144	6	192
NMTAP	18	336	4
NMTAP	19	48	3
NMTAP	19	96	3
NMTAP	19	192	2
NMTAP	19	192	4
NMHLD	20	0	1	384
NMTAP	20	96	3
NMTAP	20	192	3
NMTAP	20	288	3
NMTAP	21	0	4
NMTAP	21	96	4
NMTAP	21	192	3
NMTAP	21	288	4
NMHLD	22	0	6	384
NMTAP	22	96	4
NMTAP	22	192	4
NMTAP	22	288	4
NMTAP	23	0	3
NMTAP	23	96	3
NMTAP	23	192	2
NMTAP	23	192	5
NMTAP	24	0	0
NMTAP	24	0	7
BXTAP	24	96	0
BXTAP	24	96	7
NMTAP	24	192	1
NMTAP	24	288	2
NMTAP	24	288	3
NMTAP	25	0	4
NMTAP	25	96	3
NMTAP	25	96	5
NMHLD	25	192	6	96
NMTAP	25	288	4
NMTAP	26	0	4
NMTAP	26	0	6
NMTAP	26	96	7
NMTAP	26	192	5
NMTAP	26	288	4
NMTAP	27	0	3
NMTAP	27	96	2
NMHLD	27	192	1	96
NMTAP	27	288	3
NMTAP	28	0	1
NMTAP	28	0	3
NMTAP	28	96	2
NMHLD	28	192	2	96
NMHLD	28	288	0	96
NMHLD	29	0	7	96
NMHLD	29	96	5	96
NMTAP	29	192	2
NMSTR	29	288	3
NMSI_	29	288	3	96	96	0
NMSTR	29	288	4
NMSI_	29	288	4	96	96	7
EXTAP	30	336	0
EXTAP	30	336	7
NMTAP	31	192	2
NMTAP	31	192	5
NMTAP	31	288	3
NMTAP	31	288	4
NMTAP	32	0	3
NMTAP	32	0	4
NMTTP	32	96	4	E	0	M1
NMTTP	32	192	5	E	0	M1
NMTTP	32	288	6	E	0	M1
NMTTP	33	0	7	E	0	M1
NMTTP	33	96	0	E	0	M1
NMTTP	33	192	1	E	0	M1
NMTTP	33	288	2	E	0	M1
NMTTP	34	0	3	E	0	M1
NMTTP	34	96	4	E	0	M1
NMTTP	34	192	5	E	0	M1
NMTTP	34	288	6	E	0	M1
NMTTP	35	0	7	E	0	M1
NMTTP	35	96	0	E	0	M1
NMTTP	35	192	1	E	0	M1
NMTTP	35	288	0	C	0	M1
NMTTP	35	288	2	B	0	M1
NMTTP	35	288	5	B	0	M1
NMSTR	36	0	0
NMSI_	36	0	0	96	96	3
NMSTR	36	192	7
NMSI_	36	192	7	96	96	4
NMTAP	37	0	3
NMTAP	37	96	3
NMHLD	37	192	3	96
NMHLD	37	192	4	96
NMSTR	38	0	4
NMSI_	38	0	4	96	96	7
NMSTR	38	192	3
NMSI_	38	192	3	96	96	0
NMHLD	39	0	7	192
BRTAP	39	288	0
BRTAP	39	288	7
NMTAP	40	0	1
NMTAP	40	0	3
NMTAP	40	96	3
NMTAP	40	96	4
NMTAP	40	192	4
NMTAP	40	192	6
NMTAP	40	288	0
NMTAP	40	288	7
NMTAP	41	0	2
NMTAP	41	0	4
NMTAP	41	96	3
NMTAP	41	96	5
BXTAP	41	192	2
BXTAP	41	192	6
NMTAP	41	288	1
NMTAP	41	336	1
NMTAP	42	0	0
NMTAP	42	96	6
NMTAP	42	144	6
NMTAP	42	192	7
NMTAP	42	288	4
NMTAP	42	288	5
NMTAP	43	0	2
NMTAP	43	0	3
NMTAP	43	96	0
NMTAP	43	96	1
NMTAP	43	192	7
BRTAP	43	288	0
BRTAP	43	288	6
NMTAP	44	0	4
NMTAP	44	0	5
NMTAP	44	96	2
NMTAP	44	96	3
NMTAP	44	192	4
NMTAP	44	192	6
NMTAP	44	288	1
NMTAP	44	288	3
NMTAP	45	0	4
NMTAP	45	0	5
NMTAP	45	96	2
NMSTR	45	96	3
NMSUR	45	96	3	96	96	7
NMTAP	45	288	0
NMTAP	45	336	0
NMTAP	46	0	7
NMHLD	46	96	1	96
NMHLD	46	192	3	96
NMHLD	46	288	4	96
NMTAP	47	0	6
NMSTR	47	96	1
BRSCR	47	96	1	96	96	4
NMSTR	47	96	5
BRSCR	47	96	5	96	96	0
NMTAP	48	0	4
NMTAP	48	0	6
NMTAP	48	96	3
NMTAP	48	96	4
NMTAP	48	192	1
NMTAP	48	192	3
NMTAP	48	288	0
NMTAP	48	288	7
NMTAP	49	0	3
NMTAP	49	0	5
NMTAP	49	96	2
NMTAP	49	96	4
BXTAP	49	192	1
BXTAP	49	192	5
NMTAP	49	288	6
NMTAP	49	336	6
NMTAP	50	0	7
NMTAP	50	96	1
NMTAP	50	144	1
NMTAP	50	192	0
NMTAP	50	288	2
NMTAP	50	288	3
NMTAP	51	0	4
NMTAP	51	0	5
NMTAP	51	96	6
NMTAP	51	96	7
NMTAP	51	192	0
BRTAP	51	288	1
BRTAP	51	288	7
NMHLD	52	0	6	96
NMHLD	52	96	4	96
NMHLD	52	192	3	96
NMTAP	52	288	1
NMSTR	53	0	7
NMSI_	53	0	7	96	96	4
NMSTR	53	96	0
NMSI_	53	96	0	96	96	3
EXTAP	53	288	7
NMTAP	54	0	4
NMTAP	54	0	6
NMTAP	54	96	0
NMTAP	54	96	1
NMTAP	54	192	6
NMTAP	54	192	7
NMTAP	54	288	1
NMSTR	54	288	3
NMSUR	54	288	3	96	192	4
NMHLD	56	0	3	96
NMHLD	56	0	5	96
NMHLD	56	144	2	96
NMHLD	56	144	6	96
NMTAP	56	336	2
NMTAP	56	336	6
NMTAP	57	96	5
NMTAP	57	192	4
NMTAP	57	288	3
NMHLD	58	0	2	96
NMHLD	58	0	4	96
NMHLD	58	144	1	96
NMHLD	58	144	5	96
NMTAP	58	336	1
NMTAP	58	336	5
NMTAP	59	96	2
NMTAP	59	192	3
NMTAP	59	288	4
NMTAP	60	0	3
NMTAP	60	0	5
NMTAP	60	96	3
NMTAP	60	96	5
NMTAP	60	192	6
NMTAP	60	288	7
NMTAP	61	0	0
NMTAP	61	0	1
NMTAP	61	96	0
NMTAP	61	96	1
NMTAP	61	192	2
NMTAP	61	288	3
NMTAP	62	0	2
NMTAP	62	0	4
NMTAP	62	96	2
NMTAP	62	96	4
NMTAP	62	192	1
NMSTR	62	288	0
NMSUL	62	288	0	96	192	7
NMHLD	64	0	0	96
NMHLD	64	0	6	96
NMHLD	64	192	1	96
NMHLD	64	192	7	96
NMTAP	65	0	3
NMTAP	65	0	5
NMTAP	65	96	3
NMTAP	65	96	5
NMTAP	65	192	2
NMTAP	65	192	4
NMTAP	65	288	2
NMTAP	65	288	4
NMTAP	66	0	5
NMTAP	66	96	5
NMTAP	66	192	3
NMTAP	66	192	4
NMTAP	66	288	2
NMTAP	67	0	1
NMSTR	67	96	0
NMSI_	67	96	0	96	96	4
NMSTR	67	96	7
NMSI_	67	96	7	96	96	3
NMTAP	68	0	2
NMTAP	68	0	5
NMTAP	68	96	3
NMTAP	68	96	4
NMHLD	68	192	5	96
NMHLD	68	288	7	96
NMHLD	69	0	0	96
NMHLD	69	96	2	96
NMTAP	69	192	5
NMHLD	69	288	6	96
NMTAP	70	0	7
NMHLD	70	96	1	96
NMTAP	70	192	0
NMTAP	70	288	7
NMTAP	70	336	7
NMTAP	71	0	0
NMTAP	71	96	1
NMTAP	71	96	6
NMTAP	71	192	2
NMTAP	71	192	5
NMTAP	71	288	3
NMTAP	71	288	4
NMTAP	72	0	3
NMTAP	72	0	4
NMTTP	72	96	4	E	1	M1
NMTTP	72	192	3	E	0	M1
NMTTP	72	288	2	E	0	M1
NMTTP	73	0	1	E	0	M1
NMTTP	73	96	0	E	0	M1
NMTTP	73	192	7	E	0	M1
NMTTP	73	288	6	E	0	M1
NMTTP	74	0	5	E	0	M1
NMTTP	74	96	4	E	0	M1
NMTTP	74	192	3	E	0	M1
NMTTP	74	288	2	E	0	M1
NMTTP	75	0	1	E	0	M1
NMTTP	75	96	0	E	0	M1
NMTTP	75	192	7	E	0	M1
NMTTP	75	288	0	C	0	M1
NMTTP	75	288	2	B	0	M1
NMTTP	75	288	5	B	0	M1
NMSTR	76	0	7
NMSI_	76	0	7	96	96	4
NMSTR	76	192	0
NMSI_	76	192	0	96	96	3
NMTAP	77	0	4
NMTAP	77	96	4
NMTAP	77	192	3
NMHLD	77	192	4	96
NMTAP	77	288	3
NMSTR	78	0	3
NMSI_	78	0	3	96	96	0
NMSTR	78	192	4
NMSI_	78	192	4	96	96	7
NMHLD	79	0	0	192
NMTHO	79	192	0	192	C	1	M1
NMTTP	80	0	0	E	0	M1
NMTTP	80	0	0	A	0	M1
NMTTP	80	0	7	A	0	M1
NMSTR	82	0	6
NMSCL	82	0	6	96	144	3
NMSTR	83	0	1
NMSCR	83	0	1	96	144	4
NMTAP	84	0	5
NMTAP	84	96	5
NMTAP	84	192	5
NMTAP	84	288	5
NMTAP	85	0	0
NMTAP	85	96	0
NMTAP	85	192	0
NMTAP	85	288	0
NMTAP	86	0	0
NMTAP	86	0	7
NMTAP	86	96	0
NMTAP	86	96	7
NMTAP	86	192	0
NMTAP	86	192	7
NMHLD	86	288	0	288
NMHLD	86	288	7	288
BRTAP	87	288	0
BRTAP	87	288	7
NMTAP	88	0	4
NMTAP	88	0	6
NMTAP	88	96	3
NMTAP	88	96	4
NMTAP	88	192	1
NMTAP	88	192	3
NMTAP	88	288	0
NMTAP	88	288	7
NMTAP	89	0	3
NMTAP	89	0	5
NMTAP	89	96	2
NMTAP	89	96	4
BXTAP	89	192	1
BXTAP	89	192	5
NMTAP	89	288	6
NMTAP	89	336	6
NMTAP	90	0	7
NMTAP	90	96	1
NMTAP	90	144	1
NMTAP	90	192	0
NMTAP	90	288	2
NMTAP	90	288	3
NMTAP	91	0	4
NMTAP	91	0	5
NMTAP	91	96	6
NMTAP	91	96	7
NMTAP	91	192	0
BRTAP	91	288	1
BRTAP	91	288	7
NMTAP	92	0	2
NMTAP	92	0	3
NMTAP	92	96	4
NMTAP	92	96	5
NMTAP	92	192	1
NMTAP	92	192	3
NMTAP	92	288	4
NMTAP	92	288	6
NMTAP	93	0	2
NMTAP	93	0	3
NMSTR	93	96	4
NMSUL	93	96	4	96	96	0
NMTAP	93	96	5
NMTAP	93	288	7
NMTAP	93	336	7
NMTAP	94	0	0
NMHLD	94	96	6	96
NMHLD	94	192	4	96
NMHLD	94	288	3	96
NMTAP	95	0	1
NMSTR	95	96	2
BRSCL	95	96	2	96	96	7
NMSTR	95	96	6
BRSCL	95	96	6	96	96	3
NMTAP	96	0	1
NMTAP	96	0	3
NMTAP	96	96	3
NMTAP	96	96	4
NMTAP	96	192	4
NMTAP	96	192	6
NMTAP	96	288	0
NMTAP	96	288	7
NMTAP	97	0	2
NMTAP	97	0	4
NMTAP	97	96	3
NMTAP	97	96	5
BXTAP	97	192	2
BXTAP	97	192	6
NMTAP	97	288	1
NMTAP	97	336	1
NMTAP	98	0	0
NMTAP	98	96	6
NMTAP	98	144	6
NMTAP	98	192	7
NMTAP	98	288	4
NMTAP	98	288	5
NMTAP	99	0	2
NMTAP	99	0	3
NMTAP	99	96	0
NMTAP	99	96	1
NMTAP	99	192	7
BRTAP	99	288	0
BRTAP	99	288	6
NMHLD	100	0	1	96
NMHLD	100	96	3	96
NMHLD	100	192	4	96
NMTAP	100	288	6
NMSTR	101	0	0
NMSI_	101	0	0	96	96	3
NMSTR	101	96	7
NMSI_	101	96	7	96	96	4
EXTAP	101	288	0
NMTAP	102	0	1
NMTAP	102	0	3
NMTAP	102	96	6
NMTAP	102	96	7
NMTAP	102	192	0
NMTAP	102	192	1
NMTAP	102	288	4
NMTAP	102	288	6
NMTAP	103	0	2
NMTAP	103	0	3
NMSTR	103	96	4
NMSI_	103	96	4	96	96	1
NMSTR	103	96	5
NMSI_	103	96	5	96	96	0
NMTAP	104	0	0
NMTAP	104	96	1
NMTAP	104	96	7
NMTAP	104	192	6
NMTAP	104	288	5
NMTAP	104	288	7
NMTAP	105	0	0
NMTAP	105	96	1
NMTAP	105	96	3
NMHLD	105	192	0	768
NMTAP	105	192	4
NMTAP	106	0	3
NMTAP	106	96	3
NMTAP	106	192	5
NMTAP	106	288	5
NMTAP	107	0	2
NMTAP	107	96	2
NMTAP	107	192	4
NMTAP	107	288	4
NMTAP	108	0	7
NMTAP	108	96	0
NMTAP	108	96	6
NMTAP	108	192	1
NMTAP	108	288	0
NMTAP	108	288	2
NMTAP	109	0	7
NMTAP	109	96	4
NMTAP	109	96	6
NMTAP	109	192	3
NMHLD	109	192	7	768
NMTAP	110	0	4
NMTAP	110	96	4
NMTAP	110	192	2
NMTAP	110	288	2
NMTAP	111	0	5
NMTAP	111	96	5
NMTAP	111	192	3
NMTAP	111	288	3
NMTAP	112	0	2
NMTAP	112	96	1
NMTAP	112	96	3
NMTAP	112	192	0
NMTAP	112	240	0
NMTAP	112	288	7
NMTAP	113	0	6
NMTAP	113	96	6
NMTAP	113	96	7
NMTAP	113	192	5
NMTAP	113	288	3
NMTAP	113	288	4
NMTAP	114	0	5
NMTAP	114	96	4
NMTAP	114	96	6
NMTAP	114	192	7
NMTAP	114	240	7
NMTAP	114	288	0
NMTAP	115	0	1
NMTAP	115	96	0
NMTAP	115	96	1
NMTAP	115	192	2
NMTAP	115	288	3
NMTAP	115	288	4
NMTAP	116	0	2
NMTAP	116	96	1
NMTAP	116	96	3
NMTAP	116	192	0
NMTAP	116	240	0
NMTAP	116	288	7
NMTAP	117	0	6
NMTAP	117	96	6
NMTAP	117	96	7
NMTAP	117	192	5
NMTAP	117	288	3
NMTAP	117	288	4
NMTAP	118	0	2
NMTAP	118	96	0
NMTAP	118	96	1
NMSTR	118	192	0
BRSI_	118	192	0	96	96	4
NMSTR	118	192	1
BRSI_	118	192	1	96	96	5

T_REC_TAP	381
T_REC_BRK	12
T_REC_XTP	5
T_REC_BXX	10
T_REC_HLD	75
T_REC_XHO	0
T_REC_BHO	0
T_REC_BXH	0
T_REC_STR	30
T_REC_BST	0
T_REC_XST	0
T_REC_XBS	0
T_REC_TTP	37
T_REC_THO	1
T_REC_SLD	24
T_REC_BSL	6
T_REC_ALL	581
T_NUM_TAP	453
T_NUM_BRK	28
T_NUM_HLD	76
T_NUM_SLD	24
T_NUM_ALL	581
T_JUDGE_TAP	475
T_JUDGE_HLD	270
T_JUDGE_SLD	30
T_JUDGE_ALL	775
TTM_EACHPAIRS	149
TTM_SCR_TAP	226500
TTM_SCR_BRK	72800
TTM_SCR_HLD	76000
TTM_SCR_SLD	36000
TTM_SCR_ALL	411300
TTM_SCR_S	396250
TTM_SCR_SS	408500
TTM_RAT_ACV	10068

