VERSION	0.00.00	1.04.00
FES_MODE	0
BPM_DEF	190.000	190.000	190.000	190.000
MET_DEF	4	4
RESOLUTION	384
CLK_DEF	384
COMPATIBLE_CODE	MA2

BPM	0	0	190.000
MET	0	0	4	4

NMTHO	1	0	0	768	C	1	L1
NMTAP	4	0	1
NMTAP	4	192	1
NMTAP	5	0	2
NMTAP	5	192	2
NMTAP	6	0	3
NMTAP	6	192	3
NMTAP	7	0	4
NMTAP	7	192	4
NMTAP	7	192	5
NMTAP	8	0	6
NMTAP	8	192	6
NMTAP	9	0	5
NMTAP	9	192	5
NMTAP	10	0	4
NMTAP	10	192	4
NMTAP	11	0	3
NMTAP	11	192	2
NMTAP	11	192	3
EXTAP	12	0	2
EXTAP	12	0	3
EXHLD	12	144	2	432
EXHLD	12	144	3	432
EXTAP	14	0	3
EXTAP	14	0	4
EXHLD	14	144	3	192
EXHLD	14	144	4	192
NMTAP	15	192	4
NMTAP	15	192	5
EXTAP	16	0	4
EXTAP	16	0	5
EXHLD	16	144	4	432
EXHLD	16	144	5	432
EXTAP	18	0	3
EXTAP	18	0	4
EXHLD	18	144	3	192
EXHLD	18	144	4	192
NMTAP	19	192	2
NMTAP	19	192	3
NMTAP	20	0	1
NMTAP	20	96	1
NMTAP	20	192	1
NMTAP	21	0	1
NMTAP	21	96	1
NMTAP	21	192	0
NMTAP	21	192	1
NMTAP	22	0	6
NMTAP	22	96	6
NMTAP	22	192	6
NMTAP	23	0	6
NMTAP	23	96	6
NMTAP	23	192	6
NMTAP	23	192	7
NMTAP	24	0	6
NMTAP	24	96	6
NMTAP	24	192	5
NMTAP	24	288	5
NMTAP	25	0	4
NMTAP	25	192	2
NMTAP	25	192	3
NMTAP	26	0	1
NMTAP	26	96	1
NMTAP	26	192	2
NMTAP	26	288	2
NMTAP	27	0	3
NMTAP	27	192	4
NMTAP	27	192	5
NMTAP	28	0	6
NMTAP	28	96	6
NMTAP	28	192	5
NMTAP	28	288	5
NMTAP	29	0	4
NMTAP	29	192	2
NMTAP	29	192	3
NMHLD	30	0	4	192
NMHLD	30	0	5	192
NMTAP	31	0	2
NMTAP	31	0	3
NMTAP	31	96	2
NMTAP	31	96	3
NMTAP	31	192	2
NMTAP	31	192	3
NMTTP	32	0	1	B	0	L1
NMTTP	32	192	2	B	0	L1
NMTTP	33	0	3	B	0	L1
NMTTP	33	192	4	B	0	L1
NMTTP	34	0	5	B	0	L1
NMTTP	34	192	6	B	0	L1
NMTTP	35	0	0	C	0	L1
NMTTP	36	0	1	B	0	L1
NMTTP	36	96	2	B	0	L1
NMTTP	36	192	3	B	0	L1
NMTTP	37	0	6	B	0	L1
NMTTP	37	96	5	B	0	L1
NMTTP	37	192	4	B	0	L1
NMTTP	38	0	1	E	0	L1
NMTTP	38	96	2	E	0	L1
NMTTP	38	192	3	E	0	L1
NMTTP	39	0	0	C	0	L1
NMTAP	40	0	1
NMTAP	40	96	1
NMTAP	40	192	2
NMTAP	40	288	2
NMTAP	41	0	3
NMTAP	41	96	3
NMTAP	41	192	4
NMTAP	41	192	5
NMTAP	42	0	6
NMTAP	42	96	6
NMTAP	42	192	5
NMTAP	42	288	5
NMTAP	43	0	4
NMTAP	43	96	4
NMTAP	43	192	2
NMTAP	43	192	3
NMTAP	44	0	1
NMTAP	44	96	1
NMTAP	44	192	2
NMTAP	44	288	2
NMTAP	45	0	3
NMTAP	45	96	3
NMTAP	45	192	4
NMTAP	45	288	4
NMTAP	46	0	5
NMTAP	46	96	5
NMTAP	46	192	6
NMTAP	46	288	6
EXTAP	47	0	7
EXTAP	47	96	7
EXTAP	47	192	0
EXTAP	47	192	7
NMTAP	48	0	6
NMTAP	48	96	6
NMTAP	48	192	5
NMTAP	48	288	5
NMTAP	49	0	4
NMTAP	49	96	4
NMTAP	49	192	2
NMTAP	49	192	3
NMTAP	50	0	1
NMTAP	50	96	1
NMTAP	50	192	2
NMTAP	50	288	2
NMTAP	51	0	3
NMTAP	51	96	3
NMTAP	51	192	4
NMTAP	51	192	5
NMTAP	52	0	6
NMTAP	52	96	6
NMTAP	52	192	5
NMTAP	52	288	5
NMTAP	53	0	4
NMTAP	53	96	4
NMTAP	53	192	3
NMTAP	53	288	3
NMTAP	54	0	2
NMTAP	54	96	2
NMTAP	54	192	1
NMTAP	54	288	1
EXTAP	55	0	0
EXTAP	55	96	0
EXTAP	55	192	0
EXTAP	55	192	7
NMSTR	56	0	6
NMSI_	56	0	6	96	288	3
NMTAP	57	192	1
NMTAP	57	288	1
NMSTR	58	0	1
NMSI_	58	0	1	96	288	4
NMTAP	59	192	6
NMTAP	59	288	6
NMSTR	60	0	6
NMSI_	60	0	6	96	288	3
NMTAP	61	192	1
NMTAP	61	288	1
NMSTR	62	0	1
NMSI_	62	0	1	96	288	4
NMTAP	63	192	6
NMTAP	63	288	6
NMHLD	64	0	6	192
NMTAP	64	192	7
NMHLD	65	0	5	192
NMTAP	65	192	4
NMHLD	66	0	2	192
NMTAP	66	192	3
NMTAP	67	0	3
NMTAP	67	96	3
NMTAP	67	192	2
NMTAP	67	192	3
NMHLD	68	0	1	192
NMTAP	68	192	0
NMHLD	69	0	2	192
NMTAP	69	192	3
NMHLD	70	0	5	192
NMTAP	70	192	4
NMTAP	71	0	4
NMTAP	71	96	4
NMTAP	71	192	4
NMTAP	71	192	5
NMTTP	72	0	6	B	0	L1
NMTTP	72	192	5	B	0	L1
NMTTP	73	0	4	B	0	L1
NMTTP	73	192	3	B	0	L1
NMTTP	74	0	2	B	0	L1
NMTTP	74	192	1	B	0	L1
NMTTP	75	0	0	C	0	L1
NMTTP	76	0	6	B	0	L1
NMTTP	76	96	5	B	0	L1
NMTTP	76	192	4	B	0	L1
NMTTP	77	0	1	B	0	L1
NMTTP	77	96	2	B	0	L1
NMTTP	77	192	3	B	0	L1
NMTTP	78	0	7	E	0	L1
NMTTP	78	96	6	E	0	L1
NMTTP	78	192	5	E	0	L1
NMTTP	79	0	0	C	0	L1
NMSTR	80	0	0
NMSI_	80	0	0	96	288	5
NMSTR	80	0	1
NMSI_	80	0	1	96	288	4
NMSTR	82	0	6
NMSI_	82	0	6	96	288	3
NMSTR	82	0	7
NMSI_	82	0	7	96	288	2
NMHLD	84	0	1	192
NMHLD	84	192	2	192
NMHLD	85	0	3	192
NMHLD	85	192	4	192
NMHLD	86	0	5	192
NMTAP	86	192	6
BRTAP	87	0	0
BRTAP	87	0	7
NMTAP	88	0	2
NMTAP	88	96	2
NMTAP	88	192	1
NMTAP	88	288	1
NMTAP	89	0	0
NMTAP	89	96	0
NMTAP	89	192	6
NMTAP	89	192	7
NMTAP	90	0	5
NMTAP	90	96	5
NMTAP	90	192	6
NMTAP	90	288	6
NMTAP	91	0	7
NMTAP	91	96	7
NMTAP	91	192	0
NMTAP	91	192	1
NMTAP	92	0	2
NMTAP	92	96	2
NMTAP	92	192	1
NMTAP	92	288	1
NMTAP	93	0	0
NMTAP	93	96	0
NMTAP	93	192	7
NMTAP	93	288	7
NMTAP	94	0	6
NMTAP	94	96	6
NMTAP	94	192	5
NMTAP	94	288	5
EXTAP	95	0	4
EXTAP	95	96	4
EXTAP	95	192	3
EXTAP	95	192	4
NMTAP	96	0	5
NMTAP	96	96	5
NMTAP	96	192	6
NMTAP	96	288	6
NMTAP	97	0	7
NMTAP	97	96	7
NMTAP	97	192	0
NMTAP	97	192	1
NMTAP	98	0	2
NMTAP	98	96	2
NMTAP	98	192	1
NMTAP	98	288	1
NMTAP	99	0	0
NMTAP	99	96	0
NMTAP	99	192	6
NMTAP	99	192	7
NMTAP	100	0	5
NMTAP	100	96	5
NMTAP	100	192	6
NMTAP	100	288	6
NMTAP	101	0	7
NMTAP	101	96	7
NMTAP	101	192	0
NMTAP	101	288	0
NMTAP	102	0	1
NMTAP	102	96	1
NMTAP	102	192	2
NMTAP	102	288	2
EXTAP	103	0	3
EXTAP	103	96	3
EXTAP	103	192	3
EXTAP	103	192	4
NMTAP	104	0	5
NMTAP	104	96	5
NMTAP	104	192	4
NMTAP	104	192	5
NMTAP	104	288	4
NMTAP	104	288	5
NMTAP	105	0	6
NMTAP	105	96	6
NMTAP	105	192	7
NMTAP	105	288	7
NMTAP	106	0	0
NMTAP	106	96	0
NMTAP	106	192	1
NMTAP	106	288	1
NMTAP	107	0	2
NMTAP	107	0	3
NMTAP	107	96	2
NMTAP	107	96	3
NMTAP	107	192	2
NMTAP	107	192	3
NMTAP	108	0	2
NMTAP	108	96	2
NMTAP	108	192	2
NMTAP	108	192	3
NMTAP	108	288	2
NMTAP	108	288	3
NMTAP	109	0	1
NMTAP	109	96	1
NMTAP	109	192	0
NMTAP	109	288	0
NMTAP	110	0	7
NMTAP	110	96	7
NMTAP	110	192	6
NMTAP	110	288	6
NMTAP	111	0	4
NMTAP	111	0	5
NMTAP	111	96	4
NMTAP	111	96	5
NMTAP	111	192	4
NMTAP	111	192	5
NMTAP	112	0	5
NMTAP	112	96	5
NMTAP	112	192	4
NMTAP	112	192	5
NMTAP	113	0	2
NMTAP	113	96	2
NMTAP	113	192	2
NMTAP	113	192	3
NMTAP	114	0	5
NMTAP	114	96	5
NMTAP	114	192	4
NMTAP	114	192	5
NMTAP	115	0	2
NMTAP	115	96	2
NMTAP	115	192	2
NMTAP	115	192	3
NMTAP	116	0	1
NMTAP	116	96	1
NMTAP	116	192	0
NMTAP	116	192	1
NMTAP	117	0	6
NMTAP	117	96	6
NMTAP	117	192	6
NMTAP	117	192	7
NMTAP	118	0	0
NMTAP	118	0	7
NMTAP	118	96	0
NMTAP	118	96	7
NMTAP	118	192	1
NMTAP	118	192	6
BXTAP	118	288	1
BXTAP	118	288	6

T_REC_TAP	268
T_REC_BRK	2
T_REC_XTP	24
T_REC_BXX	2
T_REC_HLD	13
T_REC_XHO	8
T_REC_BHO	0
T_REC_BXH	0
T_REC_STR	8
T_REC_BST	0
T_REC_XST	0
T_REC_XBS	0
T_REC_TTP	34
T_REC_THO	1
T_REC_SLD	8
T_REC_BSL	0
T_REC_ALL	368
T_NUM_TAP	334
T_NUM_BRK	4
T_NUM_HLD	22
T_NUM_SLD	8
T_NUM_ALL	368
T_JUDGE_TAP	338
T_JUDGE_HLD	120
T_JUDGE_SLD	8
T_JUDGE_ALL	466
TTM_EACHPAIRS	58
TTM_SCR_TAP	167000
TTM_SCR_BRK	10400
TTM_SCR_HLD	22000
TTM_SCR_SLD	12000
TTM_SCR_ALL	211400
TTM_SCR_S	204700
TTM_SCR_SS	211000
TTM_RAT_ACV	10018

