VERSION	0.00.00	1.04.00
FES_MODE	0
BPM_DEF	180.000	180.000	180.000	160.000
MET_DEF	4	4
RESOLUTION	384
CLK_DEF	384
COMPATIBLE_CODE	MA2

BPM	0	0	180.000
BPM	63	288	160.000
BPM	72	288	180.000
MET	0	0	4	4
MET	2	0	4	7
MET	5	192	4	3
MET	7	288	4	7
MET	9	192	4	4
MET	58	192	4	3
MET	63	288	4	4

NMTTP	1	192	3	A	0	M1
NMTTP	1	216	4	A	0	M1
NMTTP	1	240	2	A	0	M1
NMTTP	1	264	5	A	0	M1
NMTTP	1	288	1	A	0	M1
NMTTP	1	312	6	A	0	M1
NMTTP	1	336	0	A	0	M1
NMTTP	1	360	7	A	0	M1
BXTAP	2	0	1
NMTAP	2	48	2
NMTAP	2	96	3
EXTAP	2	144	7
NMTAP	2	192	6
NMTAP	2	240	5
EXTAP	2	288	1
NMTAP	2	336	2
NMTAP	3	0	3
EXTAP	3	48	7
NMTAP	3	96	6
NMTAP	3	144	5
NMTTP	3	192	0	B	0	M1
NMTTP	3	192	1	B	0	M1
BXTAP	3	288	6
NMTAP	3	336	5
NMTAP	4	0	4
EXTAP	4	48	0
NMTAP	4	96	1
NMTAP	4	144	2
EXTAP	4	192	6
NMTAP	4	240	5
NMTAP	4	288	4
EXTAP	4	336	0
NMTAP	5	0	1
NMTAP	5	48	2
NMTTP	5	96	7	E	0	M1
NMTTP	5	112	6	E	0	M1
NMTTP	5	128	5	E	0	M1
NMTTP	5	144	4	E	0	M1
BXTAP	5	192	0
NMTAP	5	240	1
NMTAP	5	288	2
EXTAP	5	336	6
NMTAP	6	0	5
NMTAP	6	48	4
EXTAP	6	96	1
NMTAP	6	144	2
NMTAP	6	192	3
EXTAP	6	240	7
NMTAP	6	288	6
NMTAP	6	336	5
EXTAP	7	0	2
NMTAP	7	48	3
NMTAP	7	96	4
EXTAP	7	144	0
NMTAP	7	192	7
NMTAP	7	240	6
NMHLD	7	288	1	192
NMHLD	7	288	5	384
NMTTP	8	240	1	D	0	M1
NMTTP	8	252	0	A	0	M1
NMTTP	8	264	0	D	0	M1
NMTTP	8	276	7	A	0	M1
NMTTP	8	288	7	D	0	M1
NMSTR	9	192	6
NMSCL	9	192	6	96	144	3
NMTTP	10	0	2	B	0	M1
NMTTP	10	0	3	B	0	M1
NMSTR	10	192	1
NMSCR	10	192	1	96	144	4
NMTTP	11	0	4	B	0	M1
NMTTP	11	0	5	B	0	M1
NMSTR	11	192	5
NMSCL	11	192	5	96	144	2
NMTTP	12	0	3	B	0	M1
NMTTP	12	0	4	B	0	M1
NMSTR	12	192	0
NMSLL	12	192	0	96	144	4
NMSLR	12	192	0	96	144	4
NMTAP	13	192	5
NMTAP	13	240	4
NMTAP	13	288	6
NMTAP	13	336	6
NMTAP	14	0	2
NMTAP	14	48	3
NMTAP	14	96	1
NMTAP	14	144	1
NMTAP	14	192	5
NMHLD	14	240	5	96
NMHLD	14	336	4	96
NMHLD	15	48	3	96
NMSTR	15	144	2
NMSCL	15	144	2	96	48	0
NMTAP	15	240	2
NMTAP	15	240	3
NMSTR	15	336	5
NMSCR	15	336	5	96	48	7
NMTAP	16	48	4
NMTAP	16	48	5
BRTAP	16	144	2
NMTTP	16	144	5	E	0	M1
BRTAP	16	240	0
NMTTP	16	240	4	E	0	M1
NMTTP	16	336	3	E	0	M1
BRTAP	16	336	5
NMTAP	17	192	2
NMTAP	17	192	3
NMHLD	17	240	2	48
NMHLD	17	240	3	48
NMHLD	17	336	1	48
NMHLD	17	336	3	48
NMHLD	18	48	0	48
NMHLD	18	48	3	48
NMHLD	18	144	3	48
NMHLD	18	144	7	48
NMHLD	18	240	0	48
NMHLD	18	240	3	48
NMHLD	18	336	1	48
NMHLD	18	336	3	48
NMTAP	19	48	3
NMTAP	19	96	2
NMTAP	19	144	1
NMSTR	19	144	3
NMSI_	19	144	3	96	48	1
NMTAP	19	240	3
NMTAP	19	240	5
NMTAP	19	288	4
NMSTR	19	336	3
NMSI_	19	336	3	96	48	5
NMTAP	20	48	1
NMTAP	20	48	3
NMTAP	20	96	2
NMSTR	20	144	3
NMSXL	20	144	3	96	156	6
NMSXR	20	144	3	96	156	0
EXTAP	21	96	1
EXTAP	21	96	5
NMTAP	21	192	2
BRTAP	21	192	4
NMTAP	21	288	3
NMTTP	21	336	1	B	0	M1
NMTTP	21	344	1	E	0	M1
NMTTP	21	352	0	A	0	M1
EXSTR	22	48	6
NMSSL	22	48	6	96	96	2
EXSTR	22	144	2
NMSSL	22	144	2	96	96	6
NMTAP	22	336	0
NMTAP	23	48	2
NMTAP	23	96	1
BRTAP	23	144	0
BRTAP	23	144	4
NMTTP	23	240	0	C	0	M1
NMTTP	23	240	1	B	0	M1
NMTTP	23	240	5	B	0	M1
BRTAP	23	336	2
BRTAP	23	336	6
NMTTP	24	48	0	C	0	M1
NMTTP	24	48	3	B	0	M1
NMTTP	24	48	7	B	0	M1
BRHLD	24	144	1	240
BRSTR	24	144	5
NMSCR	24	144	5	96	144	3
NMTAP	25	192	2
NMTAP	25	216	3
NMTAP	25	240	2
NMTAP	25	288	5
NMTAP	25	312	4
NMTAP	25	336	5
NMTAP	26	0	2
NMTAP	26	24	3
NMTAP	26	48	2
NMTAP	26	96	5
NMTAP	26	120	4
NMTAP	26	144	5
NMTAP	26	192	3
NMTAP	26	216	4
NMTAP	26	240	2
NMTAP	26	264	5
NMTAP	26	288	3
NMTAP	26	312	4
NMTAP	26	336	2
NMTAP	26	360	5
NMTAP	27	0	3
NMTAP	27	24	4
NMTAP	27	48	2
NMTAP	27	72	5
BRTAP	27	96	0
NMHLD	27	192	0	48
NMHLD	27	240	4	48
NMHLD	27	288	1	48
NMHLD	27	336	3	48
NMHLD	28	0	2	48
NMHLD	28	48	7	48
NMHLD	28	96	3	48
NMHLD	28	144	6	48
NMHLD	28	192	4	48
NMHLD	28	240	5	48
NMHLD	28	288	0	48
NMHLD	28	336	4	0
BRHLD	29	0	2	0
BRHLD	29	24	5	0
BRHLD	29	48	2	0
BRHLD	29	72	5	0
EXSTR	29	96	3
BRSXR	29	96	3	96	72	2
EXSTR	29	192	4
BRSXL	29	192	4	96	72	5
NMTTP	29	264	2	A	0	M1
NMTTP	29	276	3	D	0	M1
EXSTR	29	288	3
BRSXR	29	288	3	96	72	2
NMTTP	29	360	5	A	0	M1
NMTTP	29	372	5	D	0	M1
EXSTR	30	0	4
BRSXL	30	0	4	96	72	5
NMTTP	30	72	2	A	0	M1
NMTTP	30	84	3	D	0	M1
EXSTR	30	96	3
BRSXR	30	96	3	96	72	2
NMTTP	30	168	5	A	0	M1
NMTTP	30	180	5	D	0	M1
EXTAP	30	192	4
NMTTP	30	264	2	A	0	M1
NMTTP	30	276	3	D	0	M1
EXTAP	30	288	3
NMTAP	31	0	2
NMTAP	31	0	4
NMTAP	31	72	3
NMTAP	31	72	6
BRSTR	31	144	1
NMSCR	31	144	1	96	144	7
BRTAP	31	144	5
NMSTR	31	288	7
NMSCR	31	288	7	96	96	3
NMSTR	32	0	3
NMSCR	32	0	3	96	84	7
NMTAP	32	96	7
NMTTP	32	192	0	D	0	M1
NMTTP	32	204	1	D	0	M1
NMTTP	32	216	2	D	0	M1
NMTTP	32	228	3	D	0	M1
NMTTP	32	240	4	D	0	M1
NMTTP	32	252	5	D	0	M1
NMTTP	32	264	6	D	0	M1
NMTTP	32	276	7	D	0	M1
NMTTP	32	288	0	E	0	M1
NMTTP	32	300	1	E	0	M1
NMTTP	32	312	2	E	0	M1
NMTTP	32	324	3	E	0	M1
NMTTP	32	336	4	E	0	M1
NMTTP	32	348	5	E	0	M1
NMTTP	32	360	6	E	0	M1
NMTTP	32	372	7	E	0	M1
NMTTP	33	0	0	C	1	M1
NMSTR	33	192	1
NMSCR	33	192	1	96	48	4
NMTAP	33	192	6
NMTAP	33	240	0
NMSTR	33	288	6
NMSCL	33	288	6	96	48	3
NMTAP	33	336	7
NMSTR	34	0	1
NMSCR	34	0	1	96	48	4
NMTAP	34	48	0
NMTAP	34	96	6
EXSTR	34	144	7
NMSI_	34	144	7	96	48	4
EXTAP	34	240	2
EXTAP	34	240	7
EXTAP	34	336	0
EXTAP	34	336	3
NMTAP	35	48	2
NMTAP	35	48	3
NMTAP	35	96	2
NMTAP	35	96	3
NMSTR	35	192	6
NMSI_	35	192	6	96	48	4
NMTAP	35	288	3
CNSI_	35	336	4	0	48	0
CNSCL	36	0	0	0	48	5
NMTAP	36	0	2
NMTAP	36	48	2
CNSI_	36	48	5	0	48	2
NMTAP	36	144	1
NMSTR	36	240	0
NMSI_	36	240	0	96	48	3
NMSTR	36	240	4
NMSI_	36	240	4	96	48	7
EXTAP	36	336	0
EXTAP	36	336	4
EXTAP	37	48	3
EXTAP	37	48	7
NMTAP	37	192	2
NMSTR	37	192	6
NMSCL	37	192	6	96	48	3
NMTAP	37	240	7
NMSTR	37	288	1
NMSCR	37	288	1	96	48	4
NMTAP	37	336	0
NMSTR	38	0	6
NMSCL	38	0	6	96	48	3
NMTAP	38	48	7
NMTAP	38	96	1
EXSTR	38	144	0
NMSI_	38	144	0	96	48	3
EXTAP	38	240	0
EXTAP	38	240	5
EXTAP	38	336	4
EXTAP	38	336	7
NMTAP	39	48	7
NMTAP	39	96	0
NMTAP	39	96	6
NMTAP	39	144	1
NMTAP	39	144	5
NMTAP	39	192	2
NMTAP	39	192	4
NMTAP	39	240	5
NMTAP	39	264	4
NMTAP	39	288	5
NMTAP	39	336	2
NMTAP	39	360	3
NMTAP	40	0	2
NMTAP	40	48	7
NMTAP	40	96	6
NMTAP	40	144	1
NMTAP	40	144	5
NMSTR	40	240	0
NMSCR	40	240	0	96	48	3
NMSTR	40	240	4
NMSCR	40	240	4	96	48	7
EXTAP	40	336	0
EXTAP	40	336	4
BXTAP	41	48	3
BXTAP	41	48	7
NMSTR	41	192	2
NMSI_	41	192	2	96	48	5
NMTAP	41	240	2
NMSTR	41	288	1
NMSI_	41	288	1	96	48	6
NMTAP	41	336	1
NMSTR	42	0	2
NMSI_	42	0	2	96	48	5
NMTAP	42	48	2
NMTAP	42	96	0
EXSTR	42	144	0
NMSI_	42	144	0	96	48	4
EXTAP	42	240	0
EXTAP	42	240	2
EXTAP	42	336	1
EXTAP	42	336	4
NMTAP	43	48	4
NMTAP	43	48	5
NMTAP	43	96	4
NMTAP	43	96	5
NMSTR	43	192	1
NMSI_	43	192	1	96	48	5
NMTAP	43	288	7
CNSI_	43	336	5	0	48	3
CNSI_	44	0	3	0	96	7
NMTAP	44	0	6
NMTAP	44	48	6
NMTAP	44	144	5
NMTAP	44	192	0
NMTAP	44	240	1
NMTAP	44	240	7
NMTAP	44	288	2
NMTAP	44	288	6
NMSTR	44	336	3
NMSCL	44	336	3	96	48	0
NMSTR	44	336	5
NMSUL	44	336	5	96	48	7
EXTAP	45	192	0
EXTAP	45	192	7
NMTTP	45	240	1	E	0	M1
NMTTP	45	240	1	A	0	M1
NMTTP	45	240	2	E	0	M1
NMTTP	45	240	6	E	0	M1
NMTTP	45	240	6	A	0	M1
NMTTP	45	240	7	E	0	M1
NMTAP	45	336	3
NMTAP	45	336	4
NMTAP	46	0	2
NMSTR	46	48	1
NMSCR	46	48	1	96	48	4
NMTAP	46	96	7
NMTAP	46	144	6
NMSTR	46	240	5
NMSCR	46	240	5	96	48	0
NMTAP	46	288	4
NMTAP	46	336	3
NMTAP	47	48	1
NMTAP	47	96	2
NMTAP	47	144	3
NMTAP	47	192	4
NMTAP	47	192	5
NMTAP	47	240	3
NMTAP	47	288	2
NMTAP	47	336	1
NMTAP	48	0	0
NMTAP	48	0	7
NMTAP	48	48	6
NMTAP	48	96	5
NMSTR	48	144	3
NMSCL	48	144	3	96	144	5
NMHLD	48	144	4	96
NMTAP	49	48	7
NMTAP	49	96	6
NMTAP	49	144	5
NMTAP	49	192	3
NMTAP	49	192	4
NMTAP	49	240	5
NMTAP	49	288	6
NMTAP	49	336	7
NMTAP	50	0	0
NMTAP	50	0	1
NMSTR	50	72	3
BRSCL	50	72	3	96	216	4
NMSTR	50	72	4
BRSCR	50	72	4	96	216	3
NMTTP	51	96	0	C	1	M1
NMTTP	51	96	1	B	0	M1
NMTTP	51	96	2	B	0	M1
NMTTP	51	96	2	E	0	M1
NMTTP	51	96	5	B	0	M1
NMTTP	51	96	6	B	0	M1
NMTTP	51	96	6	E	0	M1
NMTAP	51	192	1
NMTAP	51	192	6
NMTAP	51	288	0
NMTAP	51	288	7
NMTAP	52	0	2
NMTAP	52	48	3
NMTAP	52	96	4
NMTAP	52	192	4
NMTAP	52	192	5
NMTAP	52	240	6
NMTAP	52	264	7
NMTAP	52	288	6
NMTAP	52	336	1
NMTAP	52	360	0
NMTAP	53	0	1
NMTAP	53	48	6
NMTAP	53	72	0
NMTAP	53	96	6
NMTAP	53	120	0
NMTAP	53	144	6
NMTAP	53	168	0
NMHLD	53	192	6	96
EXTAP	53	288	1
NMTAP	53	312	0
NMTAP	53	336	1
NMTAP	53	360	0
NMTAP	54	0	2
NMTAP	54	24	7
NMTAP	54	48	2
NMTAP	54	72	7
NMTAP	54	96	2
NMTAP	54	192	2
NMTAP	54	192	4
NMTAP	54	240	5
NMTAP	54	264	3
NMTAP	54	288	5
NMTAP	54	336	1
NMTAP	54	360	3
NMHLD	55	0	1	72
EXTAP	55	72	4
NMTAP	55	144	5
NMTAP	55	168	7
NMTAP	55	192	5
NMTAP	55	240	1
NMTAP	55	264	7
NMTAP	55	288	1
NMTAP	55	312	7
NMTAP	55	336	1
NMTAP	55	360	7
BXTAP	56	0	1
EXTAP	56	12	2
EXTAP	56	24	3
EXTAP	56	36	4
EXTAP	56	48	5
EXTAP	56	60	6
EXTAP	56	72	7
EXTAP	56	84	0
EXTAP	56	96	1
NMTAP	56	192	5
NMTAP	56	216	3
NMTAP	56	240	5
NMTAP	56	264	2
NMTAP	56	288	4
NMTAP	56	312	2
NMTAP	56	336	5
NMTAP	56	360	3
NMTAP	57	0	5
NMTAP	57	24	2
NMTAP	57	48	4
NMTAP	57	72	2
NMSTR	57	96	6
NMSXR	57	96	6	96	192	2
NMTAP	57	120	3
NMTAP	57	144	6
NMTHO	58	192	0	1152	C	0	M1
NMTTP	58	288	7	B	0	M1
NMTTP	59	0	6	E	0	M1
NMTTP	59	96	5	E	0	M1
NMTTP	59	192	4	E	0	M1
NMTTP	59	288	3	D	0	M1
NMTTP	60	0	2	D	0	M1
NMTTP	60	96	1	D	0	M1
NMTTP	60	192	0	D	0	M1
NMTTP	60	288	7	D	0	M1
NMTTP	61	0	6	D	0	M1
NMTTP	61	96	5	D	0	M1
NMTTP	61	192	4	D	0	M1
NMHLD	63	288	2	96
NMHLD	63	288	3	96
NMHLD	64	96	2	96
NMHLD	64	96	3	96
NMHLD	64	288	3	96
NMHLD	64	288	4	96
NMHLD	65	96	3	96
NMHLD	65	96	4	96
NMHLD	65	288	4	96
NMHLD	65	288	5	96
NMTAP	66	96	4
NMTAP	66	96	5
EXSTR	66	192	5
NMSUR	66	192	5	96	192	2
NMTHO	66	288	0	192	C	0	M1
NMHLD	67	288	1	96
NMTAP	67	288	2
NMHLD	68	96	2	96
NMTTP	68	96	4	E	0	M1
NMHLD	68	288	3	96
NMTAP	68	288	4
NMTTP	69	96	4	E	0	M1
NMHLD	69	96	4	96
NMTAP	69	288	5
NMHLD	69	288	6	96
NMTTP	70	96	4	E	0	M1
NMHLD	70	96	5	96
NMTAP	70	288	3
NMSTR	70	288	4
NMSUL	70	288	4	96	288	3
NMSTR	71	192	3
NMSCL	71	192	3	96	96	0
NMSTR	71	288	0
NMSCL	71	288	0	96	144	4
NMTTP	72	288	7	E	0	M1
NMTTP	72	312	6	B	0	M1
NMTTP	72	336	5	B	0	M1
NMTTP	72	360	5	E	0	M1
NMTTP	73	0	1	E	0	M1
NMTTP	73	24	1	B	0	M1
NMTTP	73	48	2	B	0	M1
NMTTP	73	72	3	E	0	M1
NMTTP	73	96	6	D	0	M1
NMTTP	73	120	7	D	0	M1
NMTTP	73	144	0	D	0	M1
NMTTP	73	168	1	D	0	M1
NMTTP	73	192	2	D	0	M1
NMTTP	73	216	3	D	0	M1
NMTTP	73	240	4	D	0	M1
EXSTR	73	288	2
NMSCL	73	288	2	96	48	7
EXTAP	73	288	5
NMTAP	73	336	3
NMSTR	74	0	5
NMSCR	74	0	5	96	48	0
NMTAP	74	48	4
NMSTR	74	96	2
NMSCL	74	96	2	96	48	7
NMTAP	74	144	3
NMTAP	74	192	5
EXSTR	74	240	4
NMSI_	74	240	4	96	48	7
EXTAP	74	336	0
EXTAP	74	336	4
EXTAP	75	48	2
EXTAP	75	48	7
NMTAP	75	144	4
NMTAP	75	144	5
NMTAP	75	192	4
NMTAP	75	192	5
NMSTR	75	288	2
NMSI_	75	288	2	96	48	5
NMTAP	76	0	3
CNSI_	76	48	5	0	48	1
CNSI_	76	96	1	0	48	6
NMTAP	76	96	4
NMTAP	76	144	4
CNSI_	76	144	6	0	48	0
NMTAP	76	240	5
NMSTR	76	336	3
BRSXR	76	336	3	96	144	4
NMSTR	76	336	5
BRSXL	76	336	5	96	144	4
BXTAP	77	48	3
BXTAP	77	48	5
NMTAP	77	288	2
NMSTR	77	288	5
NMSCR	77	288	5	96	48	0
NMTAP	77	336	4
NMSTR	78	0	2
NMSCL	78	0	2	96	48	7
NMTAP	78	48	3
NMSTR	78	96	5
NMSCR	78	96	5	96	48	0
NMTAP	78	144	4
NMTAP	78	192	2
EXSTR	78	240	3
NMSI_	78	240	3	96	48	0
EXTAP	78	336	3
EXTAP	78	336	6
EXTAP	79	48	4
EXTAP	79	48	7
NMTAP	79	144	4
NMTAP	79	192	3
NMTAP	79	192	5
NMTAP	79	240	2
NMTAP	79	240	6
NMTAP	79	288	1
NMTAP	79	288	7
NMTAP	79	336	0
NMTAP	79	360	7
NMTAP	80	0	0
NMTAP	80	48	6
NMTAP	80	72	7
NMTAP	80	96	6
NMTAP	80	144	1
NMTAP	80	192	2
NMSTR	80	240	3
NMSI_	80	240	3	96	48	7
NMSTR	80	240	4
NMSI_	80	240	4	96	48	0
EXTAP	80	336	3
EXTAP	80	336	4
BXSTR	81	48	0
BRSI_	81	48	0	96	48	3
BXSTR	81	48	7
BRSI_	81	48	7	96	48	4
BXTAP	81	144	0
BXTAP	81	144	7
NMTTP	81	152	1	B	0	M1
NMTTP	81	152	6	B	0	M1
NMTTP	81	160	0	C	1	M1
NMTTP	81	168	2	B	0	M1
NMTTP	81	168	5	B	0	M1
NMTTP	81	176	3	B	0	M1
NMTTP	81	176	4	B	0	M1
NMTTP	81	184	4	E	0	M1
NMSTR	81	288	0
NMSI_	81	288	0	96	48	4
NMTAP	81	336	0
NMSTR	82	0	7
NMSI_	82	0	7	96	48	5
NMTAP	82	48	7
NMSTR	82	96	1
NMSI_	82	96	1	96	48	3
NMTAP	82	144	1
NMTAP	82	192	0
EXSTR	82	240	0
NMSI_	82	240	0	96	48	4
EXTAP	82	336	0
EXTAP	82	336	2
EXTAP	83	48	1
EXTAP	83	48	7
NMTAP	83	144	4
NMTAP	83	144	5
NMTAP	83	192	4
NMTAP	83	192	5
NMSTR	83	288	1
NMSI_	83	288	1	96	48	5
NMTAP	84	0	7
CNSI_	84	48	5	0	48	3
CNSI_	84	96	3	0	96	7
NMTAP	84	96	6
NMTAP	84	144	6
NMTAP	84	240	5
NMTAP	84	288	0
NMTAP	84	336	1
NMTAP	84	336	7
NMTAP	85	0	2
NMTAP	85	0	6
NMSTR	85	48	3
NMSCL	85	48	3	96	48	0
NMSTR	85	48	5
NMSUL	85	48	5	96	48	7
NMSTR	85	288	1
NMSI_	85	288	1	96	48	4
NMTAP	85	336	1
NMSTR	86	0	0
NMSI_	86	0	0	96	48	5
NMTAP	86	48	0
NMTAP	86	96	1
NMSTR	86	144	1
NMSCL	86	144	1	96	96	6
EXSTR	86	240	6
NMSCR	86	240	6	96	96	1
NMTAP	86	336	5
NMTAP	87	48	4
NMTAP	87	144	1
NMTAP	87	192	2
NMTAP	87	240	3
NMTAP	87	288	4
NMTAP	87	288	5
NMTAP	87	336	6
NMTAP	88	0	7
NMTAP	88	48	0
NMTAP	88	96	1
NMSTR	88	144	2
NMSCL	88	144	2	96	168	5
NMSUL	88	144	2	96	168	5
NMTAP	88	192	2
NMTAP	89	144	6
NMTAP	89	192	5
NMTAP	89	240	4
NMTAP	89	288	1
NMTAP	89	288	3
NMTAP	89	336	2
NMTAP	90	0	4
NMTAP	90	0	6
NMTAP	90	48	5
BRTAP	90	96	2
NMTAP	90	96	4
BRTAP	90	168	0
NMTAP	90	168	1
BRTAP	90	240	5
NMSTR	90	240	7
NMSCR	90	240	7	96	96	4
NMTAP	91	144	7
NMTAP	91	192	6
NMTAP	91	240	5
NMTAP	91	288	4
NMTAP	91	336	3
NMTAP	91	336	5
NMTAP	92	0	2
NMTAP	92	0	6
NMTAP	92	48	1
NMTAP	92	48	7
NMTAP	92	96	0
EXTAP	92	168	3
EXTAP	92	168	4
BXHLD	92	240	1	336
BXHLD	92	240	6	336
BXTAP	93	288	1
BXTAP	93	288	3
NMTAP	93	336	2
NMTAP	94	0	3
EXTAP	94	48	4
EXTAP	94	48	6
NMTAP	94	96	5
NMTAP	94	144	4
EXTAP	94	192	1
EXTAP	94	192	3
NMTAP	94	240	2
NMTAP	94	288	3
EXTAP	94	336	4
EXTAP	94	336	6
NMTAP	95	0	5
NMTAP	95	48	4
NMTTP	95	96	0	B	0	M1
NMTTP	95	96	1	B	0	M1
BXTAP	95	192	4
BXTAP	95	192	6
NMTAP	95	240	5
NMTAP	95	288	4
EXTAP	95	336	1
EXTAP	95	336	3
NMTAP	96	0	2
NMTAP	96	48	3
EXTAP	96	96	4
EXTAP	96	96	6
NMTAP	96	144	5
NMTAP	96	192	4
EXTAP	96	240	1
EXTAP	96	240	3
NMTAP	96	288	2
NMTAP	96	336	3
NMTTP	97	0	0	E	0	M1
NMTTP	97	16	7	E	0	M1
NMTTP	97	32	6	E	0	M1
NMTTP	97	48	5	E	0	M1
BXTAP	97	96	1
BXTAP	97	96	3
NMTAP	97	144	2
NMTAP	97	192	3
EXTAP	97	240	4
EXTAP	97	240	6
NMTAP	97	288	5
NMTAP	97	336	4
EXTAP	98	0	0
EXTAP	98	0	3
NMTAP	98	48	1
NMTAP	98	96	2
EXTAP	98	144	3
EXTAP	98	144	7
NMTAP	98	192	6
NMTAP	98	240	5
EXTAP	98	288	0
EXTAP	98	288	4
NMTAP	98	336	2
NMTAP	99	0	3
EXTAP	99	48	4
EXTAP	99	48	7
NMTAP	99	96	5
NMTAP	99	144	4
EXHLD	99	192	2	96
EXTAP	99	192	3
NMTAP	99	240	3
NMTAP	99	288	3
EXTAP	99	336	4
EXHLD	99	336	5	96
NMTAP	100	0	4
NMTAP	100	48	4
EXHLD	100	96	1	96
EXTAP	100	96	2
NMTAP	100	144	2
NMTAP	100	192	2
EXTAP	100	240	5
EXHLD	100	240	6	96
NMTAP	100	288	5
NMTAP	100	336	5
BRTAP	101	0	2
NMTAP	101	24	0
NMTAP	101	48	2
NMTAP	101	72	0
NMTAP	101	96	2
NMTAP	101	120	0
BRTAP	101	144	1
NMTAP	101	168	7
NMTAP	101	192	1
NMTAP	101	216	7
NMTAP	101	240	1
NMTAP	101	264	7
BRTAP	101	288	0
NMTAP	101	312	6
NMTAP	101	336	0
NMTAP	101	360	6
NMTAP	102	0	0
NMTAP	102	24	6
BRTAP	102	48	7
NMTAP	102	72	5
NMTAP	102	96	7
NMTAP	102	120	5
NMTAP	102	144	7
NMTAP	102	168	5
BXSTR	102	192	6
NMSCL	102	192	6	96	768	2
NMSCR	102	192	6	96	768	2
CNSSL	104	288	2	0	576	6
CNSSR	104	288	2	0	576	6

T_REC_TAP	374
T_REC_BRK	17
T_REC_XTP	88
T_REC_BXX	16
T_REC_HLD	48
T_REC_XHO	4
T_REC_BHO	5
T_REC_BXH	2
T_REC_STR	58
T_REC_BST	2
T_REC_XST	16
T_REC_XBS	3
T_REC_TTP	121
T_REC_THO	2
T_REC_SLD	72
T_REC_BSL	11
T_REC_ALL	839
T_NUM_TAP	657
T_NUM_BRK	56
T_NUM_HLD	54
T_NUM_SLD	72
T_NUM_ALL	839
T_JUDGE_TAP	695
T_JUDGE_HLD	139
T_JUDGE_SLD	83
T_JUDGE_ALL	917
TTM_EACHPAIRS	121
TTM_SCR_TAP	328500
TTM_SCR_BRK	145600
TTM_SCR_HLD	54000
TTM_SCR_SLD	108000
TTM_SCR_ALL	636100
TTM_SCR_S	611600
TTM_SCR_SS	630500
TTM_RAT_ACV	10088

