VERSION	0.00.00	1.04.00
FES_MODE	0
BPM_DEF	180.000	180.000	180.000	160.000
MET_DEF	4	4
RESOLUTION	384
CLK_DEF	384
COMPATIBLE_CODE	MA2

BPM	0	0	180.000
BPM	63	288	160.000
BPM	72	288	180.000
MET	0	0	4	4
MET	2	0	4	7
MET	5	192	4	3
MET	7	288	4	7
MET	9	192	4	4
MET	58	192	4	3
MET	63	288	4	4
MET	93	288	4	7
MET	97	96	4	3

NMTAP	2	0	3
NMTAP	2	0	4
NMTAP	2	96	2
NMTAP	2	144	2
NMTAP	2	192	3
NMTAP	2	288	1
NMTAP	2	288	4
NMTAP	3	0	5
NMTAP	3	48	5
NMTAP	3	96	4
NMTAP	3	192	3
NMTAP	3	192	6
NMTAP	3	288	3
NMTAP	3	288	6
NMTAP	4	0	5
NMTAP	4	48	5
NMTAP	4	96	4
NMTAP	4	192	3
NMTAP	4	192	4
NMTAP	4	288	2
NMTAP	4	336	2
NMTAP	5	0	3
NMTAP	5	96	1
NMTAP	5	96	4
NMTAP	5	192	0
NMTAP	5	288	6
NMTAP	5	336	6
NMTAP	6	0	7
NMTAP	6	96	0
NMTAP	6	96	7
NMTAP	6	192	1
NMTAP	6	240	1
NMTAP	6	288	0
NMTAP	7	0	2
NMTAP	7	96	3
NMTAP	7	96	4
NMTAP	7	192	2
NMTAP	7	192	5
NMTHO	7	288	0	384	C	0	M1
NMTTP	7	288	2	B	0	M1
NMTTP	7	288	3	B	0	M1
NMTTP	7	288	4	B	0	M1
NMTTP	7	288	5	B	0	M1
NMSTR	9	192	0
NMSI_	9	192	0	96	144	4
NMSTR	10	192	5
NMSI_	10	192	5	96	144	2
NMSTR	11	192	1
NMSCR	11	192	1	96	144	4
NMTTP	12	192	4	B	0	M1
NMTTP	12	192	5	B	0	M1
NMTTP	12	192	5	E	0	M1
NMTTP	13	0	0	B	0	M1
NMTTP	13	0	1	B	0	M1
NMTTP	13	0	1	E	0	M1
NMSTR	13	192	7
NMSI_	13	192	7	96	144	3
NMSTR	14	192	1
NMSI_	14	192	1	96	144	5
NMHLD	15	192	7	192
NMTAP	16	0	1
NMTAP	16	96	2
NMTAP	16	96	6
BXTAP	16	144	2
EXTAP	16	144	6
BXTAP	16	240	3
EXTAP	16	240	4
NMHLD	16	336	1	96
BXHLD	16	336	5	144
EXTAP	17	192	2
EXTAP	17	192	4
NMTAP	17	288	3
NMTAP	17	288	5
NMTAP	18	0	5
NMTAP	18	48	5
NMTAP	18	96	4
NMTAP	18	192	2
NMTAP	18	288	1
NMTAP	18	288	3
NMTAP	19	0	2
NMTAP	19	48	2
NMTAP	19	96	3
NMHLD	19	192	5	96
NMTAP	19	288	4
NMHLD	20	0	2	96
EXTAP	20	96	4
NMTAP	20	144	4
NMTAP	20	240	3
NMTAP	20	240	5
NMTAP	20	336	2
NMTAP	20	336	6
NMTAP	21	48	7
NMTAP	21	96	7
NMHLD	21	192	0	96
NMHLD	21	288	1	96
NMHLD	22	0	2	96
NMTAP	22	96	3
NMHLD	22	192	6	96
NMHLD	22	288	5	96
NMTAP	23	0	4
NMTAP	23	96	3
NMTAP	23	144	3
NMTAP	23	240	2
NMTAP	23	240	4
EXTAP	23	336	3
EXTAP	23	336	5
EXTAP	24	48	3
EXTAP	24	48	5
BXTAP	24	144	1
BXHLD	24	144	7	240
NMTTP	25	0	0	C	0	M1
NMHLD	25	192	1	576
NMTAP	25	288	0
NMTAP	26	0	0
NMTAP	26	96	0
NMTAP	26	192	2
NMTAP	26	288	2
NMTAP	27	0	0
NMTAP	27	96	0
EXTAP	27	192	0
EXTAP	27	192	1
NMTAP	27	288	2
NMTAP	28	0	3
NMTAP	28	0	4
NMTAP	28	96	5
NMTAP	28	192	4
NMTAP	28	192	6
NMTAP	28	288	4
NMTAP	28	288	6
BRTAP	29	0	3
BRTAP	29	0	7
NMHLD	29	192	1	96
NMHLD	29	192	3	96
NMTAP	30	0	1
NMTAP	30	0	3
NMTAP	30	96	4
NMHLD	30	192	5	96
NMHLD	30	288	4	96
EXTAP	31	0	6
EXTAP	31	72	3
EXTAP	31	72	5
EXTAP	31	144	2
EXSTR	31	144	4
NMSUL	31	144	4	96	336	3
EXTAP	33	0	1
EXTAP	33	0	5
NMTAP	33	192	2
NMTAP	33	192	3
NMTAP	33	288	0
NMTAP	33	288	7
NMTAP	34	0	3
NMTAP	34	0	5
NMTAP	34	96	1
NMHLD	34	144	1	96
NMTAP	34	240	0
NMTAP	34	336	2
NMTAP	34	336	7
NMTAP	35	48	4
NMTAP	35	48	5
NMTAP	35	96	4
NMTAP	35	96	5
NMTAP	35	192	2
NMTAP	35	240	2
NMTAP	35	288	3
NMTAP	35	336	1
NMTAP	36	0	5
NMTAP	36	48	5
NMTAP	36	96	4
NMHLD	36	144	6	96
NMTAP	36	240	7
NMTAP	36	288	7
NMTAP	36	336	7
EXTAP	37	48	0
EXTAP	37	48	6
NMTAP	37	192	4
NMTAP	37	192	5
NMTAP	37	288	0
NMTAP	37	288	7
NMTAP	38	0	2
NMTAP	38	0	4
NMTAP	38	96	6
NMHLD	38	144	6	96
NMTAP	38	240	7
NMTAP	38	336	0
NMTAP	38	336	5
NMTAP	39	48	2
NMTAP	39	48	3
NMTAP	39	96	2
NMTAP	39	96	3
NMTAP	39	192	1
NMTAP	39	240	1
NMTAP	39	288	7
NMTAP	39	336	7
NMTAP	40	0	0
NMTAP	40	48	0
NMTAP	40	96	6
NMTAP	40	144	6
NMTAP	40	240	1
NMTAP	40	240	7
NMTAP	40	336	3
NMTAP	40	336	5
BRTAP	41	48	2
BRTAP	41	48	6
NMTAP	41	192	1
NMTAP	41	192	3
NMTAP	41	288	0
NMTAP	41	288	7
NMTAP	42	0	4
NMTAP	42	0	5
NMTAP	42	96	6
NMHLD	42	144	6	96
NMTAP	42	240	7
EXTAP	42	336	0
EXTAP	42	336	5
NMTAP	43	48	2
NMTAP	43	48	3
NMTAP	43	96	2
NMTAP	43	96	3
NMTAP	43	192	5
NMTAP	43	240	5
NMTAP	43	288	4
NMTAP	43	336	6
NMTAP	44	0	2
NMTAP	44	48	2
NMTAP	44	96	3
NMTAP	44	144	1
NMTAP	44	192	7
NMTAP	44	240	7
NMTAP	44	288	0
NMTAP	44	336	7
EXTAP	45	48	1
EXTAP	45	48	6
BXTAP	45	192	2
BXTAP	45	192	7
NMTAP	45	336	1
NMHLD	46	0	1	96
NMTAP	46	96	3
NMTAP	46	144	2
NMTAP	46	144	3
NMTAP	46	240	3
NMTAP	46	240	4
NMTAP	46	336	4
NMTAP	46	336	5
NMTAP	47	48	6
NMHLD	47	96	6	96
NMHLD	47	192	7	96
NMHLD	47	288	0	96
NMSTR	48	0	2
NMSSR	48	0	2	96	192	6
EXTAP	49	48	7
EXTAP	49	96	7
NMHLD	49	192	0	96
NMHLD	49	192	6	96
EXTAP	50	0	0
EXTAP	50	72	1
EXTAP	50	72	7
BXSTR	50	144	2
NMSXR	50	144	2	96	432	7
BXSTR	50	144	6
NMSXR	50	144	6	96	432	3
EXTAP	52	96	0
NMTAP	52	192	0
NMHLD	52	192	6	96
NMHLD	52	288	4	96
NMHLD	53	0	3	96
NMHLD	53	96	1	96
NMSTR	53	192	7
NMSI_	53	192	7	96	96	3
NMSTR	54	0	2
NMSCL	54	0	2	96	96	7
NMHLD	54	192	6	96
NMHLD	54	288	4	96
NMHLD	55	0	3	96
NMTAP	55	96	1
NMHLD	55	192	5	96
NMHLD	55	288	7	96
NMTAP	56	0	0
NMTAP	56	96	1
NMTAP	56	96	7
NMTAP	56	192	6
NMTAP	56	240	6
NMTAP	56	288	4
NMTAP	56	336	4
NMTAP	57	0	5
NMTAP	57	48	5
NMSTR	57	96	3
NMSF_	57	96	3	96	192	7
NMTAP	57	96	5
NMHLD	58	192	1	288
NMTAP	58	288	0
NMTAP	58	336	0
NMTAP	59	0	0
NMTAP	59	96	2
NMTAP	59	192	3
NMTAP	59	288	2
NMTAP	59	288	4
NMHLD	60	0	5	288
NMTAP	60	96	4
NMTAP	60	144	4
NMTAP	60	192	4
NMTAP	60	288	6
NMTAP	61	0	7
NMTAP	61	96	0
NMTAP	61	96	6
NMTTP	61	192	0	C	1	M1
NMTTP	61	192	1	B	0	M1
NMTTP	61	192	5	B	0	M1
NMHLD	63	288	2	192
NMHLD	64	96	3	192
NMHLD	64	288	4	192
NMHLD	65	96	5	192
NMHLD	65	288	2	192
NMHLD	66	96	3	192
NMHLD	66	288	4	192
NMTAP	67	96	5
NMHLD	67	288	4	96
NMHLD	67	288	5	96
NMHLD	68	96	3	96
NMHLD	68	96	4	96
NMHLD	68	288	2	96
NMHLD	68	288	3	96
NMHLD	69	96	2	96
NMHLD	69	96	3	96
NMHLD	69	288	3	96
NMHLD	69	288	4	96
NMHLD	70	96	4	96
NMHLD	70	96	5	96
NMSTR	70	288	3
NMSLL	70	288	3	96	288	7
NMTAP	70	288	6
CNSUR	71	288	7	0	384	4
BXTAP	72	288	7
NMTAP	73	288	3
NMTAP	73	288	5
NMTAP	74	0	1
NMTAP	74	0	7
NMTAP	74	96	2
NMTAP	74	96	3
NMTAP	74	192	6
NMHLD	74	240	6	96
NMTAP	74	336	7
NMTAP	75	48	0
NMTAP	75	48	5
NMTAP	75	144	2
NMTAP	75	144	3
NMTAP	75	192	2
NMTAP	75	192	3
NMTAP	75	288	5
NMTAP	75	336	5
NMTAP	76	0	4
NMTAP	76	48	6
NMTAP	76	96	2
NMTAP	76	144	2
NMTAP	76	192	3
NMHLD	76	240	1	96
NMTAP	76	336	0
EXTAP	77	48	2
EXTAP	77	48	7
EXTAP	77	144	2
EXTAP	77	144	7
NMTAP	77	288	2
NMTAP	77	288	3
NMTAP	78	0	0
NMTAP	78	0	7
NMTAP	78	96	3
NMTAP	78	96	5
NMTAP	78	192	1
NMHLD	78	240	1	96
NMTAP	78	336	0
NMTAP	79	48	2
NMTAP	79	48	7
NMTAP	79	144	4
NMTAP	79	144	5
NMTAP	79	192	4
NMTAP	79	192	5
NMTAP	79	288	6
NMTAP	79	336	6
NMTAP	80	0	0
NMTAP	80	48	0
NMTAP	80	96	7
NMTAP	80	144	7
NMTAP	80	192	1
NMTAP	80	240	1
NMTAP	80	336	0
NMTAP	80	336	6
NMTAP	81	48	2
NMTAP	81	48	4
BRTAP	81	144	1
BRTAP	81	144	5
NMTAP	81	288	2
NMTAP	81	288	3
NMTAP	82	0	0
NMTAP	82	0	6
NMTAP	82	96	4
NMTAP	82	96	5
NMTAP	82	192	1
NMHLD	82	240	1	96
NMTAP	82	336	0
NMTAP	83	48	2
NMTAP	83	48	7
NMTAP	83	144	4
NMTAP	83	144	5
NMTAP	83	192	4
NMTAP	83	192	5
NMTAP	83	288	6
NMTAP	83	336	6
NMTAP	84	0	7
NMTAP	84	48	5
NMTAP	84	96	1
NMTAP	84	144	1
NMTAP	84	192	0
NMTAP	84	240	2
NMTAP	84	288	4
NMTAP	84	336	4
NMTAP	85	0	3
NMTAP	85	48	5
BRTAP	85	144	2
BRTAP	85	144	6
NMTAP	85	288	0
NMTAP	85	288	1
NMTAP	86	0	6
NMTAP	86	0	7
NMTAP	86	96	4
NMTAP	86	96	5
NMTAP	86	192	1
BXTAP	86	240	1
BXTAP	86	240	7
BXTAP	86	336	0
BXTAP	86	336	6
BXTAP	87	48	2
BXTAP	87	48	4
NMTAP	87	144	5
NMHLD	87	192	5	96
NMHLD	87	288	4	96
NMHLD	88	0	3	96
NMSTR	88	96	2
BRSCL	88	96	2	96	240	5
EXTAP	89	192	3
EXTAP	89	192	4
NMHLD	89	288	2	96
NMHLD	90	0	1	96
NMTAP	90	96	0
NMTAP	90	192	1
NMTAP	90	192	7
NMTAP	90	240	1
NMTAP	90	240	7
NMTAP	90	336	2
NMTAP	90	336	3
NMTAP	91	48	4
NMTAP	91	48	5
NMTAP	91	144	7
NMTAP	91	192	7
NMHLD	91	288	0	96
NMHLD	91	288	6	96
EXTAP	92	96	0
EXTAP	92	168	1
EXTAP	92	168	7
EXSTR	92	240	2
NMSCL	92	240	2	96	144	7
EXSTR	92	240	6
NMSCL	92	240	6	96	144	3
NMTAP	93	288	3
NMTAP	93	288	4
NMTAP	94	0	2
NMTAP	94	48	2
NMTAP	94	96	3
NMTAP	94	192	1
NMTAP	94	192	4
NMTAP	94	288	5
NMTAP	94	336	5
NMTAP	95	0	4
NMTAP	95	96	3
NMTAP	95	96	6
NMTAP	95	192	4
NMTAP	95	192	5
NMTAP	95	288	6
NMTAP	95	336	6
NMTAP	96	0	7
NMTAP	96	96	0
NMTAP	96	96	5
NMTAP	96	192	1
NMTAP	96	240	1
NMTAP	96	288	0
NMTAP	97	0	2
NMTAP	97	0	7
NMTAP	97	96	0
NMTAP	97	96	1
NMTAP	97	192	2
NMTAP	97	240	2
NMTAP	97	288	1
NMTAP	97	288	3
NMTAP	98	0	3
NMTAP	98	0	4
NMTAP	98	96	5
NMTAP	98	144	5
NMTAP	98	192	4
NMTAP	98	192	6
NMTAP	98	288	3
NMTAP	98	288	5
NMTAP	99	0	2
NMTAP	99	48	2
NMTAP	99	96	1
NMTAP	99	96	3
NMTAP	99	192	2
NMTAP	99	192	4
NMTAP	99	288	6
NMTAP	99	288	7
NMTAP	99	336	6
NMTAP	99	336	7
NMTAP	100	0	6
NMTAP	100	0	7
NMTAP	100	96	3
NMTAP	100	96	5
NMTAP	100	192	0
NMTAP	100	192	1
NMTAP	100	240	0
NMTAP	100	240	1
NMTAP	100	288	0
NMTAP	100	288	1
NMTAP	101	0	7
NMTAP	101	48	7
NMTAP	101	96	0
NMTAP	101	144	0
NMTAP	101	192	5
NMTAP	101	240	5
NMTAP	101	288	3
NMTAP	101	336	3
NMTAP	102	0	4
NMTAP	102	48	4
BRSTR	102	96	2
BRSCL	102	96	2	96	672	5
NMTTP	102	192	4	E	1	M1
CNSXR	104	96	5	0	768	3

T_REC_TAP	356
T_REC_BRK	8
T_REC_XTP	38
T_REC_BXX	12
T_REC_HLD	65
T_REC_XHO	0
T_REC_BHO	0
T_REC_BXH	2
T_REC_STR	11
T_REC_BST	1
T_REC_XST	3
T_REC_XBS	2
T_REC_TTP	15
T_REC_THO	1
T_REC_SLD	15
T_REC_BSL	2
T_REC_ALL	531
T_NUM_TAP	423
T_NUM_BRK	27
T_NUM_HLD	66
T_NUM_SLD	15
T_NUM_ALL	531
T_JUDGE_TAP	446
T_JUDGE_HLD	180
T_JUDGE_SLD	17
T_JUDGE_ALL	643
TTM_EACHPAIRS	132
TTM_SCR_TAP	211500
TTM_SCR_BRK	70200
TTM_SCR_HLD	66000
TTM_SCR_SLD	22500
TTM_SCR_ALL	370200
TTM_SCR_S	356500
TTM_SCR_SS	367500
TTM_RAT_ACV	10073

