VERSION	0.00.00	1.04.00
FES_MODE	0
BPM_DEF	190.000	190.000	190.000	190.000
MET_DEF	4	4
RESOLUTION	384
CLK_DEF	384
COMPATIBLE_CODE	MA2

BPM	0	0	190.000
MET	0	0	4	4

EXSTR	1	0	0
NMSCR	1	0	0	96	960	7
EXSTR	1	0	7
NMSCL	1	0	7	96	960	0
NMTTP	4	48	0	D	0	M1
NMTTP	4	144	7	B	0	M1
NMTTP	4	192	0	B	0	M1
NMTTP	4	288	4	E	0	M1
EXSTR	5	0	3
NMSCL	5	0	3	96	960	4
EXSTR	5	0	4
NMSCR	5	0	4	96	960	3
NMTTP	8	48	4	D	0	M1
NMTTP	8	144	3	B	0	M1
NMTTP	8	192	4	B	0	M1
NMTTP	8	288	0	E	0	M1
EXHLD	9	0	2	1440
EXTAP	9	0	5
NMTAP	9	96	6
NMTAP	9	144	6
NMTAP	9	240	6
NMTAP	9	336	6
NMTAP	10	0	6
NMTAP	10	96	7
NMTAP	10	144	7
NMTAP	10	240	7
NMTAP	10	336	7
NMTAP	11	0	7
NMTAP	11	96	0
NMTAP	11	144	0
NMTAP	11	240	0
NMTAP	11	336	0
NMTTP	12	48	1	E	0	M1
NMTTP	12	144	4	E	0	M1
NMTTP	12	192	5	E	0	M1
BRTAP	12	288	6
EXTAP	13	0	3
EXHLD	13	0	5	1152
NMTAP	13	96	1
NMTAP	13	144	1
NMTAP	13	240	1
NMTAP	13	336	1
NMTAP	14	0	1
NMTAP	14	96	0
NMTAP	14	144	0
NMTAP	14	240	0
NMTAP	14	336	0
EXTAP	15	0	0
NMTAP	15	96	7
NMTAP	15	144	7
NMTAP	15	240	7
NMTAP	15	336	7
EXSTR	16	0	6
NMSI_	16	0	6	96	48	1
NMTAP	16	48	6
NMTAP	16	144	4
NMTAP	16	192	4
BRTAP	16	288	2
BRTAP	16	288	7
NMTAP	17	0	2
NMTAP	17	48	3
NMTAP	17	96	1
NMTAP	17	96	4
NMTAP	17	144	3
NMTAP	17	192	2
NMTAP	17	240	3
NMTAP	17	288	1
NMTAP	17	288	4
NMTAP	17	336	3
NMTAP	18	0	2
NMTAP	18	48	3
NMTAP	18	96	1
NMTAP	18	96	4
NMTAP	18	144	3
NMSTR	18	192	2
NMSI_	18	192	2	96	48	4
NMTAP	18	240	3
NMTAP	19	0	5
NMTAP	19	48	4
NMTAP	19	96	3
NMTAP	19	96	6
NMTAP	19	144	4
NMTAP	19	192	5
NMTAP	19	240	4
NMTAP	19	288	3
NMTAP	19	288	6
NMTAP	19	336	5
NMSTR	20	0	4
NMSI_	20	0	4	96	48	0
NMTAP	20	48	4
NMSTR	20	144	6
NMSI_	20	144	6	96	48	2
NMTAP	20	192	6
BRTAP	20	288	0
EXTAP	21	0	1
NMTAP	21	48	0
NMTAP	21	96	2
NMTAP	21	96	7
NMTAP	21	144	0
NMTAP	21	192	1
NMTAP	21	240	0
NMTAP	21	288	2
NMTAP	21	288	7
NMTAP	21	336	1
EXTAP	22	0	6
NMTAP	22	48	7
NMTAP	22	96	0
NMTAP	22	96	5
NMTAP	22	144	7
NMTAP	22	192	6
NMTAP	22	240	7
NMTAP	22	288	0
NMTAP	22	288	5
NMTAP	22	336	6
EXTAP	23	0	1
EXTAP	23	0	7
NMTAP	23	48	2
NMTAP	23	96	3
NMTAP	23	144	4
EXTAP	23	192	5
NMTAP	23	216	2
NMTAP	23	240	6
NMTAP	23	264	1
NMSTR	23	288	7
NMSXL	23	288	7	96	192	3
NMSXR	23	288	7	96	192	3
NMTAP	23	312	0
NMTAP	23	336	7
NMTAP	23	360	0
BXTAP	24	0	7
EXTAP	25	0	4
EXHLD	25	0	6	288
NMTAP	25	96	5
NMTAP	25	240	5
NMTAP	25	288	5
EXHLD	26	0	4	96
EXHLD	26	0	7	96
EXTAP	26	144	2
EXTAP	26	144	6
NMTAP	26	240	4
NMTAP	26	288	3
NMTAP	26	336	2
EXHLD	27	0	1	288
EXTAP	27	0	3
NMTAP	27	96	2
NMTAP	27	240	2
NMTAP	27	288	2
EXHLD	28	0	0	96
EXHLD	28	0	3	96
EXTAP	28	144	1
EXTAP	28	144	5
NMTAP	28	240	3
NMTAP	28	240	6
NMTAP	28	336	4
NMTAP	28	336	7
EXHLD	29	0	4	96
EXHLD	29	0	7	96
EXTAP	29	144	2
EXTAP	29	144	6
NMTAP	29	240	1
NMTAP	29	240	4
NMTAP	29	336	0
NMTAP	29	336	3
EXHLD	30	0	0	96
EXHLD	30	0	3	96
EXTAP	30	144	1
EXTAP	30	144	5
NMTAP	30	240	3
NMTAP	30	288	4
NMTAP	30	336	5
EXTAP	31	0	4
EXSTR	31	0	6
NMSI_	31	0	6	96	48	2
NMTAP	31	96	6
NMTAP	31	96	7
NMSTR	31	144	0
NMSI_	31	144	0	96	48	4
NMTAP	31	240	0
NMSTR	31	240	7
NMSI_	31	240	7	96	48	3
NMSTR	31	336	2
NMSI_	31	336	2	96	48	7
NMTAP	31	336	7
NMTAP	32	48	2
NMSTR	32	48	5
NMSI_	32	48	5	96	48	0
NMTAP	32	144	0
NMTAP	32	144	5
NMTAP	32	192	1
BRTAP	32	288	3
BRTAP	32	288	7
EXTAP	33	0	4
EXTAP	33	0	6
NMTAP	33	96	5
NMTAP	33	144	4
NMTAP	33	192	3
NMTAP	33	192	5
NMTAP	33	288	2
NMTAP	33	288	4
NMTAP	34	0	2
NMTAP	34	0	3
NMTAP	34	96	1
NMTAP	34	144	1
NMTAP	34	192	0
EXTAP	34	288	0
EXTAP	34	288	7
EXTAP	35	0	1
EXTAP	35	0	3
NMTAP	35	96	2
NMTAP	35	144	3
NMTAP	35	192	2
NMTAP	35	192	4
NMTAP	35	288	3
NMTAP	35	288	5
NMTAP	36	0	4
NMTAP	36	0	5
NMTAP	36	96	6
NMTAP	36	144	6
NMTAP	36	192	7
BRTAP	36	288	0
BRTAP	36	288	5
EXTAP	37	0	3
EXTAP	37	0	6
NMTAP	37	96	0
NMTAP	37	96	7
NMTAP	37	144	1
NMTAP	37	192	2
NMTAP	37	192	3
NMTAP	37	240	4
NMTAP	37	288	3
NMTAP	37	288	5
EXTAP	38	0	1
EXTAP	38	0	4
NMTAP	38	96	0
NMTAP	38	96	7
NMTAP	38	144	6
NMTAP	38	192	4
NMTAP	38	192	5
NMTAP	38	240	3
NMTAP	38	288	2
NMTAP	38	288	4
EXHLD	39	0	0	96
EXHLD	39	0	1	96
EXHLD	39	144	4	48
EXHLD	39	144	6	48
EXHLD	39	240	1	48
EXHLD	39	240	3	48
EXTAP	39	336	2
EXTAP	39	336	5
NMTAP	40	48	3
NMTAP	40	48	4
NMTAP	40	144	1
NMTAP	40	144	6
NMSTR	40	192	0
NMSI_	40	192	0	96	48	4
NMSTR	40	192	7
NMSI_	40	192	7	96	48	3
BRTAP	40	288	0
BRTAP	40	288	7
EXTAP	41	0	6
EXTAP	41	0	7
NMTAP	41	48	0
NMTAP	41	96	1
NMTAP	41	96	3
NMTAP	41	144	2
NMSTR	41	144	4
NMSI_	41	144	4	96	48	0
NMTAP	41	240	4
NMSTR	41	240	6
NMSI_	41	240	6	96	48	2
NMTAP	41	336	0
NMTAP	41	336	6
CNSI_	42	0	2	0	48	4
NMTAP	42	48	1
CNSI_	42	48	4	0	48	7
NMTAP	42	144	1
NMTAP	42	240	4
NMTAP	42	288	3
NMTAP	42	336	2
EXTAP	43	0	0
EXTAP	43	0	1
NMTAP	43	48	7
NMTAP	43	96	4
NMTAP	43	96	6
NMSTR	43	144	3
NMSI_	43	144	3	96	48	7
NMTAP	43	144	5
NMSTR	43	240	1
NMSI_	43	240	1	96	48	5
NMTAP	43	240	3
NMTAP	43	336	1
NMTAP	43	336	7
CNSLL	44	0	5	0	96	0
NMTAP	44	48	6
EXTAP	44	144	0
EXTAP	44	144	6
NMTAP	44	240	3
NMSTR	44	288	4
NMSI_	44	288	4	96	48	0
NMTAP	44	336	5
NMTAP	45	0	4
NMHLD	45	0	6	96
BRTAP	45	144	2
BRTAP	45	144	7
NMTAP	45	240	4
NMSTR	45	288	3
NMSI_	45	288	3	96	48	7
NMTAP	45	336	2
NMHLD	46	0	1	96
NMTAP	46	0	3
BRTAP	46	144	0
BRTAP	46	144	5
NMTAP	46	240	6
NMTAP	46	288	5
NMTAP	46	336	4
NMHLD	47	0	3	72
NMHLD	47	72	2	72
NMTAP	47	144	1
NMSTR	47	192	0
NMSI_	47	192	0	96	48	4
NMTAP	47	192	7
NMTAP	47	288	0
NMTAP	47	288	4
NMHLD	47	336	5	96
NMSTR	48	48	6
NMSI_	48	48	6	96	48	1
NMTAP	48	144	6
NMSTR	48	192	4
NMSF_	48	192	4	96	48	0
BRTAP	48	288	4
NMSTR	49	0	1
NMSI_	49	0	1	96	48	4
NMSTR	49	48	7
NMSI_	49	48	7	96	48	3
NMTAP	49	96	1
NMTAP	49	144	7
NMHLD	49	192	2	72
NMHLD	49	264	1	72
NMTAP	49	336	0
NMSTR	50	0	6
NMSI_	50	0	6	96	48	3
NMSTR	50	48	0
NMSI_	50	48	0	96	48	4
NMTAP	50	96	6
NMTAP	50	144	0
NMHLD	50	192	5	72
NMHLD	50	264	6	72
NMTAP	50	336	7
EXHLD	51	0	0	72
NMHLD	51	72	1	72
NMTAP	51	144	2
EXHLD	51	192	6	72
NMHLD	51	264	5	72
NMTAP	51	336	4
NMTAP	52	0	3
NMTAP	52	0	5
NMTAP	52	96	2
NMTAP	52	144	2
NMTAP	52	192	3
NMTAP	52	192	4
BRTAP	52	288	1
BRTAP	52	288	5
NMSTR	53	0	6
NMSI_	53	0	6	96	48	3
NMSTR	53	48	0
NMSI_	53	48	0	96	48	4
NMTAP	53	96	6
NMTAP	53	144	0
NMHLD	53	192	5	72
NMHLD	53	264	6	72
NMTAP	53	336	7
NMSTR	54	0	1
NMSI_	54	0	1	96	48	4
NMSTR	54	48	7
NMSI_	54	48	7	96	48	3
NMTAP	54	96	1
NMTAP	54	144	7
NMHLD	54	192	2	72
NMHLD	54	264	1	72
NMTAP	54	336	0
EXHLD	55	0	6	72
NMHLD	55	72	5	72
NMTAP	55	144	4
EXHLD	55	192	3	72
NMHLD	55	264	2	72
NMTAP	55	336	1
EXTAP	56	0	0
EXTAP	56	0	4
EXTAP	56	144	2
EXTAP	56	144	7
EXTAP	56	288	1
EXTAP	56	288	5
BRSTR	56	336	3
NMSXR	56	336	3	96	144	3
BRSTR	56	336	7
NMSXR	56	336	7	96	144	7
BRTAP	57	288	1
BRTAP	57	288	5
EXTAP	58	0	0
EXSTR	58	0	7
NMSI_	58	0	7	96	48	3
NMTAP	58	96	0
NMTAP	58	96	7
NMTAP	58	144	1
NMTAP	58	192	2
NMSTR	58	192	3
NMSCL	58	192	3	96	48	0
NMTAP	58	264	4
NMTAP	58	288	3
NMTAP	58	336	5
NMSTR	59	0	6
NMSI_	59	0	6	96	48	1
NMTAP	59	0	7
NMSTR	59	96	2
NMSI_	59	96	2	96	48	7
NMTAP	59	96	6
NMTAP	59	192	2
NMTAP	59	192	3
NMTAP	59	240	3
NMTAP	59	288	4
NMTAP	59	288	7
NMTAP	59	336	0
NMTAP	59	336	5
NMTAP	60	0	1
EXSTR	60	0	6
NMSI_	60	0	6	96	48	3
NMTAP	60	96	2
NMTAP	60	96	6
NMTAP	60	144	1
NMSTR	60	192	0
NMSI_	60	192	0	96	48	4
NMTAP	60	192	2
NMTAP	60	264	7
NMTAP	60	288	0
NMTAP	60	336	5
NMTAP	61	0	4
NMSTR	61	0	6
NMSI_	61	0	6	96	48	2
NMSTR	61	96	0
NMSI_	61	96	0	96	48	3
NMTAP	61	96	6
NMTAP	61	192	0
NMTAP	61	192	5
NMTAP	61	288	2
NMTAP	61	288	4
NMTAP	61	336	1
EXSTR	62	0	0
NMSI_	62	0	0	96	48	4
EXTAP	62	0	7
NMTAP	62	96	0
NMTAP	62	96	7
NMTAP	62	144	6
NMSTR	62	192	4
NMSCR	62	192	4	96	48	7
NMTAP	62	192	5
NMTAP	62	264	3
NMTAP	62	288	4
NMTAP	62	336	2
NMTAP	63	0	0
NMSTR	63	0	1
NMSI_	63	0	1	96	48	6
NMTAP	63	96	1
NMSTR	63	96	5
NMSI_	63	96	5	96	48	0
NMTAP	63	192	4
NMTAP	63	192	5
NMTAP	63	288	2
NMTAP	63	336	4
EXTAP	64	0	1
EXTAP	64	0	5
EXTAP	64	48	2
EXTAP	64	48	6
EXTAP	64	96	3
EXTAP	64	96	7
EXTAP	64	144	0
EXSTR	64	144	4
NMSI_	64	144	4	96	48	0
NMTAP	64	240	4
EXTAP	64	288	7
NMTAP	64	300	6
NMTAP	64	312	5
NMTAP	64	324	4
NMTAP	64	336	3
NMTAP	64	348	2
NMTAP	64	360	1
NMTAP	64	372	0
BRSTR	65	0	7
NMSXL	65	0	7	96	144	3
NMSXR	65	0	7	96	144	3
BRTAP	65	288	1
BRTAP	65	288	5
NMTAP	66	0	2
NMTAP	66	0	4
NMTAP	66	48	1
NMTAP	66	96	0
NMTAP	66	96	7
NMTAP	66	144	6
NMTAP	66	192	5
NMTAP	66	216	4
NMTAP	66	240	5
NMTAP	66	264	4
NMTAP	66	288	5
NMTAP	66	312	4
NMTAP	66	336	5
NMTAP	67	0	2
NMTAP	67	32	2
NMTAP	67	64	2
NMTAP	67	96	4
NMTAP	67	128	4
NMTAP	67	160	4
NMTAP	67	192	1
NMTAP	67	216	0
NMTAP	67	240	7
NMTAP	67	264	6
NMTAP	67	288	5
NMTAP	67	312	4
NMTAP	67	336	3
NMHLD	68	0	7	48
NMHLD	68	48	1	48
NMTAP	68	96	3
NMTAP	68	120	2
NMTAP	68	144	3
NMTAP	68	168	2
NMTAP	68	192	4
NMTAP	68	224	4
NMTAP	68	256	4
NMHLD	68	288	3	96
NMTTP	69	0	7	A	0	M1
NMTTP	69	24	6	A	0	M1
NMTTP	69	48	5	A	0	M1
NMTTP	69	72	4	A	0	M1
NMTTP	69	96	3	A	0	M1
NMTTP	69	144	0	C	0	M1
NMTTP	69	192	0	D	0	M1
NMTTP	69	216	1	D	0	M1
NMTTP	69	240	2	D	0	M1
NMTTP	69	264	3	D	0	M1
NMTTP	69	288	4	D	0	M1
NMTAP	70	0	0
NMTAP	70	0	7
NMTAP	70	24	6
NMTAP	70	48	5
NMTAP	70	72	4
NMTAP	70	96	1
NMTAP	70	120	2
NMTAP	70	144	3
NMTAP	70	168	4
NMTAP	70	192	0
NMTAP	70	216	7
NMTAP	70	240	6
NMTAP	70	264	5
BRTAP	70	288	1
BRTAP	70	288	4
NMTAP	71	0	1
NMTAP	71	24	2
NMTAP	71	48	3
NMTAP	71	72	4
NMTAP	71	96	6
NMTAP	71	120	5
NMTAP	71	144	4
NMTAP	71	168	3
NMTAP	71	192	7
NMTAP	71	216	0
NMTAP	71	240	1
NMTAP	71	264	2
BRTAP	71	288	3
BRTAP	71	288	6
NMTAP	72	0	5
NMTAP	72	24	4
NMTAP	72	48	5
NMTAP	72	72	4
NMTAP	72	96	6
NMTAP	72	120	4
NMTAP	72	144	7
NMTAP	72	192	2
NMTAP	72	216	3
NMTAP	72	240	2
NMTAP	72	264	3
NMTAP	72	288	1
NMTAP	72	312	3
NMTAP	72	336	0
NMTAP	73	0	6
NMTAP	73	24	7
NMTAP	73	48	6
NMTAP	73	72	7
NMTAP	73	96	5
NMTAP	73	120	0
NMTAP	73	144	5
NMTAP	73	168	0
NMTAP	73	192	4
NMTAP	73	204	3
NMTAP	73	216	2
NMTAP	73	228	1
NMTAP	73	240	0
NMTAP	73	252	7
NMTAP	73	264	6
NMTAP	73	276	5
BRSTR	73	288	3
NMSCL	73	288	3	96	288	4
BRSTR	73	288	4
NMSCR	73	288	4	96	288	3
EXTAP	75	0	2
EXSTR	75	0	5
NMSXR	75	0	5	96	480	0
NMSTR	77	0	6
NMSXR	77	0	6	96	480	1
NMSTR	79	0	2
NMSXL	79	0	2	96	480	7
NMTAP	79	0	5
NMSTR	81	0	3
NMSXR	81	0	3	96	288	0
NMTTP	81	192	6	E	0	M1
NMTTP	81	192	6	D	0	M1
NMTAP	82	0	7
NMSTR	82	48	7
NMSI_	82	48	7	96	48	3
NMTAP	82	144	1
NMSTR	82	192	1
NMSI_	82	192	1	96	48	5
BRTAP	82	288	7
NMHLD	83	0	6	144
NMTAP	83	96	5
NMHLD	83	144	4	144
NMTAP	83	240	5
NMHLD	83	288	6	192
NMTAP	83	336	5
NMTAP	84	48	5
NMHLD	84	96	4	144
NMTAP	84	144	5
NMTAP	84	240	5
EXTAP	84	288	3
EXTAP	84	288	6
NMHLD	85	0	1	144
EXTAP	85	0	4
NMTAP	85	96	2
NMHLD	85	144	3	144
NMTAP	85	240	2
NMHLD	85	288	1	144
NMTAP	85	336	2
NMTAP	86	48	2
NMHLD	86	96	3	96
NMTAP	86	144	2
NMTAP	86	192	2
EXTAP	86	240	1
EXTAP	86	240	3
EXTAP	86	336	4
EXTAP	86	336	5
EXHLD	87	0	4	96
EXTAP	87	0	5
NMTAP	87	96	5
NMHLD	87	144	6	144
NMTAP	87	240	5
NMTAP	87	288	4
NMTAP	87	336	5
EXTAP	88	0	4
EXTAP	88	0	6
EXTAP	88	144	0
EXTAP	88	144	2
NMTAP	88	240	1
NMTAP	88	288	2
NMTAP	88	336	3
NMTAP	89	0	4
NMTAP	89	48	4
NMTAP	89	96	3
NMTAP	89	144	3
NMTAP	89	192	4
NMTAP	89	216	3
NMTAP	89	240	5
NMTAP	89	264	2
NMTAP	89	288	6
NMTAP	89	312	1
NMTAP	89	336	7
NMTAP	89	360	0
NMSTR	90	0	7
NMSCL	90	0	7	96	96	3
NMSCR	90	0	7	96	96	3
BRTAP	90	288	1
BRTAP	90	288	5
NMTAP	91	0	3
NMTAP	91	0	6
NMSTR	91	48	7
NMSI_	91	48	7	96	48	4
NMTAP	91	96	0
NMSTR	91	144	0
NMSI_	91	144	0	96	48	3
NMTAP	91	144	7
NMTAP	91	240	0
NMSTR	91	240	2
NMSI_	91	240	2	96	48	7
NMTAP	91	336	2
NMTAP	91	336	4
NMTAP	92	0	5
NMTAP	92	48	6
NMTAP	92	96	0
NMTAP	92	96	7
NMTAP	92	144	1
NMTAP	92	168	0
NMTAP	92	192	1
NMTAP	92	240	2
NMTAP	92	264	3
NMTAP	92	288	2
NMTAP	92	336	4
NMTAP	93	0	3
NMTAP	93	0	5
NMSTR	93	48	6
NMSI_	93	48	6	96	48	1
NMTAP	93	96	7
NMSTR	93	144	0
NMSI_	93	144	0	96	48	4
NMTAP	93	144	6
NMTAP	93	240	0
NMSTR	93	240	3
NMSI_	93	240	3	96	48	7
NMTAP	93	336	3
NMTAP	93	336	4
NMTAP	94	0	5
NMTAP	94	48	6
NMTAP	94	96	0
NMTAP	94	96	7
NMTAP	94	144	1
NMTAP	94	192	4
NMTAP	94	216	3
NMTAP	94	240	4
BRTAP	94	288	2
BRTAP	94	288	6
NMTAP	95	0	1
NMTAP	95	0	4
NMSTR	95	48	0
NMSI_	95	48	0	96	48	3
NMTAP	95	96	7
NMTAP	95	144	0
NMSTR	95	144	7
NMSI_	95	144	7	96	48	4
NMSTR	95	240	5
NMSI_	95	240	5	96	48	0
NMTAP	95	240	7
NMTAP	95	336	3
NMTAP	95	336	5
NMTAP	96	0	2
NMTAP	96	48	1
NMTAP	96	96	0
NMTAP	96	96	7
NMTAP	96	144	6
NMTAP	96	168	7
NMTAP	96	192	6
NMTAP	96	240	5
NMTAP	96	264	4
NMTAP	96	288	5
NMTAP	96	336	3
EXTAP	97	0	2
EXTAP	97	0	6
EXTAP	97	48	1
EXTAP	97	48	5
EXTAP	97	96	0
EXTAP	97	96	4
EXSTR	97	144	3
NMSI_	97	144	3	96	48	7
EXTAP	97	144	7
NMTAP	97	240	3
EXTAP	97	288	0
NMTAP	97	300	1
NMTAP	97	312	2
NMTAP	97	324	3
NMTAP	97	336	4
NMTAP	97	348	5
NMTAP	97	360	6
NMTAP	97	372	7
BRSTR	98	0	0
NMSXL	98	0	0	96	144	4
NMSXR	98	0	0	96	144	4
BRTAP	98	288	2
BRTAP	98	288	6
NMTAP	99	0	3
NMTAP	99	0	5
NMTAP	99	48	6
NMTAP	99	96	0
NMTAP	99	96	7
NMTAP	99	144	1
NMTAP	99	192	2
NMTAP	99	216	3
NMTAP	99	240	2
NMTAP	99	264	3
NMTAP	99	288	2
NMTAP	99	312	3
NMTAP	99	336	2
NMTAP	100	0	5
NMTAP	100	32	5
NMTAP	100	64	5
NMTAP	100	96	3
NMTAP	100	128	3
NMTAP	100	160	3
NMTAP	100	192	6
NMTAP	100	216	7
NMTAP	100	240	0
NMTAP	100	264	1
NMTAP	100	288	2
NMTAP	100	312	3
NMTAP	100	336	4
NMHLD	101	0	0	48
NMHLD	101	48	6	48
NMTAP	101	96	4
NMTAP	101	120	5
NMTAP	101	144	4
NMTAP	101	168	5
NMTAP	101	192	3
NMTAP	101	224	3
NMTAP	101	256	3
NMHLD	101	288	4	96
NMTTP	102	0	0	A	0	M1
NMTTP	102	24	1	A	0	M1
NMTTP	102	48	2	A	0	M1
NMTTP	102	72	3	A	0	M1
NMTTP	102	96	4	A	0	M1
NMTTP	102	144	0	C	0	M1
NMTTP	102	192	0	D	0	M1
NMTTP	102	216	7	D	0	M1
NMTTP	102	240	6	D	0	M1
NMTTP	102	264	5	D	0	M1
NMTTP	102	288	4	D	0	M1
NMTAP	103	0	0
NMTAP	103	0	7
NMTAP	103	24	1
NMTAP	103	48	2
NMTAP	103	72	3
NMTAP	103	96	6
NMTAP	103	120	5
NMTAP	103	144	4
NMTAP	103	168	3
NMTAP	103	192	7
NMTAP	103	216	0
NMTAP	103	240	1
NMTAP	103	264	2
BRTAP	103	288	3
BRTAP	103	288	6
NMTAP	104	0	6
NMTAP	104	24	5
NMTAP	104	48	4
NMTAP	104	72	3
NMTAP	104	96	1
NMTAP	104	120	2
NMTAP	104	144	3
NMTAP	104	168	4
NMTAP	104	192	0
NMTAP	104	216	7
NMTAP	104	240	6
NMTAP	104	264	5
BRTAP	104	288	1
BRTAP	104	288	4
NMTAP	105	0	2
NMTAP	105	24	3
NMTAP	105	48	2
NMTAP	105	72	3
NMTAP	105	96	1
NMTAP	105	120	3
NMTAP	105	144	0
NMTAP	105	192	5
NMTAP	105	216	4
NMTAP	105	240	5
NMTAP	105	264	4
NMTAP	105	288	6
NMTAP	105	312	4
NMTAP	105	336	7
NMTAP	106	0	1
NMTAP	106	24	0
NMTAP	106	48	1
NMTAP	106	72	0
NMTAP	106	96	2
NMTAP	106	120	7
NMTAP	106	144	2
NMTAP	106	168	7
NMTAP	106	192	3
NMTAP	106	216	6
NMTAP	106	240	3
NMTAP	106	264	6
NMTAP	106	288	4
NMTAP	106	312	5
NMTAP	106	336	4
NMTAP	106	360	5
BRTAP	107	0	3
BRTAP	107	0	6
NMTAP	107	96	1
NMTAP	107	96	4
NMTAP	107	144	0
NMTAP	107	192	6
NMTAP	107	216	7
NMTAP	107	240	6
NMTAP	107	264	7
NMTAP	107	288	5
NMTAP	107	312	4
NMTAP	107	336	5
NMTAP	107	360	4
NMTAP	108	0	6
NMTAP	108	32	6
NMTAP	108	64	6
NMTAP	108	96	0
NMTAP	108	128	0
NMTAP	108	160	0
NMTAP	108	192	3
NMTAP	108	216	1
NMTAP	108	240	4
NMTAP	108	264	2
NMTAP	108	288	5
NMTAP	108	312	3
NMTAP	108	336	6
NMTAP	108	360	4
NMHLD	109	0	7	48
NMHLD	109	48	1	48
NMTAP	109	96	6
NMTAP	109	120	0
NMTAP	109	144	6
NMTAP	109	168	0
NMTAP	109	192	5
NMTAP	109	224	5
NMTAP	109	256	5
NMHLD	109	288	3	48
NMHLD	109	288	4	48
NMTAP	110	0	2
NMTAP	110	24	3
NMTAP	110	48	2
NMTAP	110	72	3
NMTAP	110	96	1
NMTAP	110	144	0
NMTAP	110	144	7
NMTAP	110	192	5
NMTAP	110	216	4
NMTAP	110	240	5
NMTAP	110	264	4
BRTAP	110	288	3
BRTAP	110	288	6
NMTAP	111	0	2
NMTAP	111	0	4
NMTAP	111	24	1
NMTAP	111	48	0
NMTAP	111	72	7
NMTAP	111	96	5
NMTAP	111	120	6
NMTAP	111	144	7
NMTAP	111	168	0
NMTAP	111	192	4
NMTAP	111	216	3
NMTAP	111	240	2
NMTAP	111	264	1
BRTAP	111	288	0
BRTAP	111	288	5
NMTAP	112	0	1
NMTAP	112	0	4
NMTAP	112	24	5
NMTAP	112	48	6
NMTAP	112	72	7
NMTAP	112	96	3
NMTAP	112	120	2
NMTAP	112	144	1
NMTAP	112	168	0
NMTAP	112	192	3
NMTAP	112	216	4
NMTAP	112	240	5
NMTAP	112	264	6
BRTAP	112	288	2
BRTAP	112	288	7
NMTAP	113	0	0
NMTAP	113	24	3
NMTAP	113	48	2
NMTAP	113	72	5
NMTAP	113	96	3
NMTAP	113	120	4
NMHLD	113	144	1	48
NMTAP	113	192	7
NMTAP	113	216	4
NMTAP	113	240	5
NMTAP	113	264	2
NMTAP	113	288	4
NMTAP	113	312	3
NMHLD	113	336	6	48
NMTAP	114	0	1
NMTAP	114	24	3
NMTAP	114	48	2
NMTAP	114	72	4
NMTAP	114	96	3
NMTAP	114	120	5
NMTAP	114	144	4
NMTAP	114	168	6
NMSTR	114	192	0
NMSI_	114	192	0	96	48	4
NMTAP	114	216	7
NMTAP	114	240	2
NMTAP	114	264	5
BRTAP	114	288	0
NMTTP	114	289	0	C	1	M1

T_REC_TAP	624
T_REC_BRK	45
T_REC_XTP	74
T_REC_BXX	1
T_REC_HLD	38
T_REC_XHO	23
T_REC_BHO	0
T_REC_BXH	0
T_REC_STR	52
T_REC_BST	6
T_REC_XST	12
T_REC_XBS	0
T_REC_TTP	36
T_REC_THO	0
T_REC_SLD	74
T_REC_BSL	0
T_REC_ALL	985
T_NUM_TAP	798
T_NUM_BRK	52
T_NUM_HLD	61
T_NUM_SLD	74
T_NUM_ALL	985
T_JUDGE_TAP	850
T_JUDGE_HLD	175
T_JUDGE_SLD	74
T_JUDGE_ALL	1099
TTM_EACHPAIRS	164
TTM_SCR_TAP	399000
TTM_SCR_BRK	135200
TTM_SCR_HLD	61000
TTM_SCR_SLD	111000
TTM_SCR_ALL	706200
TTM_SCR_S	680000
TTM_SCR_SS	701000
TTM_RAT_ACV	10074

