VERSION	0.00.00	1.04.00
FES_MODE	0
BPM_DEF	190.000	190.000	190.000	190.000
MET_DEF	4	4
RESOLUTION	384
CLK_DEF	384
COMPATIBLE_CODE	MA2

BPM	0	0	190.000
MET	0	0	4	4

NMTTP	1	0	0	C	1	M1
NMTTP	1	0	1	B	0	M1
NMTTP	1	0	2	B	0	M1
NMTTP	1	0	5	B	0	M1
NMTTP	1	0	6	B	0	M1
NMTAP	4	0	3
NMTAP	4	0	4
NMTAP	4	192	3
NMTAP	4	192	4
NMHLD	5	0	2	384
NMHLD	6	0	3	384
NMHLD	7	0	4	384
NMHLD	8	0	5	384
NMTAP	9	0	4
NMTAP	9	96	4
NMTAP	9	288	3
NMTAP	9	288	5
NMTAP	10	96	2
NMTAP	10	96	4
NMTAP	10	288	3
NMTAP	10	288	5
NMTAP	11	96	2
NMTAP	11	96	3
NMTAP	11	288	4
NMTAP	11	288	5
NMTAP	12	96	2
NMTAP	12	96	3
EXTAP	12	288	3
EXTAP	12	288	4
BRTAP	13	0	2
BRTAP	13	0	5
NMTAP	13	96	2
NMTAP	13	96	5
NMTAP	13	288	1
NMTAP	13	288	4
NMTAP	14	96	3
NMTAP	14	96	6
NMTAP	14	288	1
NMTAP	14	288	4
EXTAP	15	0	1
EXTAP	15	0	4
EXTAP	15	192	3
EXTAP	15	192	6
NMSTR	16	0	3
NMSCL	16	0	3	96	96	0
NMSTR	16	0	4
NMSCR	16	0	4	96	96	7
BRTAP	16	288	1
BRTAP	16	288	6
NMTAP	17	0	2
NMTAP	17	0	5
NMTAP	17	96	3
NMTAP	17	192	1
NMTAP	17	192	4
NMTAP	17	288	0
NMHLD	18	0	1	96
NMTAP	18	96	3
NMTAP	18	192	2
NMTAP	18	240	2
EXTAP	18	288	4
NMHLD	19	0	5	96
NMTAP	19	96	4
NMTAP	19	192	3
NMTAP	19	192	6
NMTAP	19	288	7
NMHLD	20	0	6	96
NMTAP	20	96	4
NMTAP	20	192	5
NMTAP	20	240	5
NMTAP	20	288	4
NMHLD	21	0	2	96
NMHLD	21	96	1	96
NMTAP	21	192	0
NMTAP	21	288	0
NMTAP	21	288	7
NMHLD	22	0	6	96
NMHLD	22	96	5	96
NMTAP	22	192	4
NMTAP	22	288	3
NMTAP	22	288	4
NMTAP	23	0	2
NMTAP	23	48	2
NMTAP	23	96	4
NMTAP	23	144	4
NMTAP	23	192	3
NMTAP	23	240	3
NMSTR	23	288	5
NMSCL	23	288	5	96	192	2
NMTTP	25	0	0	C	1	M1
EXTAP	26	0	2
EXTAP	26	0	3
BXTAP	26	144	1
BXTAP	26	144	4
NMTTP	27	0	0	B	0	M1
NMTTP	27	0	0	C	1	M1
NMTTP	27	0	1	B	0	M1
NMTTP	27	0	6	B	0	M1
NMTTP	27	0	7	B	0	M1
EXTAP	28	0	4
EXTAP	28	0	5
EXTAP	28	144	3
EXTAP	28	144	6
EXTAP	28	240	2
EXTAP	28	240	5
EXTAP	28	336	1
EXTAP	28	336	4
BXTAP	29	0	1
BXTAP	29	0	4
EXTAP	29	240	4
EXTAP	29	240	5
EXTAP	29	336	3
EXTAP	29	336	6
EXTAP	30	0	3
EXTAP	30	0	6
EXTAP	30	144	2
EXTAP	30	144	5
EXTAP	30	240	3
EXTAP	30	240	4
EXTAP	30	288	3
EXTAP	30	288	4
EXHLD	31	0	3	96
EXHLD	31	0	4	96
EXTAP	31	144	3
EXTAP	31	144	4
EXTAP	31	240	4
EXTAP	31	240	5
EXTAP	31	336	3
EXTAP	31	336	4
EXTAP	32	48	2
EXTAP	32	48	3
BXTAP	32	144	1
BXTAP	32	144	4
BXTAP	32	192	1
BXTAP	32	192	4
NMHLD	33	0	1	288
NMTAP	33	96	0
NMTAP	33	288	0
NMHLD	34	0	6	288
NMTAP	34	96	7
NMTAP	34	288	7
EXTAP	35	0	5
NMTAP	35	96	4
NMTAP	35	96	5
NMTAP	35	288	3
EXHLD	36	0	2	96
EXHLD	36	0	3	96
EXTAP	36	144	2
EXTAP	36	144	3
EXTAP	36	288	1
EXTAP	36	288	4
EXTAP	36	336	1
EXTAP	36	336	4
EXTAP	37	0	1
EXTAP	37	0	4
NMTAP	37	96	2
NMTAP	37	144	2
NMTAP	37	192	3
NMTAP	37	240	3
NMTAP	37	288	2
NMTAP	38	0	1
NMTAP	38	0	4
NMTAP	38	96	5
NMTAP	38	144	5
NMTAP	38	192	4
NMTAP	38	240	4
NMTAP	38	288	5
EXHLD	39	0	3	96
EXHLD	39	0	6	96
EXTAP	39	144	3
EXTAP	39	144	6
EXTAP	39	240	1
EXTAP	39	336	7
EXTAP	40	48	5
EXTAP	40	144	1
EXTAP	40	144	7
BXTAP	40	192	1
BXTAP	40	192	7
NMTAP	41	0	3
NMTAP	41	0	5
NMTAP	41	96	1
NMHLD	41	144	1	96
NMTAP	41	240	3
NMTAP	41	336	6
NMTAP	41	336	7
NMTAP	42	48	4
NMTAP	42	48	5
NMTAP	42	144	3
NMTAP	42	144	6
NMTAP	42	240	5
NMTAP	42	288	5
NMTAP	42	336	4
NMTAP	43	0	6
NMTAP	43	96	7
NMHLD	43	144	7	96
NMTAP	43	240	1
NMTAP	43	336	2
NMTAP	43	336	6
NMTAP	44	48	2
NMTAP	44	48	3
NMTAP	44	144	1
NMTAP	44	144	4
NMTAP	44	240	0
NMTAP	44	288	0
EXTAP	45	0	1
EXTAP	45	0	7
NMTAP	45	96	2
NMTAP	45	96	6
NMTAP	45	144	2
NMTAP	45	144	6
NMTAP	45	240	3
NMTAP	45	288	3
NMTAP	45	336	4
EXTAP	46	0	2
NMTAP	46	96	1
NMTAP	46	96	5
NMTAP	46	144	1
NMTAP	46	144	5
NMTAP	46	240	0
NMTAP	46	288	0
NMHLD	47	0	6	72
NMHLD	47	72	5	72
EXTAP	47	144	4
EXTAP	47	192	4
EXTAP	47	288	2
EXTAP	47	288	3
EXTAP	47	336	2
EXTAP	47	336	3
NMTAP	48	48	0
NMTAP	48	48	1
EXTAP	48	144	2
EXTAP	48	144	7
BRTAP	48	192	2
BRTAP	48	192	7
NMHLD	49	0	6	96
NMHLD	49	96	4	96
NMHLD	49	192	3	96
NMTAP	49	288	1
NMHLD	50	0	1	96
NMHLD	50	96	3	96
NMHLD	50	192	4	96
NMTAP	50	288	6
NMSTR	51	0	7
NMSI_	51	0	7	96	96	3
NMSTR	51	192	1
NMSI_	51	192	1	96	96	5
NMTAP	52	0	6
NMTAP	52	96	6
NMTAP	52	192	6
NMTAP	52	192	7
EXTAP	52	288	0
EXTAP	52	288	5
NMHLD	53	0	5	96
NMHLD	53	96	7	96
NMHLD	53	192	0	96
NMTAP	53	288	2
NMTAP	54	0	1
NMTAP	54	0	3
NMTAP	54	96	3
NMTAP	54	96	4
NMTAP	54	192	6
NMTAP	54	240	6
NMTAP	54	288	4
NMHLD	55	0	3	72
NMHLD	55	0	5	72
NMTAP	55	144	2
NMTAP	55	144	4
NMHLD	55	192	2	72
NMHLD	55	192	4	72
EXTAP	55	336	5
EXTAP	56	0	4
EXTAP	56	0	5
EXTAP	56	96	2
EXTAP	56	144	2
EXTAP	56	144	3
EXTAP	56	240	1
EXTAP	56	240	6
EXTAP	56	288	1
EXTAP	56	288	6
EXSTR	56	336	1
NMSI_	56	336	1	96	96	4
EXSTR	56	336	6
NMSI_	56	336	6	96	96	3
EXTAP	57	288	3
EXTAP	57	288	4
EXTAP	57	336	3
EXTAP	57	336	4
EXTAP	58	0	3
EXTAP	58	0	4
BRTAP	58	96	0
BRTAP	58	96	7
NMHLD	58	192	1	72
NMHLD	58	264	2	72
NMTAP	58	336	3
NMTAP	59	0	3
NMTAP	59	96	1
NMTAP	59	96	5
NMTAP	59	192	4
NMTAP	59	192	6
NMTAP	59	288	3
NMTAP	59	336	3
NMTAP	60	0	3
NMTAP	60	0	5
NMTAP	60	96	1
NMTAP	60	96	7
NMHLD	60	192	6	72
NMHLD	60	264	5	72
NMTAP	60	336	4
NMTAP	61	0	4
NMTAP	61	96	2
NMTAP	61	96	6
NMTAP	61	192	1
NMTAP	61	192	3
NMTAP	61	288	0
NMTAP	61	288	6
NMTAP	61	336	0
NMTAP	61	336	6
NMTAP	62	0	0
NMTAP	62	0	6
NMTAP	62	96	3
NMTAP	62	96	5
NMHLD	62	192	2	72
NMHLD	62	264	1	72
NMTAP	62	336	0
NMTAP	63	0	0
NMTAP	63	96	1
NMTAP	63	96	7
NMTAP	63	192	6
NMTAP	63	240	4
NMTAP	63	288	5
NMTAP	63	336	3
EXTAP	64	0	2
EXTAP	64	0	4
EXTAP	64	48	2
EXTAP	64	48	4
EXTAP	64	96	2
EXTAP	64	96	4
EXTAP	64	144	2
EXTAP	64	144	4
EXTAP	64	240	1
EXTAP	64	240	5
EXTAP	64	336	0
EXTAP	64	336	7
EXSTR	65	0	0
NMSI_	65	0	0	96	96	4
EXSTR	65	0	7
NMSI_	65	0	7	96	96	3
BRTAP	65	288	2
BRTAP	65	288	5
NMTAP	66	0	1
NMTAP	66	48	1
NMTAP	66	96	4
NMTAP	66	144	4
NMTAP	66	192	3
NMTAP	66	240	3
NMTAP	66	288	5
NMTAP	66	336	5
NMHLD	67	0	5	96
NMHLD	67	96	7	96
NMHLD	67	192	0	96
NMTAP	67	288	2
NMTAP	68	0	7
NMTAP	68	48	7
NMTAP	68	96	0
NMTAP	68	144	0
NMTAP	68	192	5
NMTAP	68	240	5
NMTAP	68	288	1
NMTAP	68	336	1
NMTAP	69	0	7
NMTAP	69	48	7
NMTAP	69	96	3
NMTAP	69	144	3
NMTAP	69	192	4
NMTAP	69	240	4
NMTAP	69	288	2
NMTAP	69	288	4
NMTAP	70	0	1
NMTAP	70	48	1
NMTAP	70	96	7
NMTAP	70	144	7
NMTAP	70	192	2
NMTAP	70	240	2
NMTAP	70	288	6
NMTAP	70	336	6
NMTAP	71	0	0
NMTAP	71	48	0
NMTAP	71	96	4
NMTAP	71	144	4
NMTAP	71	192	1
NMTAP	71	240	1
NMTAP	71	288	1
NMTAP	71	288	3
EXTAP	72	0	4
EXTAP	72	0	5
EXTAP	72	48	4
EXTAP	72	48	5
EXTAP	72	96	4
EXTAP	72	96	5
EXTAP	72	144	4
EXTAP	72	144	5
EXTAP	72	240	6
EXTAP	72	240	7
EXTAP	72	336	0
EXTAP	72	336	1
EXTAP	73	48	2
EXTAP	73	48	3
EXTAP	73	144	4
EXTAP	73	192	4
NMSTR	73	288	3
NMSF_	73	288	3	96	192	7
NMTAP	73	288	5
NMTTP	75	0	0	C	1	M1
NMTTP	75	0	1	B	0	M1
NMTTP	75	0	2	B	0	M1
NMTTP	75	0	4	B	0	M1
NMTTP	75	0	5	B	0	M1
NMTTP	77	0	0	E	0	M1
NMTTP	77	192	0	C	0	M1
NMTTP	78	0	4	E	0	M1
NMTTP	78	192	3	E	0	M1
NMTTP	78	192	5	E	0	M1
NMTHO	79	0	0	384	C	0	M1
NMTTP	79	0	2	B	0	M1
NMTTP	79	0	5	B	0	M1
NMTHO	81	0	0	384	C	1	M1
NMTTP	81	0	1	B	0	M1
NMTTP	81	0	6	B	0	M1
EXTAP	82	240	0
EXTAP	82	240	7
EXTAP	82	288	0
EXTAP	82	288	7
NMSTR	83	0	1
NMSCR	83	0	1	96	192	4
NMTAP	83	288	5
NMSTR	84	0	5
NMSCR	84	0	5	96	192	0
EXTAP	84	288	1
NMSTR	85	0	2
NMSCR	85	0	2	96	192	5
NMTAP	85	288	6
NMSTR	86	0	6
NMSCR	86	0	6	96	192	1
NMTAP	86	288	2
NMHLD	87	0	2	192
NMHLD	87	0	3	192
NMTAP	87	288	4
NMHLD	88	0	3	192
NMHLD	88	0	5	192
NMTAP	88	288	3
NMTAP	88	288	5
NMTAP	89	0	4
NMTAP	89	48	4
NMTAP	89	96	3
NMTAP	89	144	3
EXTAP	89	240	3
EXTAP	89	240	4
EXSTR	89	288	3
NMSLR	89	288	3	96	192	0
EXSTR	89	288	4
NMSLL	89	288	4	96	192	7
NMTAP	90	288	1
NMTAP	90	288	6
BRTAP	91	0	1
BRTAP	91	0	6
NMTAP	91	96	2
NMTAP	91	96	3
NMTAP	91	144	2
NMTAP	91	144	3
NMTAP	91	240	0
NMTAP	91	240	1
NMTAP	91	336	2
NMTAP	91	336	7
NMTAP	92	0	2
NMTAP	92	0	7
NMTAP	92	96	4
NMTAP	92	96	5
NMTAP	92	192	0
NMTAP	92	192	6
NMTAP	92	288	2
NMTAP	92	288	3
NMTAP	93	0	1
NMTAP	93	0	7
NMTAP	93	96	3
NMTAP	93	96	5
NMTAP	93	144	3
NMTAP	93	144	5
NMTAP	93	240	6
NMTAP	93	240	7
NMTAP	93	336	0
NMTAP	93	336	5
NMTAP	94	0	0
NMTAP	94	0	5
NMTAP	94	96	2
NMTAP	94	96	3
NMTAP	94	192	0
NMTAP	94	192	7
NMTAP	94	288	5
NMTAP	94	336	5
NMTAP	95	0	1
NMTAP	95	0	5
NMTAP	95	96	2
NMTAP	95	96	6
NMTAP	95	144	2
NMTAP	95	144	6
NMTAP	95	240	0
NMTAP	95	240	1
NMTAP	95	336	2
NMTAP	95	336	3
NMTAP	96	0	2
NMTAP	96	0	3
NMTAP	96	96	4
NMTAP	96	96	6
NMTAP	96	192	0
NMTAP	96	192	7
NMTAP	96	288	1
NMTAP	96	288	5
EXTAP	97	0	3
EXTAP	97	0	7
EXTAP	97	48	3
EXTAP	97	48	7
EXTAP	97	96	3
EXTAP	97	96	7
EXTAP	97	144	3
EXTAP	97	144	7
EXTAP	97	240	4
EXTAP	97	240	5
EXTAP	97	288	4
EXTAP	97	288	5
BRTAP	98	0	1
BRTAP	98	0	6
NMTAP	98	144	2
NMTAP	98	144	5
NMTAP	98	192	2
NMTAP	98	192	5
NMTAP	98	288	3
NMTAP	98	288	4
NMTAP	99	0	2
NMTAP	99	48	2
NMTAP	99	96	4
NMTAP	99	144	4
NMTAP	99	192	0
NMTAP	99	240	0
NMTAP	99	288	3
NMTAP	99	336	3
NMTAP	100	0	2
NMTAP	100	48	4
NMTAP	100	96	3
NMTAP	100	144	5
NMTAP	100	192	1
NMTAP	100	240	3
NMTAP	100	288	2
NMTAP	100	288	4
NMTAP	101	0	5
NMTAP	101	48	5
NMTAP	101	96	1
NMTAP	101	144	1
NMTAP	101	192	7
NMTAP	101	240	7
NMTAP	101	288	4
NMTAP	101	336	4
NMTAP	102	0	5
NMTAP	102	48	3
NMTAP	102	96	4
NMTAP	102	144	2
NMTAP	102	192	6
NMTAP	102	240	4
NMTAP	102	288	3
NMTAP	102	288	5
NMTAP	103	0	3
NMTAP	103	48	3
NMTAP	103	96	5
NMTAP	103	144	5
NMTAP	103	192	0
NMTAP	103	240	0
NMTAP	103	288	3
NMTAP	103	336	3
NMTAP	104	0	2
NMTAP	104	48	4
NMTAP	104	96	3
NMTAP	104	144	5
NMTAP	104	192	1
NMTAP	104	240	3
NMTAP	104	288	2
NMTAP	104	288	4
NMTAP	105	0	0
NMTAP	105	48	0
NMTAP	105	96	7
NMTAP	105	144	7
NMTAP	105	192	4
NMTAP	105	240	4
NMTAP	105	288	6
NMTAP	105	336	6
EXSTR	106	0	4
NMSF_	106	0	4	96	96	0
EXTAP	106	288	2
EXTAP	106	288	6
NMTAP	107	0	3
NMTAP	107	48	3
NMTAP	107	96	5
NMTAP	107	144	5
NMTAP	107	192	0
NMTAP	107	240	0
NMTAP	107	288	3
NMTAP	107	336	3
NMTAP	108	0	1
NMTAP	108	48	7
NMTAP	108	96	2
NMTAP	108	144	7
NMTAP	108	192	0
NMTAP	108	240	6
NMTAP	108	288	5
NMTAP	108	288	7
NMTAP	109	0	5
NMTAP	109	48	5
NMTAP	109	96	3
NMTAP	109	144	3
NMTAP	109	192	7
NMTAP	109	240	7
NMTAP	109	288	4
NMTAP	109	336	4
NMTAP	110	0	6
NMTAP	110	48	0
NMTAP	110	96	5
NMTAP	110	144	0
NMTAP	110	192	7
NMTAP	110	240	1
NMTAP	110	288	0
NMTAP	110	288	2
NMTAP	111	0	7
NMTAP	111	48	7
NMTAP	111	96	4
NMTAP	111	144	4
NMTAP	111	192	5
NMTAP	111	240	5
NMTAP	111	288	0
NMTAP	111	336	0
NMTAP	112	0	3
NMTAP	112	48	3
NMTAP	112	96	1
NMTAP	112	144	1
NMTAP	112	192	7
NMTAP	112	240	7
EXTAP	112	288	0
EXTAP	112	288	7
NMTAP	113	0	1
NMTAP	113	0	6
NMTAP	113	48	1
NMTAP	113	48	6
NMTAP	113	96	1
NMTAP	113	96	6
NMTAP	113	144	1
NMTAP	113	144	6
NMTAP	113	192	0
NMTAP	113	240	0
NMTAP	113	288	7
NMTAP	113	336	7
NMTAP	114	0	0
NMTAP	114	24	7
NMTAP	114	48	0
NMTAP	114	72	7
NMTAP	114	96	0
NMTAP	114	120	7
NMTAP	114	144	0
NMTAP	114	168	7
NMTAP	114	192	0
BRTAP	114	288	1
BRTAP	114	288	6

T_REC_TAP	398
T_REC_BRK	16
T_REC_XTP	133
T_REC_BXX	10
T_REC_HLD	43
T_REC_XHO	6
T_REC_BHO	0
T_REC_BXH	0
T_REC_STR	10
T_REC_BST	0
T_REC_XST	7
T_REC_XBS	0
T_REC_TTP	25
T_REC_THO	2
T_REC_SLD	17
T_REC_BSL	0
T_REC_ALL	667
T_NUM_TAP	573
T_NUM_BRK	26
T_NUM_HLD	51
T_NUM_SLD	17
T_NUM_ALL	667
T_JUDGE_TAP	599
T_JUDGE_HLD	154
T_JUDGE_SLD	17
T_JUDGE_ALL	770
TTM_EACHPAIRS	172
TTM_SCR_TAP	286500
TTM_SCR_BRK	67600
TTM_SCR_HLD	51000
TTM_SCR_SLD	25500
TTM_SCR_ALL	430600
TTM_SCR_S	415200
TTM_SCR_SS	428000
TTM_RAT_ACV	10060

