VERSION	0.00.00	1.04.00
FES_MODE	0
BPM_DEF	190.000	190.000	190.000	190.000
MET_DEF	4	4
RESOLUTION	384
CLK_DEF	384
COMPATIBLE_CODE	MA2

BPM	0	0	190.000
MET	0	0	4	4

NMHLD	1	0	2	384
NMHLD	3	0	3	384
NMHLD	5	0	4	384
NMHLD	7	0	5	384
NMTAP	9	0	6
NMTAP	9	192	6
NMTAP	10	0	5
NMTAP	10	192	5
NMTAP	11	0	4
NMTAP	11	192	4
NMTAP	12	0	3
NMTAP	12	192	3
NMTAP	13	0	2
NMTAP	13	192	2
NMTAP	14	0	1
NMTAP	14	192	1
NMTAP	15	0	0
NMTAP	15	192	0
NMTAP	16	0	0
NMTAP	16	0	7
NMTAP	16	96	0
NMTAP	16	96	7
BRTAP	16	192	0
BRTAP	16	192	7
NMTAP	17	0	1
NMTAP	17	96	1
NMTAP	17	192	0
NMTAP	17	192	1
NMTAP	18	0	2
NMTAP	18	96	2
NMTAP	18	192	2
NMTAP	18	192	3
NMTAP	19	0	5
NMTAP	19	96	5
NMTAP	19	192	4
NMTAP	19	192	5
NMTAP	20	0	6
NMTAP	20	96	6
NMTAP	20	192	6
NMTAP	20	192	7
NMTAP	21	0	4
NMTAP	21	0	5
NMTAP	21	96	4
NMTAP	21	96	5
NMTAP	21	192	4
NMTAP	21	192	5
NMTAP	22	0	2
NMTAP	22	0	3
NMTAP	22	96	2
NMTAP	22	96	3
NMTAP	22	192	2
NMTAP	22	192	3
NMTAP	23	0	1
NMTAP	23	96	1
NMTAP	23	192	0
EXTAP	23	288	0
EXTAP	23	288	7
EXTAP	24	0	0
EXTAP	24	0	7
NMHLD	25	0	6	192
NMHLD	25	192	5	192
NMHLD	26	0	4	192
NMTAP	26	192	3
NMHLD	27	0	1	192
NMHLD	27	192	2	192
NMHLD	28	0	3	192
NMTAP	28	192	4
NMHLD	29	0	5	192
NMTAP	29	192	4
NMHLD	30	0	2	192
NMTAP	30	192	3
NMTAP	31	0	4
NMTAP	31	96	4
NMTAP	31	192	4
NMTAP	32	0	3
NMTAP	32	0	5
NMTAP	32	96	3
NMTAP	32	96	5
NMTAP	32	192	3
NMTAP	32	192	5
NMSTR	33	0	6
NMSI_	33	0	6	96	288	3
NMSTR	35	0	1
NMSI_	35	0	1	96	288	4
NMSTR	37	0	6
NMSI_	37	0	6	96	288	2
NMSTR	39	0	1
NMSI_	39	0	1	96	288	5
NMTAP	41	0	6
NMTAP	41	96	6
NMTAP	41	192	7
NMTAP	41	288	7
NMTAP	42	0	0
NMTAP	42	0	1
NMTAP	42	96	0
NMTAP	42	96	1
NMTAP	42	192	0
NMTAP	42	192	1
NMTAP	43	0	1
NMTAP	43	96	1
NMTAP	43	192	0
NMTAP	43	288	0
NMTAP	44	0	6
NMTAP	44	0	7
NMTAP	44	96	6
NMTAP	44	96	7
NMTAP	44	192	6
NMTAP	44	192	7
NMTAP	45	0	5
NMTAP	45	96	5
NMTAP	45	192	4
NMTAP	45	288	4
NMTAP	46	0	2
NMTAP	46	0	3
NMTAP	46	96	2
NMTAP	46	96	3
NMTAP	46	192	2
NMTAP	46	192	3
NMTAP	47	0	2
NMTAP	47	96	2
NMTAP	47	192	3
NMTAP	47	288	3
EXTAP	48	0	4
EXTAP	48	0	5
EXTAP	48	96	4
EXTAP	48	96	5
EXTAP	48	192	4
EXTAP	48	192	5
NMTTP	49	0	6	B	0	L1
NMTTP	49	96	5	B	0	L1
NMTTP	49	192	4	B	0	L1
NMTTP	50	0	1	B	0	L1
NMTTP	50	96	2	B	0	L1
NMTTP	50	192	3	B	0	L1
NMTTP	51	0	5	B	0	L1
NMTTP	51	96	4	B	0	L1
NMTTP	51	192	3	B	0	L1
NMTTP	51	288	2	B	0	L1
NMTHO	52	0	0	192	C	0	L1
NMTTP	53	0	1	B	0	L1
NMTTP	53	96	2	B	0	L1
NMTTP	53	192	3	B	0	L1
NMTTP	54	0	6	B	0	L1
NMTTP	54	96	5	B	0	L1
NMTTP	54	192	4	B	0	L1
NMTTP	55	0	1	B	0	L1
NMTTP	55	96	2	B	0	L1
NMTTP	55	192	3	B	0	L1
NMTTP	55	288	4	B	0	L1
NMTTP	56	0	5	B	0	L1
NMTTP	56	144	0	B	0	L1
NMTTP	56	144	1	B	0	L1
NMTTP	56	288	0	C	1	L1
NMTTP	56	288	6	B	0	L1
NMTTP	56	288	7	B	0	L1
NMTAP	58	0	1
NMTAP	58	96	1
NMTAP	58	192	0
NMTAP	58	192	1
NMTAP	58	288	0
NMTAP	58	288	1
NMTAP	59	0	2
NMTAP	59	96	2
NMTAP	59	192	2
NMTAP	59	192	3
NMTAP	59	288	2
NMTAP	59	288	3
NMTAP	60	0	5
NMTAP	60	96	5
NMTAP	60	192	4
NMTAP	60	192	5
NMTAP	60	288	4
NMTAP	60	288	5
NMTAP	61	0	6
NMTAP	61	0	7
NMTAP	61	96	6
NMTAP	61	96	7
NMTAP	61	192	6
NMTAP	61	192	7
NMTAP	62	0	6
NMTAP	62	96	6
NMTAP	62	192	6
NMTAP	62	192	7
NMTAP	62	288	6
NMTAP	62	288	7
NMTAP	63	0	5
NMTAP	63	96	5
NMTAP	63	192	4
NMTAP	63	192	5
NMTAP	63	288	4
NMTAP	63	288	5
NMTAP	64	0	2
NMTAP	64	96	2
NMTAP	64	192	2
NMTAP	64	192	3
NMTAP	64	288	2
NMTAP	64	288	3
NMHLD	65	0	0	192
NMHLD	65	0	1	192
NMTAP	66	0	2
NMTAP	66	96	2
NMTAP	66	192	0
NMTAP	66	192	1
NMTAP	66	288	0
NMTAP	66	288	1
NMTAP	67	0	7
NMTAP	67	96	7
NMTAP	67	192	6
NMTAP	67	192	7
NMTAP	67	288	6
NMTAP	67	288	7
NMTAP	68	0	5
NMTAP	68	96	5
NMTAP	68	192	6
NMTAP	68	192	7
NMTAP	68	288	6
NMTAP	68	288	7
NMTAP	69	0	0
NMTAP	69	96	0
NMTAP	69	192	0
NMTAP	69	192	1
NMTAP	69	288	0
NMTAP	69	288	1
NMTAP	70	0	2
NMTAP	70	96	2
NMTAP	70	192	2
NMTAP	70	192	3
NMTAP	70	288	2
NMTAP	70	288	3
NMTAP	71	0	4
NMTAP	71	96	4
NMTAP	71	192	4
NMTAP	71	192	5
NMTAP	71	288	4
NMTAP	71	288	5
NMTAP	72	0	6
NMTAP	72	96	6
NMTAP	72	192	4
NMTAP	72	192	5
NMTAP	72	288	4
NMTAP	72	288	5
NMTAP	73	0	3
NMTAP	73	0	4
NMTAP	73	96	3
NMTAP	73	96	4
NMTAP	73	192	2
NMTAP	73	192	5
EXTAP	73	288	2
EXTAP	73	288	5
NMSTR	75	0	6
NMSI_	75	0	6	96	288	3
NMSTR	77	0	1
NMSI_	77	0	1	96	288	4
NMSTR	79	0	5
NMSI_	79	0	5	96	288	0
NMSTR	81	0	2
NMSI_	81	0	2	96	288	7
NMHLD	83	0	5	384
NMHLD	84	0	4	384
NMHLD	85	0	3	384
NMTAP	86	0	2
NMHLD	87	0	2	192
NMHLD	87	192	3	192
NMHLD	88	0	4	192
NMTAP	88	192	5
NMTAP	89	0	6
NMTAP	89	192	6
BRTAP	90	0	0
BRTAP	90	0	7
NMTAP	91	0	6
NMTAP	91	96	6
NMTAP	91	192	4
NMTAP	91	192	5
NMTAP	91	288	4
NMTAP	91	288	5
NMTAP	92	0	3
NMTAP	92	96	3
NMTAP	92	192	2
NMTAP	92	192	3
NMTAP	92	288	2
NMTAP	92	288	3
NMTAP	93	0	1
NMTAP	93	96	1
NMTAP	93	192	2
NMTAP	93	192	3
NMTAP	93	288	2
NMTAP	93	288	3
NMTAP	94	0	4
NMTAP	94	96	4
NMTAP	94	192	4
NMTAP	94	192	5
NMTAP	94	288	4
NMTAP	94	288	5
NMTAP	95	0	6
NMTAP	95	96	6
NMTAP	95	192	4
NMTAP	95	192	5
NMTAP	95	288	4
NMTAP	95	288	5
NMTAP	96	0	3
NMTAP	96	96	3
NMTAP	96	192	2
NMTAP	96	192	3
NMTAP	96	288	2
NMTAP	96	288	3
NMTAP	97	0	1
NMTAP	97	96	1
NMTAP	97	192	0
NMTAP	97	192	7
NMTAP	97	288	0
NMTAP	97	288	7
NMHLD	98	0	0	192
NMHLD	98	0	7	192
NMTAP	99	0	6
NMTAP	99	96	6
NMTAP	99	192	6
NMTAP	99	192	7
NMTAP	99	288	6
NMTAP	99	288	7
NMTAP	100	0	5
NMTAP	100	96	4
NMTAP	100	192	3
NMTAP	100	288	2
NMTAP	101	0	1
NMTAP	101	96	1
NMTAP	101	192	0
NMTAP	101	192	1
NMTAP	101	288	0
NMTAP	101	288	1
NMTAP	102	0	7
NMTAP	102	96	7
NMTAP	102	192	0
NMTAP	102	192	7
NMTAP	103	0	1
NMTAP	103	96	1
NMTAP	103	192	0
NMTAP	103	192	1
NMTAP	103	288	0
NMTAP	103	288	1
NMTAP	104	0	2
NMTAP	104	96	3
NMTAP	104	192	4
NMTAP	104	288	5
NMTAP	105	0	6
NMTAP	105	96	6
NMTAP	105	192	6
NMTAP	105	192	7
NMTAP	105	288	6
NMTAP	105	288	7
NMTAP	106	0	0
NMTAP	106	96	0
NMTAP	106	192	0
NMTAP	106	192	7
NMTAP	107	0	7
NMTAP	107	96	6
NMTAP	107	192	5
NMTAP	107	288	4
NMTAP	108	0	2
NMTAP	108	0	3
NMTAP	108	96	2
NMTAP	108	96	3
NMTAP	108	192	0
NMTAP	108	192	1
NMTAP	108	288	0
NMTAP	108	288	1
NMTAP	109	0	0
NMTAP	109	96	1
NMTAP	109	192	2
NMTAP	109	288	3
NMTAP	110	0	4
NMTAP	110	0	5
NMTAP	110	96	4
NMTAP	110	96	5
NMTAP	110	192	6
NMTAP	110	192	7
NMTAP	110	288	6
NMTAP	110	288	7
NMTAP	111	0	7
NMTAP	111	96	6
NMTAP	111	192	5
NMTAP	111	288	4
NMTAP	112	0	2
NMTAP	112	0	3
NMTAP	112	96	2
NMTAP	112	96	3
NMTAP	112	192	0
NMTAP	112	192	1
NMTAP	112	288	0
NMTAP	112	288	1
NMTAP	113	0	0
NMTAP	113	96	1
NMTAP	113	192	2
NMTAP	113	288	3
NMTAP	114	0	4
NMTAP	114	96	5
NMTAP	114	192	6
NMTAP	114	288	0
NMTAP	114	288	7
BRTAP	115	0	1
BRTAP	115	0	6

T_REC_TAP	317
T_REC_BRK	6
T_REC_XTP	12
T_REC_BXX	0
T_REC_HLD	22
T_REC_XHO	0
T_REC_BHO	0
T_REC_BXH	0
T_REC_STR	8
T_REC_BST	0
T_REC_XST	0
T_REC_XBS	0
T_REC_TTP	26
T_REC_THO	1
T_REC_SLD	8
T_REC_BSL	0
T_REC_ALL	400
T_NUM_TAP	363
T_NUM_BRK	6
T_NUM_HLD	23
T_NUM_SLD	8
T_NUM_ALL	400
T_JUDGE_TAP	369
T_JUDGE_HLD	120
T_JUDGE_SLD	8
T_JUDGE_ALL	497
TTM_EACHPAIRS	104
TTM_SCR_TAP	181500
TTM_SCR_BRK	15600
TTM_SCR_HLD	23000
TTM_SCR_SLD	12000
TTM_SCR_ALL	232100
TTM_SCR_S	224600
TTM_SCR_SS	231500
TTM_RAT_ACV	10025

