VERSION	0.00.00	1.04.00
FES_MODE	0
BPM_DEF	170.000	170.000	170.000	170.000
MET_DEF	4	4
RESOLUTION	384
CLK_DEF	384
COMPATIBLE_CODE	MA2

BPM	0	0	170.000
MET	0	0	4	4

NMTAP	1	0	3
NMTAP	1	96	3
NMTAP	1	192	3
NMTAP	1	216	4
NMTAP	1	240	3
NMTAP	1	288	2
NMTAP	1	288	5
EXHLD	2	0	1	672
EXSTR	2	0	4
NMSCR	2	0	4	96	288	7
CNSSL	3	0	7	0	288	3
EXTAP	4	0	2
EXTAP	4	0	5
EXSTR	4	96	3
NMSCL	4	96	3	96	240	0
EXHLD	4	96	6	576
CNSSR	5	48	0	0	240	4
EXHLD	6	0	2	672
EXSTR	6	0	4
NMSCR	6	0	4	96	288	7
CNSXL	7	0	7	0	288	3
EXTAP	8	0	3
EXTAP	8	0	4
EXSTR	8	96	4
NMSXR	8	96	4	96	336	1
EXSTR	8	96	5
NMSXL	8	96	5	96	336	0
NMTAP	9	240	7
NMTAP	9	264	0
BXTAP	9	288	7
EXHLD	10	0	5	96
NMHLD	10	96	4	96
NMHLD	10	192	3	144
NMTAP	10	288	2
NMSTR	10	336	2
NMSI_	10	336	2	96	48	5
NMTAP	11	48	6
NMSTR	11	96	6
NMSI_	11	96	6	96	48	3
NMTAP	11	192	1
NMTAP	11	288	0
NMTAP	11	336	1
NMHLD	12	0	2	96
NMHLD	12	96	3	96
NMHLD	12	192	4	144
NMTAP	12	288	5
NMSTR	12	336	5
NMSI_	12	336	5	96	48	2
NMSTR	13	48	1
NMSI_	13	48	1	96	48	4
NMTAP	13	144	6
NMTAP	13	240	5
NMTAP	13	288	3
NMTAP	13	288	5
EXHLD	14	0	2	96
NMHLD	14	96	3	96
NMHLD	14	192	4	144
NMTAP	14	288	5
NMSTR	14	336	5
NMSI_	14	336	5	96	48	2
NMTAP	15	48	1
NMSTR	15	96	1
NMSI_	15	96	1	96	48	4
NMTAP	15	192	6
NMTAP	15	288	7
NMTAP	15	336	6
NMHLD	16	0	5	96
NMHLD	16	96	4	96
NMSTR	16	192	3
NMSCR	16	192	3	96	96	7
NMTAP	16	288	2
NMTAP	16	336	2
NMTAP	17	0	1
NMTAP	17	48	1
NMTAP	17	96	0
NMTAP	17	96	1
NMTAP	17	192	2
NMTAP	17	192	3
NMTAP	17	288	1
NMTAP	17	288	5
EXTAP	18	0	7
NMTAP	18	48	7
NMSTR	18	96	7
NMSXR	18	96	7	96	144	7
NMTAP	18	192	0
NMTAP	18	240	0
NMTAP	18	336	1
NMTAP	19	48	2
NMTAP	19	48	3
NMSTR	19	96	2
BRSXR	19	96	2	96	144	2
NMTAP	19	96	3
NMTAP	19	192	4
NMTAP	19	240	4
NMTAP	19	336	5
NMSTR	20	0	4
BRSUL	20	0	4	96	144	7
NMSTR	20	48	3
NMSUR	20	48	3	96	96	0
NMHLD	20	336	2	336
NMTTP	21	48	4	E	0	M1
NMTTP	21	96	5	E	0	M1
NMTTP	21	144	6	E	0	M1
NMTTP	21	192	7	E	0	M1
NMTTP	21	240	0	E	0	M1
NMTTP	21	288	1	E	0	M1
EXTAP	22	0	3
NMTAP	22	48	3
NMTAP	22	96	3
NMTAP	22	96	4
NMTAP	22	192	4
NMTAP	22	192	6
NMTAP	22	240	4
NMHLD	22	240	6	480
NMTAP	22	336	5
NMTAP	23	48	7
NMTAP	23	96	0
NMSTR	23	144	1
NMSUR	23	144	1	96	96	7
NMTAP	24	48	0
NMTAP	24	96	1
NMTAP	24	144	2
NMTAP	24	192	2
NMTAP	24	192	3
NMTAP	24	288	1
NMTAP	24	288	5
NMHLD	24	336	1	96
NMSTR	24	336	5
NMSI_	24	336	5	96	48	1
NMTAP	25	192	2
NMTAP	25	216	3
NMTAP	25	240	2
NMTAP	25	288	1
NMTAP	25	288	4
EXTAP	26	0	0
NMTAP	26	48	0
NMSTR	26	96	0
NMSSL	26	96	0	96	96	4
NMTAP	26	192	5
NMTAP	26	240	5
NMHLD	26	336	6	144
NMTAP	27	48	7
NMSTR	27	96	7
NMSSL	27	96	7	96	96	3
NMTAP	27	192	4
NMTAP	27	240	4
NMTAP	27	336	5
NMTAP	28	0	3
NMTAP	28	0	4
NMTAP	28	48	2
NMTAP	28	96	2
NMTAP	28	96	3
NMTAP	28	144	1
NMTAP	28	192	0
NMTAP	28	192	1
NMTAP	28	240	0
NMTAP	28	240	7
NMHLD	28	336	5	336
NMTTP	29	48	4	E	0	M1
NMTTP	29	96	3	E	0	M1
NMTTP	29	144	2	E	0	M1
NMTTP	29	192	1	E	0	M1
NMTTP	29	240	0	E	0	M1
NMTTP	29	288	7	E	0	M1
EXTAP	30	0	4
NMTAP	30	48	4
NMTAP	30	96	3
NMTAP	30	96	5
NMTAP	30	192	2
NMTAP	30	192	6
NMTAP	30	240	2
NMTAP	30	240	6
NMTAP	30	336	0
NMSTR	30	336	7
NMSXR	30	336	7	96	288	4
NMTAP	31	48	1
NMTAP	31	96	1
NMSTR	31	144	0
NMSCR	31	144	0	96	96	4
NMTAP	32	48	3
NMTAP	32	48	5
NMTAP	32	96	2
NMTAP	32	96	6
NMTAP	32	192	1
NMTAP	32	192	5
NMTAP	32	240	0
NMTAP	32	240	4
BRSTR	32	336	3
NMSCR	32	336	3	96	48	6
BRSTR	32	336	7
NMSCR	32	336	7	96	48	2
NMTAP	33	192	3
NMTAP	33	192	7
NMTAP	33	288	1
NMTAP	33	288	5
EXHLD	34	0	2	192
EXTAP	34	0	3
NMTAP	34	96	4
NMTAP	34	192	5
NMTTP	34	288	2	B	0	M1
NMTAP	34	288	6
NMHLD	35	0	3	192
NMTAP	35	0	4
NMTAP	35	96	5
NMTAP	35	192	6
NMTTP	35	288	3	B	0	M1
NMTAP	35	288	7
NMHLD	36	0	4	192
NMTAP	36	0	5
NMTAP	36	96	6
NMTAP	36	192	7
NMTAP	36	288	0
NMTTP	36	288	4	B	0	M1
NMTAP	37	0	2
NMTAP	37	0	3
NMTAP	37	96	0
NMTAP	37	96	1
NMTAP	37	192	0
NMTAP	37	192	7
NMTAP	37	288	6
NMTAP	37	312	7
NMTAP	37	336	6
EXTAP	38	0	4
EXHLD	38	0	5	192
NMTAP	38	96	3
NMTAP	38	192	2
NMTAP	38	288	1
NMTTP	38	288	5	B	0	M1
NMTAP	39	0	3
NMHLD	39	0	4	192
NMTAP	39	96	2
NMTAP	39	192	1
NMTAP	39	288	0
NMTTP	39	288	4	B	0	M1
NMTAP	40	0	2
NMHLD	40	0	3	192
NMTAP	40	96	1
NMTAP	40	192	0
NMTTP	40	288	3	B	0	M1
NMTAP	40	288	7
EXTAP	41	0	4
EXTAP	41	0	5
NMTAP	41	72	6
NMTAP	41	96	7
EXSTR	41	144	0
NMSI_	41	144	0	96	48	4
EXSTR	41	144	7
NMSI_	41	144	7	96	48	3
EXHLD	42	0	5	192
NMTTP	42	96	4	B	0	M1
NMTTP	42	96	4	A	0	M1
NMHLD	42	192	2	192
NMTTP	42	288	3	B	0	M1
NMTTP	42	288	3	A	0	M1
NMHLD	43	0	6	192
NMTTP	43	96	4	B	0	M1
NMTTP	43	96	4	A	0	M1
NMHLD	43	192	1	192
NMTTP	43	288	3	B	0	M1
NMTTP	43	288	3	A	0	M1
NMSTR	44	0	6
NMSUL	44	0	6	96	96	2
NMTAP	44	96	0
NMSTR	44	144	0
NMSUR	44	144	0	96	96	4
NMTAP	44	240	7
NMSTR	44	288	7
NMSXR	44	288	7	96	288	4
NMTAP	45	0	0
NMTAP	45	96	1
NMTAP	45	144	1
NMTAP	45	192	1
NMTAP	45	288	2
EXHLD	46	0	5	192
NMTTP	46	96	4	B	0	M1
NMTTP	46	96	4	A	0	M1
NMHLD	46	192	2	192
NMTTP	46	288	3	B	0	M1
NMTTP	46	288	3	A	0	M1
NMHLD	47	0	6	192
NMTTP	47	96	4	B	0	M1
NMTTP	47	96	4	A	0	M1
NMHLD	47	192	1	192
NMTTP	47	288	3	B	0	M1
NMTTP	47	288	3	A	0	M1
BXSTR	48	0	7
NMSI_	48	0	7	96	48	3
NMSTR	48	96	0
NMSCR	48	96	0	96	48	3
BXTAP	48	144	0
NMTAP	48	240	5
NMTAP	48	288	5
BXSTR	48	336	2
NMSV_	48	336	2	96	48	0
BXSTR	48	336	6
NMSV_	48	336	6	96	48	4
NMTAP	49	192	1
NMTAP	49	192	5
NMTAP	49	288	2
NMTAP	49	288	3
EXSTR	50	0	0
NMSI_	50	0	0	96	48	6
EXTAP	50	0	4
NMSTR	50	96	5
NMSI_	50	96	5	96	48	1
NMSTR	50	192	2
NMSI_	50	192	2	96	48	4
NMTAP	50	288	7
EXSTR	50	336	7
NMSI_	50	336	7	96	48	1
NMTAP	51	48	2
NMSTR	51	96	2
NMSI_	51	96	2	96	48	6
NMSTR	51	192	5
NMSI_	51	192	5	96	48	3
NMTAP	51	288	7
EXSTR	52	0	0
NMSI_	52	0	0	96	48	4
NMSTR	52	96	6
NMSI_	52	96	6	96	48	2
NMSTR	52	192	7
NMSCR	52	192	7	96	96	3
NMTAP	52	288	5
EXSTR	52	336	5
NMSLR	52	336	5	96	96	1
NMTAP	53	48	4
NMTAP	53	96	3
NMTAP	53	144	2
BRTAP	53	240	0
BRTAP	53	240	1
BRTAP	53	288	0
BRTAP	53	288	1
EXTAP	54	0	3
EXSTR	54	0	7
NMSI_	54	0	7	96	48	1
NMSTR	54	96	2
NMSI_	54	96	2	96	48	6
NMSTR	54	192	5
NMSI_	54	192	5	96	48	3
NMTAP	54	288	0
EXSTR	54	336	0
NMSI_	54	336	0	96	48	6
NMTAP	55	48	5
NMSTR	55	96	5
NMSI_	55	96	5	96	48	1
NMSTR	55	192	2
NMSI_	55	192	2	96	48	4
NMTAP	55	288	0
EXSTR	56	0	7
NMSI_	56	0	7	96	48	3
NMSTR	56	96	1
NMSI_	56	96	1	96	48	5
NMSTR	56	192	0
NMSCL	56	192	0	96	96	4
NMTAP	56	288	2
EXSTR	56	336	2
NMSLL	56	336	2	96	96	6
NMTAP	57	48	3
NMTAP	57	96	4
NMTAP	57	144	5
BRTAP	57	240	6
BRTAP	57	240	7
BRTAP	57	288	6
BRTAP	57	288	7
EXSTR	58	0	0
NMSV_	58	0	0	96	48	6
EXTAP	58	0	4
NMSTR	58	96	5
NMSUL	58	96	5	96	48	1
NMSTR	58	192	2
NMSCR	58	192	2	96	48	4
NMTAP	58	288	7
EXSTR	58	336	7
NMSV_	58	336	7	96	48	1
NMTAP	59	48	2
NMSTR	59	96	2
NMSUR	59	96	2	96	48	6
NMSTR	59	192	5
NMSCL	59	192	5	96	48	3
NMTAP	59	288	1
EXSTR	60	0	0
NMSUR	60	0	0	96	48	4
NMSTR	60	96	6
NMSUL	60	96	6	96	48	2
NMSTR	60	192	7
NMSCR	60	192	7	96	96	3
NMTAP	60	288	5
EXSTR	60	336	5
NMSLR	60	336	5	96	96	1
NMTAP	61	48	4
NMTAP	61	96	3
NMTAP	61	144	2
BRTAP	61	240	0
BRTAP	61	240	1
BRTAP	61	288	0
BRTAP	61	288	1
EXTAP	62	0	3
EXSTR	62	0	7
NMSV_	62	0	7	96	48	1
NMSTR	62	96	2
NMSUR	62	96	2	96	48	6
NMSTR	62	192	5
NMSCL	62	192	5	96	48	3
NMTAP	62	288	0
EXSTR	62	336	0
NMSV_	62	336	0	96	48	6
NMTAP	63	48	5
NMSTR	63	96	5
NMSUL	63	96	5	96	48	1
NMSTR	63	192	2
NMSCR	63	192	2	96	48	4
NMTAP	63	288	0
EXSTR	64	0	7
NMSUL	64	0	7	96	48	3
NMSTR	64	96	1
NMSUR	64	96	1	96	48	5
NMSTR	64	192	0
NMSCL	64	192	0	96	96	4
NMTAP	64	288	2
EXSTR	64	336	2
NMSXR	64	336	2	96	144	4
NMTAP	65	48	5
NMTAP	65	96	6
EXTAP	65	144	7
BRTAP	65	240	2
BRTAP	65	240	6
BRSTR	65	288	1
NMSCR	65	288	1	96	288	0
BRTAP	65	288	5
NMTTP	66	0	0	C	1	M1
EXTAP	66	0	1
EXTAP	67	0	2
NMTAP	67	24	3
NMTAP	67	48	2
NMTAP	67	96	5
NMTAP	67	120	4
NMTAP	67	144	5
NMTAP	67	192	2
NMTAP	67	216	3
NMTAP	67	240	2
NMTAP	67	288	5
NMTAP	67	312	4
NMTAP	67	336	5
EXTAP	68	0	2
NMTAP	68	24	3
NMTAP	68	48	1
NMTAP	68	96	5
NMTAP	68	120	4
NMTAP	68	144	6
NMTAP	68	192	2
NMTAP	68	216	3
NMTAP	68	240	1
NMTAP	68	288	5
NMTAP	68	312	4
NMTAP	68	336	6
EXHLD	69	0	2	144
NMTAP	69	48	3
NMTAP	69	96	4
EXHLD	69	144	5	96
NMTAP	69	192	1
NMTAP	69	240	0
NMTAP	69	288	6
NMTAP	69	288	7
BRSTR	70	0	1
BRSCR	70	0	1	96	48	4
BRSTR	70	0	7
BRSCL	70	0	7	96	48	4
EXSTR	70	192	5
NMSI_	70	192	5	96	48	0
NMTAP	70	240	5
NMSTR	70	288	3
NMSI_	70	288	3	96	48	7
NMTAP	70	336	3
NMSTR	71	0	4
NMSI_	71	0	4	96	48	0
NMTAP	71	48	4
NMSTR	71	96	2
NMSI_	71	96	2	96	48	7
NMTAP	71	144	2
NMTAP	71	192	5
NMTAP	71	240	5
NMTAP	71	288	0
NMTAP	71	288	6
NMTAP	72	0	1
NMTAP	72	24	0
NMTAP	72	48	1
NMTAP	72	96	6
NMTAP	72	120	7
NMTAP	72	144	6
NMTAP	72	192	1
NMTAP	72	216	0
NMTAP	72	240	1
NMTAP	72	288	6
NMTAP	72	312	7
NMTAP	72	336	6
NMTAP	73	0	1
NMTAP	73	24	0
NMTAP	73	48	2
NMTAP	73	96	6
NMTAP	73	120	7
NMTAP	73	144	5
NMTAP	73	192	1
NMTAP	73	216	0
NMTAP	73	240	2
NMTAP	73	288	6
NMTAP	73	312	7
NMTAP	73	336	5
BRSTR	74	0	0
NMSI_	74	0	0	96	48	4
BRTAP	74	0	7
NMTAP	74	96	0
NMTAP	74	96	1
NMHLD	74	192	2	72
NMHLD	74	264	1	72
NMTAP	74	336	0
BRSTR	75	0	7
NMSI_	75	0	7	96	48	3
NMTAP	75	96	6
NMTAP	75	96	7
NMSTR	75	192	2
NMSI_	75	192	2	96	48	7
NMSTR	75	192	4
NMSI_	75	192	4	96	48	7
EXTAP	76	0	0
NMTAP	76	32	6
NMTAP	76	64	6
NMTAP	76	96	1
NMTAP	76	128	6
NMTAP	76	160	6
NMTAP	76	192	2
NMTAP	76	224	6
NMTAP	76	256	6
NMTAP	76	288	3
NMTAP	76	320	6
NMTAP	76	352	6
EXTAP	77	0	3
NMTAP	77	32	5
NMTAP	77	64	1
EXTAP	77	96	4
NMTAP	77	128	2
NMTAP	77	160	6
EXTAP	77	192	4
NMTAP	77	224	5
NMTAP	77	256	1
EXTAP	77	288	3
NMTAP	77	320	2
NMTAP	77	352	6
BRTAP	78	0	1
NMSTR	78	96	0
NMSCR	78	96	0	96	64	3
NMTAP	78	144	0
NMSTR	78	192	6
NMSCL	78	192	6	96	48	3
NMTAP	78	240	6
NMTAP	78	288	2
NMSTR	79	0	5
NMSCR	79	0	5	96	64	0
NMTAP	79	48	5
NMSTR	79	96	3
NMSCL	79	96	3	96	48	0
NMTAP	79	144	3
NMSTR	79	192	4
NMSI_	79	192	4	96	48	0
NMTAP	79	240	4
NMTAP	79	288	2
EXTAP	80	0	1
NMTAP	80	24	3
NMTAP	80	48	1
NMTAP	80	72	3
NMTAP	80	96	1
NMTAP	80	120	3
NMTAP	80	144	2
NMTAP	80	192	6
NMTAP	80	216	4
NMTAP	80	240	6
NMTAP	80	264	4
NMTAP	80	288	6
NMTAP	80	312	4
NMTAP	80	336	5
NMTAP	81	0	1
NMTAP	81	24	3
NMTAP	81	48	1
NMTAP	81	72	3
NMTAP	81	96	1
NMTAP	81	120	3
NMTAP	81	144	2
NMSTR	81	192	6
NMSI_	81	192	6	96	48	2
NMSTR	81	240	0
NMSI_	81	240	0	96	48	4
NMTAP	81	288	6
NMTAP	81	336	0
BXSTR	82	0	7
NMSCL	82	0	7	96	96	3
NMTTP	82	96	5	B	0	M1
NMSTR	82	192	7
NMSCR	82	192	7	96	96	3
NMTTP	82	288	1	B	0	M1
NMSTR	83	0	7
NMSCL	83	0	7	96	96	3
NMTTP	83	96	5	B	0	M1
NMTAP	83	192	2
NMTAP	83	264	1
NMTTP	83	288	4	B	0	M1
NMTAP	83	336	0
BXSTR	84	0	0
NMSCR	84	0	0	96	96	4
BXTAP	84	0	6
NMTTP	84	96	2	B	0	M1
NMSTR	84	192	0
NMSCL	84	192	0	96	96	4
NMTTP	84	288	6	B	0	M1
NMSTR	85	0	0
NMSCR	85	0	0	96	96	4
NMTTP	85	96	2	B	0	M1
NMTAP	85	192	5
NMTAP	85	264	6
NMTTP	85	288	3	B	0	M1
NMTAP	85	336	7
BXTAP	86	0	1
BXSTR	86	0	7
NMSCL	86	0	7	96	96	3
NMTTP	86	96	4	B	0	M1
NMTTP	86	96	5	B	0	M1
NMSTR	86	192	7
NMSCR	86	192	7	96	96	3
NMTTP	86	288	0	B	0	M1
NMTTP	86	288	1	B	0	M1
NMSTR	87	0	7
NMSCL	87	0	7	96	96	3
NMTTP	87	96	4	B	0	M1
NMTTP	87	96	5	B	0	M1
NMTAP	87	192	2
NMTAP	87	264	1
NMTTP	87	288	3	B	0	M1
NMTTP	87	288	4	B	0	M1
NMTAP	87	336	0
NMTAP	88	0	0
NMTAP	88	24	7
NMTAP	88	48	0
NMTAP	88	72	7
NMTAP	88	96	0
NMTAP	88	120	7
NMTAP	88	144	0
NMTAP	88	168	7
NMTAP	88	192	0
NMTAP	88	216	7
NMTAP	88	240	1
NMTAP	88	264	6
NMTAP	88	288	2
NMTAP	88	312	5
NMTAP	88	336	3
BRTAP	89	0	2
BRTAP	89	0	6
BRTAP	89	48	2
BRTAP	89	48	6

T_REC_TAP	314
T_REC_BRK	21
T_REC_XTP	26
T_REC_BXX	4
T_REC_HLD	26
T_REC_XHO	11
T_REC_BHO	0
T_REC_BXH	0
T_REC_STR	63
T_REC_BST	7
T_REC_XST	24
T_REC_XBS	6
T_REC_TTP	51
T_REC_THO	0
T_REC_SLD	96
T_REC_BSL	4
T_REC_ALL	653
T_NUM_TAP	478
T_NUM_BRK	42
T_NUM_HLD	37
T_NUM_SLD	96
T_NUM_ALL	653
T_JUDGE_TAP	516
T_JUDGE_HLD	159
T_JUDGE_SLD	100
T_JUDGE_ALL	775
TTM_EACHPAIRS	72
TTM_SCR_TAP	239000
TTM_SCR_BRK	109200
TTM_SCR_HLD	37000
TTM_SCR_SLD	144000
TTM_SCR_ALL	529200
TTM_SCR_S	509250
TTM_SCR_SS	525000
TTM_RAT_ACV	10080

