VERSION	0.00.00	1.04.00
FES_MODE	0
BPM_DEF	170.000	170.000	170.000	170.000
MET_DEF	4	4
RESOLUTION	384
CLK_DEF	384
COMPATIBLE_CODE	MA2

BPM	0	0	170.000
MET	0	0	4	4

NMTAP	1	0	1
NMTAP	1	96	1
NMTAP	1	192	7
NMTAP	1	240	7
EXTAP	1	288	0
EXTAP	1	288	7
NMSTR	2	0	0
NMSCR	2	0	0	96	480	7
NMTAP	2	0	1
NMSTR	4	0	0
NMSCL	4	0	0	96	480	1
NMTAP	4	0	7
NMSTR	6	0	6
NMSCR	6	0	6	96	480	5
NMTAP	6	0	7
NMSTR	8	0	4
NMSI_	8	0	4	96	192	1
NMSTR	8	0	5
NMSI_	8	0	5	96	192	0
NMHLD	9	0	2	192
NMHLD	9	0	7	192
BXTAP	9	288	1
BXTAP	9	288	6
NMTAP	10	0	1
NMTAP	10	96	3
NMTAP	10	192	4
NMTAP	10	288	3
NMTAP	10	288	5
NMTAP	11	0	6
NMTAP	11	96	4
NMTAP	11	192	3
NMTAP	11	288	2
NMTAP	11	288	4
NMTAP	12	0	1
NMTAP	12	96	3
NMTAP	12	192	4
NMTAP	12	288	3
NMTAP	12	288	5
NMTAP	13	0	6
NMTAP	13	96	6
NMTAP	13	192	3
NMTAP	13	192	5
NMTAP	13	288	3
NMTAP	13	288	5
NMTAP	14	0	2
NMTAP	14	96	1
NMTAP	14	192	0
NMTAP	14	288	6
NMTAP	14	288	7
NMTAP	15	0	5
NMTAP	15	96	6
NMTAP	15	192	7
NMTAP	15	288	0
NMTAP	15	288	1
NMTAP	16	0	7
NMTAP	16	96	6
NMTAP	16	96	7
NMTAP	16	192	0
NMTAP	16	288	0
NMTAP	16	288	1
NMTAP	17	0	2
NMTAP	17	96	3
NMTAP	17	96	4
BRTAP	17	192	2
BRTAP	17	192	5
NMHLD	18	0	1	96
NMTAP	18	96	3
NMTAP	18	192	5
NMTAP	18	240	5
NMTAP	18	288	4
NMHLD	19	0	6	96
NMTAP	19	96	4
NMTAP	19	192	2
NMTAP	19	240	2
NMTAP	19	288	3
NMHLD	20	0	1	384
NMTAP	20	96	3
NMTAP	20	192	3
NMTAP	20	288	3
NMTAP	21	0	4
NMTAP	21	96	2
NMTAP	21	96	3
NMTAP	21	192	3
NMTAP	21	192	6
NMTAP	21	288	4
NMTAP	21	288	5
NMHLD	22	0	6	96
NMTAP	22	96	4
NMTAP	22	192	2
NMTAP	22	240	2
NMTAP	22	288	3
NMHLD	23	0	1	96
NMTAP	23	96	3
NMTAP	23	192	5
NMTAP	23	240	5
NMTAP	23	288	4
NMHLD	24	0	6	96
NMTAP	24	96	4
NMTAP	24	192	3
NMTAP	24	288	2
NMHLD	24	336	2	96
NMTAP	25	48	4
NMTAP	25	96	4
NMTAP	25	192	1
NMTAP	25	192	5
NMTAP	25	288	2
NMTAP	25	288	4
NMTAP	26	0	1
NMTAP	26	0	3
NMTAP	26	96	2
NMTAP	26	192	5
NMTAP	26	240	5
NMTAP	26	288	4
NMTAP	27	0	4
NMTAP	27	0	6
NMTAP	27	96	5
NMTAP	27	192	2
NMTAP	27	240	2
NMTAP	27	288	3
NMHLD	28	0	1	96
NMTAP	28	96	3
NMHLD	28	192	6	96
NMTAP	28	288	4
NMHLD	29	0	2	96
NMHLD	29	96	0	96
NMTAP	29	192	7
NMTAP	29	288	0
NMTAP	29	288	7
NMTAP	30	0	4
NMTAP	30	0	6
NMTAP	30	96	5
NMTAP	30	192	2
NMTAP	30	240	2
NMTAP	30	288	3
NMTAP	31	0	1
NMTAP	31	0	3
NMTAP	31	96	2
NMTAP	31	192	5
NMTAP	31	240	5
NMTAP	31	288	4
NMTAP	32	0	3
NMTAP	32	0	6
NMTAP	32	96	2
NMTAP	32	96	5
NMTAP	32	192	1
NMTAP	32	192	4
NMSTR	32	240	1
NMSCL	32	240	1	96	240	3
NMTAP	32	240	4
EXTAP	33	288	2
EXTAP	33	288	5
NMHLD	34	0	6	576
NMTTP	34	192	4	B	0	M1
NMTTP	35	0	2	B	0	M1
NMTTP	35	192	1	A	0	M1
NMHLD	36	0	0	144
NMHLD	36	144	7	144
NMTAP	36	288	6
NMTAP	37	0	4
EXHLD	37	0	5	144
EXTAP	37	144	3
EXTAP	37	192	3
NMTAP	37	288	2
NMTAP	37	288	4
NMHLD	38	0	1	576
NMTTP	38	192	3	B	0	M1
NMTTP	39	0	5	B	0	M1
NMTTP	39	192	6	A	0	M1
NMHLD	40	0	7	144
NMHLD	40	144	0	144
NMTAP	40	288	1
BXTAP	41	0	2
BXTAP	41	96	3
BXTAP	41	96	4
BXTAP	41	144	3
BXTAP	41	144	4
BXTAP	41	240	2
BXTAP	41	240	5
BXTAP	41	288	2
BXTAP	41	288	5
NMHLD	42	0	6	96
NMTAP	42	96	3
NMHLD	42	192	2	96
NMTAP	42	288	4
NMHLD	43	0	5	96
NMTAP	43	96	4
NMHLD	43	192	2	96
NMTAP	43	288	3
NMHLD	44	0	5	240
NMTAP	44	96	4
NMTAP	44	144	4
NMTAP	44	240	3
NMTAP	44	288	3
NMSTR	45	0	2
NMSI_	45	0	2	96	48	4
EXTAP	45	144	5
EXTAP	45	192	5
NMTAP	45	288	3
NMTAP	45	288	6
NMHLD	46	0	1	96
NMTAP	46	96	4
NMHLD	46	192	5	96
NMTAP	46	288	3
NMHLD	47	0	2	96
NMTAP	47	96	3
NMHLD	47	192	5	96
NMTAP	47	288	4
NMHLD	48	0	2	96
NMTAP	48	96	3
NMTAP	48	144	3
NMTAP	48	240	1
NMTAP	48	240	5
NMTAP	48	288	1
NMTAP	48	288	5
EXSTR	48	336	1
NMSV_	48	336	1	96	144	3
EXSTR	48	336	5
NMSV_	48	336	5	96	144	7
BXTAP	49	288	2
BXTAP	49	288	6
NMTAP	50	0	6
NMTAP	50	0	7
NMTAP	50	96	4
NMTAP	50	96	5
NMTAP	50	192	1
NMTAP	50	192	3
NMTAP	50	288	0
NMTAP	50	288	7
NMTAP	50	336	0
NMTAP	50	336	7
NMTAP	51	48	1
NMHLD	51	96	1	96
NMTAP	51	192	3
EXTAP	51	288	4
EXTAP	51	288	5
NMHLD	52	0	6	96
NMHLD	52	96	4	96
NMHLD	52	192	3	96
NMTAP	52	288	1
NMTAP	52	336	1
NMTAP	53	48	7
NMTAP	53	96	7
NMTAP	53	144	0
NMTAP	53	144	6
BRTAP	53	240	1
BRTAP	53	240	5
BRTAP	53	288	1
BRTAP	53	288	5
NMTAP	54	0	0
NMTAP	54	0	1
NMTAP	54	96	2
NMTAP	54	96	3
NMTAP	54	192	4
NMTAP	54	192	6
NMTAP	54	288	0
NMTAP	54	288	7
NMTAP	54	336	0
NMTAP	54	336	7
NMTAP	55	48	6
NMHLD	55	96	6	96
NMTAP	55	192	4
EXTAP	55	288	2
EXTAP	55	288	3
NMHLD	56	0	1	96
NMHLD	56	96	3	96
NMHLD	56	192	4	96
NMTAP	56	288	6
NMTAP	56	336	6
NMTAP	57	48	0
NMTAP	57	96	0
NMTAP	57	144	1
NMTAP	57	144	7
BRTAP	57	240	2
BRTAP	57	240	6
BRTAP	57	288	2
BRTAP	57	288	6
NMTAP	58	0	6
NMTAP	58	0	7
NMTAP	58	96	4
NMTAP	58	96	5
NMTAP	58	192	1
NMTAP	58	192	3
NMTAP	58	288	0
NMTAP	58	288	7
NMTAP	58	336	0
NMTAP	58	336	7
NMTAP	59	48	1
NMHLD	59	96	1	96
NMTAP	59	192	3
EXTAP	59	288	2
EXTAP	59	288	4
NMHLD	60	0	5	96
NMHLD	60	96	7	96
NMHLD	60	192	0	96
NMTAP	60	288	2
NMTAP	60	336	2
NMTAP	61	48	3
NMTAP	61	96	3
NMTAP	61	144	2
NMTAP	61	144	4
BRTAP	61	240	1
BRTAP	61	240	5
BRTAP	61	288	1
BRTAP	61	288	5
NMTAP	62	0	0
NMTAP	62	0	1
NMTAP	62	96	2
NMTAP	62	96	3
NMTAP	62	192	4
NMTAP	62	192	6
NMTAP	62	288	0
NMTAP	62	288	7
NMTAP	62	336	0
NMTAP	62	336	7
NMTAP	63	48	6
NMHLD	63	96	6	96
NMTAP	63	192	4
EXTAP	63	288	3
EXTAP	63	288	5
NMHLD	64	0	2	96
NMHLD	64	96	0	96
NMHLD	64	192	7	96
NMTAP	64	288	5
NMHLD	64	336	5	96
EXTAP	65	96	3
EXTAP	65	96	4
EXTAP	65	144	3
EXTAP	65	144	4
EXTAP	65	240	2
BXSTR	65	288	2
NMSCL	65	288	2	96	240	4
NMTTP	66	0	0	C	1	M1
EXTAP	67	0	3
NMTAP	67	48	3
EXTAP	67	96	6
NMTAP	67	144	6
EXTAP	67	192	4
NMTAP	67	240	4
EXTAP	67	288	3
EXTAP	67	288	5
NMTAP	68	0	6
NMTAP	68	48	6
NMTAP	68	96	2
NMTAP	68	144	2
NMTAP	68	192	3
NMTAP	68	240	3
NMTAP	68	288	1
NMHLD	68	336	1	96
NMTAP	69	48	0
NMHLD	69	144	2	144
NMSTR	69	144	7
NMSI_	69	144	7	96	48	3
NMHLD	70	0	1	96
NMTAP	70	96	3
NMHLD	70	192	5	96
NMTAP	70	288	4
NMHLD	70	336	4	96
NMTAP	71	48	3
NMHLD	71	96	3	96
NMTAP	71	192	2
NMTAP	71	288	1
NMTAP	71	288	4
EXTAP	72	0	0
NMTAP	72	48	0
EXTAP	72	96	6
NMTAP	72	144	6
EXTAP	72	192	7
NMTAP	72	240	7
EXTAP	72	288	5
NMTAP	72	336	5
EXTAP	73	0	0
NMTAP	73	48	0
EXTAP	73	96	6
NMTAP	73	144	6
EXTAP	73	192	2
BRSTR	73	288	0
NMSI_	73	288	0	96	96	4
BRSTR	73	288	1
NMSI_	73	288	1	96	96	5
EXTAP	74	192	4
EXTAP	74	192	5
BXSTR	74	288	6
NMSI_	74	288	6	96	96	2
BXSTR	74	288	7
NMSI_	74	288	7	96	96	3
EXTAP	75	192	1
EXTAP	75	192	4
EXTAP	75	288	0
EXTAP	75	288	5
NMSTR	76	0	1
NMSI_	76	0	1	96	48	3
NMSTR	76	96	7
NMSI_	76	96	7	96	48	5
NMSTR	76	192	0
NMSI_	76	192	0	96	48	4
NMSTR	77	0	6
NMSI_	77	0	6	96	48	4
NMSTR	77	96	0
NMSI_	77	96	0	96	48	2
NMSTR	77	192	7
NMSI_	77	192	7	96	48	3
NMHLD	78	0	2	96
NMTAP	78	96	0
NMHLD	78	192	6	96
NMTAP	78	288	7
NMHLD	78	336	7	96
NMTAP	79	48	0
NMHLD	79	96	0	96
NMTAP	79	192	1
NMTAP	79	288	0
NMTAP	79	288	7
EXTAP	80	0	5
NMTAP	80	48	5
EXTAP	80	96	4
NMTAP	80	144	4
EXTAP	80	192	6
NMTAP	80	240	6
EXTAP	80	288	2
NMTAP	80	336	2
EXTAP	81	0	3
NMTAP	81	48	3
EXTAP	81	96	1
NMTAP	81	144	1
EXTAP	81	192	7
NMTAP	81	240	7
BXTAP	81	288	0
NMSTR	82	0	6
NMSI_	82	0	6	96	48	3
NMTAP	82	0	7
NMTAP	82	192	0
NMSTR	82	192	1
NMSI_	82	192	1	96	48	4
NMSTR	83	0	6
NMSI_	83	0	6	96	48	3
NMTAP	83	0	7
NMTAP	83	192	2
NMTAP	83	288	1
NMTAP	83	288	3
NMTAP	84	0	0
NMSTR	84	0	1
NMSI_	84	0	1	96	48	4
NMSTR	84	192	6
NMSI_	84	192	6	96	48	3
NMTAP	84	192	7
NMTAP	85	0	0
NMSTR	85	0	1
NMSI_	85	0	1	96	48	4
NMTAP	85	192	5
NMTAP	85	288	4
NMTAP	85	288	6
NMTAP	86	0	6
NMSTR	86	0	7
NMSI_	86	0	7	96	48	3
NMSTR	86	192	0
NMSI_	86	192	0	96	48	4
NMTAP	86	192	1
NMTAP	87	0	6
NMSTR	87	0	7
NMSI_	87	0	7	96	48	3
NMTAP	87	192	5
NMTAP	87	288	4
NMTAP	87	288	6
EXTAP	88	0	2
NMTAP	88	48	2
EXTAP	88	96	5
NMTAP	88	144	5
EXTAP	88	192	3
EXTAP	88	216	4
EXTAP	88	240	3
EXTAP	88	264	4
EXTAP	88	288	3
BRTAP	89	0	1
BRTAP	89	0	6
BRTAP	89	48	1
BRTAP	89	48	6

T_REC_TAP	266
T_REC_BRK	18
T_REC_XTP	53
T_REC_BXX	14
T_REC_HLD	56
T_REC_XHO	1
T_REC_BHO	0
T_REC_BXH	0
T_REC_STR	23
T_REC_BST	2
T_REC_XST	2
T_REC_XBS	3
T_REC_TTP	7
T_REC_THO	0
T_REC_SLD	30
T_REC_BSL	0
T_REC_ALL	475
T_NUM_TAP	351
T_NUM_BRK	37
T_NUM_HLD	57
T_NUM_SLD	30
T_NUM_ALL	475
T_JUDGE_TAP	388
T_JUDGE_HLD	153
T_JUDGE_SLD	30
T_JUDGE_ALL	571
TTM_EACHPAIRS	102
TTM_SCR_TAP	175500
TTM_SCR_BRK	96200
TTM_SCR_HLD	57000
TTM_SCR_SLD	45000
TTM_SCR_ALL	373700
TTM_SCR_S	358900
TTM_SCR_SS	370000
TTM_RAT_ACV	10100

