VERSION	0.00.00	1.04.00
FES_MODE	0
BPM_DEF	160.000	160.000	160.000	160.000
MET_DEF	4	4
RESOLUTION	384
CLK_DEF	384
COMPATIBLE_CODE	MA2

BPM	0	0	160.000
MET	0	0	4	4

NMHLD	2	0	5	192
NMTAP	2	144	4
EXTAP	2	192	4
NMSTR	2	288	3
NMSCL	2	288	3	96	96	1
NMSTR	2	288	6
NMSCL	2	288	6	96	96	4
NMHLD	4	0	2	192
NMTAP	4	144	3
NMTAP	4	192	3
NMTAP	4	288	1
NMHLD	5	0	1	192
NMHLD	5	0	7	192
NMHLD	6	0	2	144
NMHLD	6	0	4	144
NMTAP	6	192	2
NMTAP	6	192	4
NMHLD	7	0	3	144
NMHLD	7	0	5	144
NMTAP	7	192	3
NMTAP	7	192	5
NMTAP	8	0	2
NMTAP	8	0	6
NMHLD	8	96	2	96
NMHLD	8	96	6	192
NMHLD	9	0	0	96
NMHLD	9	0	5	96
NMTAP	9	192	0
NMTAP	9	192	5
NMSTR	9	288	4
NMSCR	9	288	4	96	288	0
NMTAP	10	0	3
NMTAP	10	96	3
NMTAP	10	192	3
NMTAP	10	288	3
NMTAP	11	0	0
NMTAP	11	0	3
NMTAP	11	96	3
NMTAP	11	96	7
NMTAP	11	192	3
NMTAP	11	192	6
NMSTR	11	288	3
NMSCL	11	288	3	96	288	7
NMTAP	11	288	5
NMTAP	12	0	4
NMTAP	12	96	4
NMTAP	12	192	4
NMTAP	12	288	4
NMTAP	13	0	4
NMTAP	13	0	7
NMTAP	13	96	0
NMTAP	13	96	4
NMTAP	13	192	1
NMTAP	13	192	4
NMTAP	13	288	2
NMTAP	13	288	4
NMTAP	14	0	3
NMTAP	14	0	5
NMTAP	14	48	6
NMTAP	14	96	7
NMTAP	14	144	0
NMTAP	14	192	1
NMTAP	14	240	2
NMTAP	14	288	3
NMTAP	14	336	4
NMTAP	15	0	3
NMTAP	15	0	5
NMTAP	15	48	2
NMTAP	15	96	1
NMTAP	15	144	0
NMTAP	15	192	7
NMTAP	15	240	6
NMTAP	15	288	2
NMTAP	15	288	5
NMTAP	15	336	2
NMTAP	15	336	5
NMTAP	16	0	3
NMTAP	16	24	4
NMTAP	16	48	3
NMTAP	16	72	4
NMTAP	16	96	3
NMTAP	16	120	4
NMTAP	16	144	3
NMTAP	16	168	4
NMTAP	16	192	2
NMTAP	16	216	5
NMTAP	16	240	1
NMTAP	16	264	6
NMTAP	16	288	0
NMTAP	16	312	7
NMTAP	16	336	0
NMTAP	16	360	7
NMHLD	17	0	0	288
NMSTR	17	192	2
NMSI_	17	192	2	96	48	6
NMTTP	18	0	1	B	1	M1
NMTTP	18	0	1	E	0	M1
NMTTP	18	0	1	A	0	M1
NMTTP	18	0	2	E	0	M1
BXTAP	18	0	7
NMSTR	18	96	5
NMSI_	18	96	5	96	48	7
EXHLD	18	192	3	96
NMSTR	18	288	0
NMSI_	18	288	0	96	48	3
NMTAP	19	0	2
EXSTR	19	96	1
NMSXL	19	96	1	96	144	7
EXHLD	19	96	3	96
EXTAP	20	0	0
NMTTP	20	0	5	B	0	M1
NMTTP	20	0	5	E	0	M1
NMTTP	20	0	5	A	0	M1
NMTTP	20	0	6	E	0	M1
NMSTR	20	96	2
NMSI_	20	96	2	96	48	0
EXHLD	20	192	4	96
NMSTR	20	288	7
NMSI_	20	288	7	96	48	4
NMTAP	21	0	5
EXTAP	21	96	4
EXTAP	21	96	6
EXHLD	21	192	1	96
EXSTR	21	192	3
NMSI_	21	192	3	96	48	7
BXTAP	22	0	0
NMTTP	22	0	6	B	1	M1
NMTTP	22	0	6	E	0	M1
NMTTP	22	0	6	A	0	M1
NMTTP	22	0	7	E	0	M1
NMSTR	22	96	1
NMSI_	22	96	1	96	48	3
EXHLD	22	192	7	96
NMSTR	22	288	4
NMSI_	22	288	4	96	48	7
NMTAP	23	0	6
EXSTR	23	96	0
NMSXL	23	96	0	96	144	5
NMHLD	23	96	5	96
EXTAP	24	0	7
NMHLD	24	96	0	96
NMTAP	24	96	6
NMTAP	24	192	3
NMTAP	24	288	1
NMTAP	24	288	5
NMTAP	25	0	7
NMTAP	25	32	7
NMTAP	25	64	7
NMTAP	25	96	0
NMTAP	25	128	0
NMTAP	25	160	0
NMSTR	25	192	1
NMSCR	25	192	1	96	48	3
NMSTR	25	192	6
NMSCL	25	192	6	96	48	4
NMTTP	26	0	3	B	0	M1
NMTTP	26	0	4	B	0	M1
NMTAP	26	144	6
NMSTR	26	192	6
NMSCL	26	192	6	96	144	3
NMTAP	26	288	0
NMHLD	27	0	1	144
NMTAP	27	144	3
NMSTR	27	192	1
NMSI_	27	192	1	96	48	3
NMHLD	28	0	4	144
NMTAP	28	144	3
NMSTR	28	192	4
NMSI_	28	192	4	96	144	0
NMTAP	28	288	2
NMHLD	29	0	1	144
NMTAP	29	144	0
NMSTR	29	192	0
NMSCL	29	192	0	96	48	5
NMSCR	29	192	0	96	48	3
NMTTP	30	0	0	C	1	M1
NMTTP	30	0	3	B	0	M1
NMTTP	30	0	3	A	0	M1
NMTTP	30	0	4	B	0	M1
NMTTP	30	0	4	E	0	M1
NMTTP	30	0	5	B	0	M1
NMTTP	30	0	5	E	0	M1
NMTTP	30	0	5	A	0	M1
NMTAP	30	96	0
NMTAP	30	144	1
NMTAP	30	192	2
NMTAP	30	192	7
NMTAP	30	240	6
NMTAP	30	288	0
NMTAP	30	288	5
NMTAP	30	336	1
NMTAP	31	0	2
NMTAP	31	0	6
NMTAP	31	48	5
NMSTR	31	96	2
NMSI_	31	96	2	96	48	0
NMSTR	31	96	6
NMSI_	31	96	6	96	48	0
NMTAP	31	144	3
EXTAP	31	288	2
EXTAP	31	288	6
NMTAP	32	0	5
NMTAP	32	48	4
NMSTR	32	96	3
NMSI_	32	96	3	96	48	1
NMTAP	32	144	2
NMSTR	32	192	4
NMSI_	32	192	4	96	48	6
NMTAP	32	240	5
NMTAP	32	288	3
NMTAP	32	336	2
EXTAP	33	0	1
NMSTR	33	0	7
NMSLR	33	0	7	96	96	5
NMTAP	33	96	1
NMTAP	33	144	2
NMSTR	33	192	3
NMSI_	33	192	3	96	48	7
BRTAP	33	288	5
EXTAP	34	0	0
EXTAP	34	0	6
NMTAP	34	144	1
NMSTR	34	192	1
NMSCR	34	192	1	96	144	4
NMTAP	34	288	7
NMHLD	35	0	6	144
NMTAP	35	144	4
NMSTR	35	192	6
NMSI_	35	192	6	96	48	4
NMHLD	36	0	3	144
NMTAP	36	144	4
NMSTR	36	192	3
NMSI_	36	192	3	96	144	7
NMTAP	36	288	5
NMHLD	37	0	6	144
NMTAP	37	144	7
NMSTR	37	192	7
NMSCL	37	192	7	96	24	6
NMSCR	37	192	7	96	24	0
CNSI_	37	312	0	0	24	2
CNSI_	37	312	6	0	24	4
NMTTP	38	0	0	C	1	M1
NMTTP	38	0	2	B	0	M1
NMTTP	38	0	2	E	0	M1
NMTTP	38	0	2	A	0	M1
NMTTP	38	0	3	E	0	M1
NMTTP	38	0	5	B	0	M1
NMTTP	38	0	5	E	0	M1
NMTTP	38	0	5	A	0	M1
NMTTP	38	0	6	E	0	M1
NMTAP	38	96	0
NMTAP	38	144	0
NMTAP	38	192	1
NMTAP	38	192	7
NMTAP	38	240	2
NMTAP	38	288	0
NMTAP	38	288	6
NMTAP	38	336	4
NMTAP	39	0	1
NMTAP	39	0	5
NMTAP	39	48	0
NMSTR	39	96	1
NMSCR	39	96	1	96	48	4
NMSTR	39	96	4
NMSCR	39	96	4	96	48	7
NMTAP	39	144	0
EXTAP	39	288	4
EXTAP	39	288	7
NMTAP	40	0	3
NMTAP	40	0	5
NMTAP	40	48	6
NMTAP	40	96	1
NMTAP	40	96	4
NMTAP	40	144	0
NMTAP	40	192	6
NMTAP	40	192	7
NMTAP	40	240	5
NMTAP	40	288	0
NMSTR	40	288	6
NMSI_	40	288	6	96	48	2
NMTAP	40	336	5
NMSTR	41	0	1
NMSI_	41	0	1	96	48	5
NMSTR	41	96	4
NMSI_	41	96	4	96	48	0
NMSTR	41	192	3
NMSI_	41	192	3	96	48	7
NMTAP	41	288	4
BRTAP	42	0	0
BRHLD	42	0	6	72
NMHLD	42	72	5	72
NMTAP	42	144	4
NMTAP	42	192	4
NMTAP	42	288	2
NMTAP	42	288	3
NMHLD	43	0	1	72
NMTAP	43	0	4
NMHLD	43	72	2	72
NMTAP	43	144	3
NMTAP	43	192	3
NMTAP	43	288	2
NMTAP	43	288	4
NMTAP	43	336	1
NMHLD	44	0	0	192
NMTAP	44	144	3
NMHLD	44	192	3	144
NMTAP	44	336	2
NMTAP	45	0	2
NMSTR	45	48	3
NMSUR	45	48	3	96	192	5
NMTAP	45	96	4
NMTTP	45	192	0	C	0	M1
NMHLD	46	0	6	72
NMHLD	46	72	5	72
NMTAP	46	144	4
NMHLD	46	192	1	72
NMHLD	46	264	2	72
NMTAP	46	336	3
NMHLD	47	0	5	72
NMHLD	47	72	6	72
NMTAP	47	144	7
NMHLD	47	192	2	72
NMHLD	47	264	1	72
NMTAP	47	336	0
NMTAP	48	0	0
EXTAP	48	96	1
EXTAP	48	96	7
NMTAP	48	192	0
NMTAP	48	240	1
NMSTR	48	288	2
NMSI_	48	288	2	96	48	4
NMTAP	48	288	4
NMHLD	49	0	7	96
NMTTP	49	96	0	C	0	M1
NMTAP	49	192	6
NMTAP	49	216	7
NMTAP	49	240	6
NMTAP	49	264	7
NMTAP	49	288	5
NMTAP	49	312	0
NMTAP	49	336	4
NMTAP	49	360	1
BRSTR	50	0	3
NMSI_	50	0	3	96	48	7
NMTAP	50	96	1
NMTAP	50	96	3
NMTAP	50	144	2
CNSI_	50	144	7	0	48	5
NMSTR	50	192	3
NMSCL	50	192	3	96	48	0
NMTAP	50	240	3
NMSTR	50	288	6
NMSCL	50	288	6	96	48	3
NMTAP	50	336	6
NMSTR	51	0	7
NMSF_	51	0	7	96	48	3
EXTAP	51	192	1
EXTAP	51	192	5
NMTAP	51	240	0
NMTAP	51	288	1
NMTAP	51	288	3
NMTAP	51	336	2
NMTAP	52	0	3
NMSTR	52	0	4
NMSI_	52	0	4	96	48	0
NMTAP	52	96	4
NMTAP	52	96	7
CNSI_	52	144	0	0	48	2
NMTAP	52	144	6
NMSTR	52	192	5
NMSI_	52	192	5	96	48	1
NMTAP	52	240	5
NMSTR	52	288	0
NMSCR	52	288	0	96	120	6
NMTAP	52	336	0
NMTAP	53	0	7
NMTAP	53	192	6
NMTAP	53	192	7
NMTAP	53	240	5
NMTAP	53	288	1
NMTAP	53	288	4
NMTAP	53	336	2
NMTAP	54	0	3
NMSTR	54	0	6
NMSCL	54	0	6	96	48	3
NMTAP	54	96	0
NMTAP	54	96	6
NMTAP	54	144	1
CNSI_	54	144	3	0	48	7
NMSTR	54	192	2
NMSCL	54	192	2	96	48	7
NMSTR	54	240	6
NMSI_	54	240	6	96	48	3
NMTAP	54	288	2
NMTAP	54	336	6
EXTAP	55	0	0
NMTAP	55	96	1
NMTAP	55	96	4
NMTAP	55	144	2
NMTAP	55	144	5
NMSTR	55	192	3
NMSCR	55	192	3	96	48	6
NMTAP	55	192	6
NMSTR	55	288	7
NMSI_	55	288	7	96	72	3
EXTAP	56	0	0
NMTAP	56	48	1
CNSLR	56	72	3	0	72	0
NMHLD	56	96	2	96
NMTAP	56	192	7
NMTAP	56	240	6
NMSTR	56	288	0
NMSXR	56	288	0	96	144	1
NMTAP	56	288	5
NMTAP	56	336	1
NMTAP	57	0	2
NMSTR	57	192	2
NMSI_	57	192	2	96	48	7
NMSTR	57	192	3
NMSI_	57	192	3	96	48	7
NMTAP	57	288	2
NMTAP	57	288	3
BXSTR	58	0	4
NMSI_	58	0	4	96	48	0
BXTAP	58	0	6
NMTAP	58	96	4
NMTAP	58	96	6
CNSI_	58	144	0	0	48	2
NMTAP	58	144	5
NMSTR	58	192	4
NMSCR	58	192	4	96	48	7
NMTAP	58	240	4
NMSTR	58	288	1
NMSCR	58	288	1	96	48	4
NMTAP	58	336	1
NMSTR	59	0	0
NMSF_	59	0	0	96	48	4
EXTAP	59	192	2
EXTAP	59	192	6
NMTAP	59	240	7
NMTAP	59	288	4
NMTAP	59	288	6
NMTAP	59	336	5
NMTAP	60	0	3
NMSTR	60	0	4
NMSXL	60	0	4	96	48	6
NMTAP	60	96	1
NMTAP	60	96	4
NMSTR	60	192	3
NMSXR	60	192	3	96	48	1
NMTAP	60	192	4
NMTAP	60	288	3
NMTAP	60	288	6
NMSTR	61	0	3
NMSI_	61	0	3	96	48	7
NMSTR	61	0	4
NMSI_	61	0	4	96	48	0
NMTAP	61	96	3
NMTAP	61	96	4
NMTAP	61	192	1
NMTAP	61	192	6
NMTAP	61	240	2
NMTAP	61	240	5
NMTAP	61	288	3
NMTAP	61	288	4
NMTAP	61	336	5
BRTAP	62	0	0
NMTAP	62	0	6
NMTAP	62	48	1
NMTAP	62	72	3
NMTAP	62	96	2
NMTAP	62	144	3
NMTAP	62	144	4
NMSTR	62	192	5
NMSI_	62	192	5	96	48	0
NMTAP	62	240	6
NMTAP	62	288	1
NMTAP	62	288	5
NMTAP	62	336	2
NMTAP	63	0	3
BRTAP	63	0	7
NMTAP	63	48	6
NMTAP	63	72	4
NMTAP	63	96	5
NMTAP	63	144	3
NMTAP	63	144	4
NMSTR	63	192	2
NMSI_	63	192	2	96	48	7
NMTAP	63	240	1
NMTAP	63	288	2
NMTAP	63	288	6
NMTAP	63	336	5
BRTAP	64	0	0
NMTAP	64	0	4
NMTAP	64	48	1
NMTAP	64	72	3
NMTAP	64	96	2
NMTAP	64	144	6
NMTAP	64	168	4
NMTAP	64	192	5
NMTAP	64	240	0
NMTAP	64	240	7
NMTAP	64	288	1
NMTAP	64	288	6
NMTAP	64	336	2
NMTAP	64	336	5
NMSTR	65	0	3
NMSI_	65	0	3	96	48	7
NMSTR	65	0	4
NMSI_	65	0	4	96	48	6
BRSTR	65	96	3
NMSI_	65	96	3	96	48	1
BRSTR	65	96	4
NMSI_	65	96	4	96	48	0
BRSTR	65	192	3
NMSI_	65	192	3	96	48	7
BRSTR	65	192	4
NMSI_	65	192	4	96	48	6
BRTAP	65	288	3
BRTAP	65	288	4
NMTTP	65	289	0	C	1	M1
BXTAP	66	0	0
BXTAP	66	0	5
NMTAP	66	96	2
NMTAP	66	96	3
NMTAP	66	192	3
NMHLD	66	192	6	72
NMTAP	66	264	4
NMTAP	66	288	5
NMTAP	66	336	0
NMHLD	67	0	1	72
NMTAP	67	0	4
NMTAP	67	72	3
NMTAP	67	96	2
NMTAP	67	144	7
NMSTR	67	192	0
NMSCR	67	192	0	96	48	3
NMTAP	67	192	6
NMTAP	67	240	5
NMTAP	67	288	4
CNSI_	67	336	3	0	48	7
NMTAP	67	336	5
NMSTR	68	0	6
NMSI_	68	0	6	96	48	2
NMTAP	68	96	0
NMTAP	68	96	6
NMHLD	68	192	1	72
NMTAP	68	192	4
NMTAP	68	264	3
NMTAP	68	288	2
NMTAP	68	336	7
NMTAP	69	0	3
NMHLD	69	0	6	72
NMTAP	69	72	4
NMTAP	69	96	5
NMTAP	69	144	3
NMTAP	69	144	4
NMTAP	69	192	1
NMTAP	69	192	5
NMSTR	69	288	0
NMSI_	69	288	0	96	48	3
BRSTR	69	288	7
BRSI_	69	288	7	96	48	4
NMTAP	69	336	1
BRTAP	69	336	6
NMTTP	70	1	0	C	1	M1

T_REC_TAP	296
T_REC_BRK	8
T_REC_XTP	20
T_REC_BXX	5
T_REC_HLD	40
T_REC_XHO	5
T_REC_BHO	1
T_REC_BXH	0
T_REC_STR	63
T_REC_BST	6
T_REC_XST	3
T_REC_XBS	1
T_REC_TTP	35
T_REC_THO	0
T_REC_SLD	74
T_REC_BSL	1
T_REC_ALL	558
T_NUM_TAP	417
T_NUM_BRK	22
T_NUM_HLD	45
T_NUM_SLD	74
T_NUM_ALL	558
T_JUDGE_TAP	437
T_JUDGE_HLD	119
T_JUDGE_SLD	75
T_JUDGE_ALL	631
TTM_EACHPAIRS	105
TTM_SCR_TAP	208500
TTM_SCR_BRK	57200
TTM_SCR_HLD	45000
TTM_SCR_SLD	111000
TTM_SCR_ALL	421700
TTM_SCR_S	406950
TTM_SCR_SS	419500
TTM_RAT_ACV	10052

