VERSION	0.00.00	1.04.00
FES_MODE	0
BPM_DEF	160.000	160.000	160.000	160.000
MET_DEF	4	4
RESOLUTION	384
CLK_DEF	384
COMPATIBLE_CODE	MA2

BPM	0	0	160.000
MET	0	0	4	4

NMTAP	2	0	0
NMHLD	2	0	1	576
NMSTR	2	192	0
NMSCL	2	192	0	96	288	4
NMTAP	4	0	2
NMTAP	4	0	5
NMTAP	4	192	2
NMTAP	4	192	6
NMTAP	4	288	1
NMTAP	4	288	5
NMHLD	5	0	2	96
NMHLD	5	0	6	96
NMTAP	6	0	0
NMTAP	6	0	1
NMTAP	6	192	3
NMTAP	6	192	4
NMTAP	6	288	2
NMTAP	6	288	5
NMTAP	7	0	1
NMTAP	7	0	6
NMTAP	7	192	2
NMTAP	7	288	3
NMTAP	8	0	4
NMHLD	8	96	6	96
NMHLD	8	96	7	96
NMTAP	8	288	3
BXHLD	9	0	1	96
BXHLD	9	0	5	96
BXHLD	9	192	2	96
BXHLD	9	192	6	96
NMTAP	10	0	4
NMTAP	10	0	5
NMTAP	10	96	3
NMTAP	10	192	1
NMTAP	10	192	3
NMTAP	11	0	2
NMTAP	11	0	3
NMTAP	11	96	4
NMTAP	11	192	4
NMTAP	11	192	6
NMTAP	12	0	2
NMTAP	12	0	4
NMTAP	12	96	3
NMTAP	12	192	4
NMTAP	12	192	6
NMTAP	13	0	3
NMTAP	13	0	5
NMTAP	13	96	4
NMTAP	13	192	1
NMTAP	13	192	3
NMTAP	14	0	4
NMTAP	14	0	6
NMTAP	14	96	5
NMTAP	14	144	5
NMTAP	14	192	5
NMTAP	14	288	3
NMTAP	14	288	4
NMTAP	15	0	1
NMTAP	15	0	3
NMTAP	15	96	2
NMTAP	15	144	2
NMTAP	15	192	2
NMTAP	15	288	3
NMTAP	15	288	4
NMTAP	16	0	4
NMTAP	16	0	6
NMTAP	16	96	3
NMTAP	16	96	5
NMTAP	16	192	2
NMTAP	16	192	4
NMTAP	16	288	1
NMTAP	16	288	3
BXTAP	17	0	3
BXTAP	17	0	4
NMTTP	17	96	4	E	0	M1
NMTTP	17	192	2	B	0	M1
NMTTP	17	192	5	B	0	M1
NMTTP	17	288	1	B	0	M1
NMTTP	17	288	6	B	0	M1
NMHLD	18	0	0	672
NMTAP	18	0	7
NMTAP	18	192	1
NMTAP	18	288	2
NMTAP	19	0	3
NMTAP	19	96	4
NMTAP	19	192	5
NMTAP	19	288	6
NMTAP	20	0	0
NMHLD	20	0	7	384
NMTAP	20	192	6
NMTAP	20	288	5
NMTAP	21	0	4
NMTTP	21	96	4	E	0	M1
NMTTP	21	192	2	B	0	M1
NMTTP	21	192	5	B	0	M1
NMTTP	21	288	1	B	0	M1
NMTTP	21	288	6	B	0	M1
NMHLD	22	0	0	672
NMTAP	22	0	7
NMTAP	22	192	1
NMTAP	22	288	2
NMTAP	23	0	3
NMTAP	23	96	4
NMTAP	23	192	5
NMTAP	23	288	6
NMTAP	24	0	1
NMTAP	24	0	7
NMTAP	24	96	0
NMTAP	24	192	7
NMSTR	24	288	6
NMSSL	24	288	6	96	192	2
NMHLD	26	0	2	192
NMSTR	26	0	3
NMSLR	26	0	3	96	192	1
NMHLD	27	0	0	192
NMSTR	27	0	1
NMSLR	27	0	1	96	192	7
NMHLD	28	0	6	192
NMSTR	28	0	7
NMSLR	28	0	7	96	192	5
NMSTR	29	0	4
NMSLL	29	0	4	96	192	6
NMHLD	29	0	5	192
EXTAP	30	0	2
EXTAP	30	0	4
NMTAP	30	96	2
NMTAP	30	96	4
NMTAP	30	192	3
NMTAP	30	192	5
NMTAP	30	288	3
NMTAP	30	288	5
NMTAP	31	0	2
NMTAP	31	0	4
NMTAP	31	96	3
NMTAP	31	96	5
NMTAP	31	192	7
NMTAP	31	240	7
NMTAP	31	288	0
EXTAP	32	0	3
EXTAP	32	0	5
NMTAP	32	96	3
NMTAP	32	96	5
NMTAP	32	192	2
NMTAP	32	192	4
NMTAP	32	288	2
NMTAP	32	288	4
NMTAP	33	0	3
NMTAP	33	0	5
NMTAP	33	96	2
NMTAP	33	96	4
NMTAP	33	192	0
NMTAP	33	240	0
NMTAP	33	288	7
NMSTR	34	0	4
NMSLL	34	0	4	96	192	6
NMHLD	34	0	5	192
NMSTR	35	0	6
NMSLL	35	0	6	96	192	0
NMHLD	35	0	7	192
NMSTR	36	0	0
NMSLL	36	0	0	96	192	2
NMHLD	36	0	1	192
NMHLD	37	0	2	192
NMSTR	37	0	3
NMSLR	37	0	3	96	192	1
EXTAP	38	0	0
EXTAP	38	0	6
NMTAP	38	96	0
NMTAP	38	96	6
NMTAP	38	192	1
NMTAP	38	192	7
NMTAP	38	288	1
NMTAP	38	288	7
NMTAP	39	0	0
NMTAP	39	0	6
NMTAP	39	96	1
NMTAP	39	96	7
NMTAP	39	192	4
NMTAP	39	240	4
NMTAP	39	288	3
EXTAP	40	0	1
EXTAP	40	0	7
NMTAP	40	96	1
NMTAP	40	96	7
NMTAP	40	192	0
NMTAP	40	192	6
NMTAP	40	288	0
NMTAP	40	288	6
NMTAP	41	0	1
NMTAP	41	0	7
NMTAP	41	96	0
NMTAP	41	96	6
NMTAP	41	192	3
NMTAP	41	240	3
NMTAP	41	288	4
NMHLD	42	0	1	72
NMHLD	42	72	2	72
NMTAP	42	144	3
NMTAP	42	192	3
NMTAP	42	288	2
NMTAP	42	288	4
NMHLD	43	0	6	72
NMHLD	43	72	5	72
NMTAP	43	144	4
NMTAP	43	192	4
NMTAP	43	288	3
NMTAP	43	288	5
NMSTR	44	0	1
NMSUL	44	0	1	96	192	6
NMTAP	45	0	7
NMTAP	45	96	0
NMTAP	45	192	1
NMTAP	45	192	6
NMHLD	46	0	6	72
NMHLD	46	72	5	72
NMTAP	46	144	4
NMTAP	46	192	4
NMTAP	46	288	3
NMTAP	46	288	5
NMHLD	47	0	1	72
NMHLD	47	72	2	72
NMTAP	47	144	3
NMTAP	47	192	3
NMTAP	47	288	2
NMTAP	47	288	4
NMSTR	48	0	3
NMSF_	48	0	3	96	96	7
EXTAP	48	336	1
EXTAP	48	336	5
BRHLD	49	0	1	96
BRHLD	49	0	5	96
NMTTP	49	192	0	B	0	M1
NMTTP	49	192	1	B	0	M1
NMTTP	49	192	6	B	0	M1
NMTTP	49	192	7	B	0	M1
NMTAP	50	0	4
NMTAP	50	0	5
NMTAP	50	96	2
NMTAP	50	96	3
NMTAP	50	192	0
NMTAP	50	192	1
NMSTR	50	288	6
NMSI_	50	288	6	96	96	3
NMSTR	50	288	7
NMSI_	50	288	7	96	96	2
NMTAP	51	192	1
NMTAP	51	192	4
NMTAP	51	288	0
NMTAP	51	288	5
NMTAP	52	0	6
NMTAP	52	0	7
NMTAP	52	96	4
NMTAP	52	96	5
NMTAP	52	192	2
NMTAP	52	192	3
NMSTR	52	288	0
NMSI_	52	288	0	96	96	5
NMSTR	52	288	1
NMSI_	52	288	1	96	96	4
NMTAP	53	192	3
NMTAP	53	192	6
NMTAP	53	288	2
NMTAP	53	288	7
NMTAP	54	0	0
NMTAP	54	0	1
NMTAP	54	96	6
NMTAP	54	96	7
NMTAP	54	192	4
NMTAP	54	192	5
NMSTR	54	288	2
NMSI_	54	288	2	96	96	7
NMSTR	54	288	3
NMSI_	54	288	3	96	96	6
NMTAP	55	192	0
NMTAP	55	192	5
NMTAP	55	288	1
NMTAP	55	288	4
NMHLD	56	0	2	96
NMTAP	56	0	3
EXTAP	56	96	7
NMTAP	56	192	4
NMHLD	56	192	5	96
EXTAP	56	288	0
EXSTR	57	0	2
NMSCL	57	0	2	96	96	7
EXSTR	57	0	3
NMSCR	57	0	3	96	96	6
NMTAP	58	0	6
NMTAP	58	0	7
NMTAP	58	96	0
NMTAP	58	96	1
NMTAP	58	192	2
NMTAP	58	192	3
NMSTR	58	288	4
NMSI_	58	288	4	96	96	1
NMSTR	58	288	5
NMSI_	58	288	5	96	96	0
NMTAP	59	192	2
NMTAP	59	192	7
NMTAP	59	288	3
NMTAP	59	288	6
NMTAP	60	0	4
NMTAP	60	0	5
NMTAP	60	96	6
NMTAP	60	96	7
NMTAP	60	192	0
NMTAP	60	192	1
NMSTR	60	288	2
NMSI_	60	288	2	96	96	7
NMSTR	60	288	3
NMSI_	60	288	3	96	96	6
NMTAP	61	192	0
NMTAP	61	192	5
NMTAP	61	288	1
NMTAP	61	288	4
NMHLD	62	0	2	96
NMTAP	62	0	3
NMTAP	62	96	0
NMTAP	62	192	0
NMTAP	62	192	1
NMTAP	62	288	2
NMTAP	62	288	7
NMTAP	63	0	4
NMHLD	63	0	5	96
NMTAP	63	96	7
NMTAP	63	192	6
NMTAP	63	192	7
NMTAP	63	288	0
NMTAP	63	288	5
NMHLD	64	0	2	96
NMTAP	64	0	3
NMTAP	64	96	0
NMSTR	64	192	0
NMSCL	64	192	0	96	96	5
NMSTR	64	192	1
NMSCR	64	192	1	96	96	4
NMTTP	65	96	5	E	0	M1
NMTTP	65	192	3	B	0	M1
NMTTP	65	192	6	B	0	M1
NMTTP	65	288	2	B	0	M1
NMTTP	65	288	7	B	0	M1
NMTAP	66	0	0
NMHLD	66	0	1	96
NMTAP	66	96	4
NMHLD	66	192	6	96
NMTAP	66	192	7
NMTAP	66	288	3
NMTAP	67	0	0
NMHLD	67	0	1	96
NMTAP	67	96	3
NMHLD	67	192	6	96
NMTAP	67	192	7
NMTAP	67	288	4
NMTAP	68	0	0
NMHLD	68	0	1	96
NMTAP	68	96	2
NMHLD	68	192	6	96
NMTAP	68	192	7
NMTAP	68	288	5
NMTAP	69	0	0
NMTAP	69	0	1
NMTAP	69	96	3
NMTAP	69	96	6
NMTAP	69	192	2
NMTAP	69	192	7
NMSTR	69	288	0
NMSI_	69	288	0	96	48	5
NMSTR	69	288	1
NMSI_	69	288	1	96	48	4
NMTAP	69	336	0
NMTAP	69	336	1

T_REC_TAP	241
T_REC_BRK	0
T_REC_XTP	12
T_REC_BXX	2
T_REC_HLD	35
T_REC_XHO	0
T_REC_BHO	2
T_REC_BXH	4
T_REC_STR	26
T_REC_BST	0
T_REC_XST	2
T_REC_XBS	0
T_REC_TTP	19
T_REC_THO	0
T_REC_SLD	28
T_REC_BSL	0
T_REC_ALL	371
T_NUM_TAP	300
T_NUM_BRK	8
T_NUM_HLD	35
T_NUM_SLD	28
T_NUM_ALL	371
T_JUDGE_TAP	302
T_JUDGE_HLD	138
T_JUDGE_SLD	28
T_JUDGE_ALL	468
TTM_EACHPAIRS	124
TTM_SCR_TAP	150000
TTM_SCR_BRK	20800
TTM_SCR_HLD	35000
TTM_SCR_SLD	42000
TTM_SCR_ALL	247800
TTM_SCR_S	239600
TTM_SCR_SS	247000
TTM_RAT_ACV	10032

