VERSION	0.00.00	1.04.00
FES_MODE	0
BPM_DEF	133.000	133.000	133.000	133.000
MET_DEF	4	4
RESOLUTION	384
CLK_DEF	384
COMPATIBLE_CODE	MA2

BPM	0	0	133.000
MET	0	0	4	4

BXTAP	2	288	3
BXTAP	2	288	4
NMTAP	3	0	2
NMTAP	3	24	3
NMTAP	3	48	2
NMTAP	3	96	1
NMTAP	3	96	4
NMTAP	3	144	5
NMTAP	3	168	4
NMTAP	3	192	5
NMTAP	3	240	3
NMTAP	3	240	6
NMTAP	3	288	1
NMTAP	3	312	0
NMTAP	3	336	1
NMHLD	4	0	2	48
NMTAP	4	0	7
NMTAP	4	48	3
NMHLD	4	72	3	48
NMTAP	4	120	0
NMSTR	4	144	0
NMSI_	4	144	0	96	48	4
NMTAP	4	192	6
NMTAP	4	240	7
NMTAP	4	288	7
NMTAP	5	0	5
NMTAP	5	24	4
NMTAP	5	48	5
NMTAP	5	96	3
NMTAP	5	96	6
NMTAP	5	144	2
NMTAP	5	168	3
NMTAP	5	192	2
NMTAP	5	240	1
NMTAP	5	240	4
NMTAP	5	288	6
NMTAP	5	312	7
NMTAP	5	336	6
NMTAP	6	0	0
NMHLD	6	0	5	48
NMTAP	6	48	4
NMHLD	6	72	4	48
NMTAP	6	120	7
NMSTR	6	144	7
NMSI_	6	144	7	96	48	3
NMTAP	6	192	1
NMTAP	6	240	0
NMTAP	6	288	0
NMHLD	7	0	1	384
NMTAP	7	0	3
NMTAP	7	96	3
NMTAP	7	192	2
NMTAP	7	288	2
NMHLD	8	0	3	96
NMHLD	8	96	2	96
NMTAP	8	192	3
NMTAP	8	288	3
NMTAP	8	288	4
NMTAP	9	0	4
NMHLD	9	0	5	288
NMTAP	9	96	4
NMTAP	9	192	3
NMTAP	9	288	3
NMHLD	10	0	2	288
NMTAP	10	0	4
NMTTP	10	96	3	E	0	M1
NMTTP	10	192	0	B	0	M1
NMTTP	10	288	6	E	0	M1
NMTAP	11	0	4
NMHLD	11	0	6	384
NMTAP	11	96	4
NMTAP	11	192	5
NMTAP	11	288	5
NMHLD	12	0	4	96
NMHLD	12	96	5	96
NMTAP	12	192	4
NMTAP	12	288	3
NMTAP	12	288	4
NMHLD	13	0	2	288
NMTAP	13	0	3
NMTAP	13	96	3
NMTAP	13	192	4
NMTAP	13	288	4
NMTAP	14	0	3
NMHLD	14	0	5	192
NMTAP	14	96	3
NMTAP	14	192	2
NMTAP	14	240	2
NMTAP	14	240	5
EXTAP	14	288	3
EXTAP	14	288	4
NMHLD	15	0	1	72
NMHLD	15	72	2	72
NMTAP	15	144	3
NMTAP	15	192	3
NMTAP	15	240	6
NMTAP	15	264	4
NMTAP	15	288	5
NMSTR	15	336	2
NMSCR	15	336	2	96	48	4
NMTAP	15	360	3
NMTAP	16	48	5
NMTAP	16	96	6
NMTAP	16	144	7
NMTAP	16	192	4
NMTAP	16	240	6
NMHLD	16	288	4	96
NMTAP	16	288	5
NMHLD	17	0	6	72
NMHLD	17	72	5	72
NMTAP	17	144	4
NMTAP	17	240	1
NMTAP	17	264	3
NMTAP	17	288	2
NMTAP	17	336	5
NMTAP	17	360	4
NMTAP	18	48	3
NMTAP	18	48	6
NMTAP	18	96	5
NMTAP	18	144	4
NMTAP	18	192	2
NMTAP	18	240	1
EXTAP	18	288	2
EXTAP	18	288	3
NMHLD	19	0	1	72
NMHLD	19	72	2	72
NMTAP	19	144	3
NMTAP	19	192	3
NMTAP	19	240	6
NMTAP	19	264	4
NMTAP	19	288	5
NMSTR	19	336	2
NMSCR	19	336	2	96	48	4
NMTAP	19	360	3
NMTAP	20	48	5
NMTAP	20	96	6
NMTAP	20	144	7
NMTAP	20	192	4
NMTAP	20	240	6
NMTAP	20	288	4
NMTAP	20	288	5
NMTAP	20	336	4
NMTAP	20	336	5
NMTAP	21	0	3
NMTAP	21	0	6
NMTAP	21	48	5
NMTAP	21	72	4
NMTAP	21	120	6
NMTAP	21	144	7
NMTAP	21	168	6
NMHLD	21	192	7	72
NMHLD	21	264	0	72
NMTAP	21	336	1
NMTAP	22	0	2
NMSTR	22	0	3
NMSI_	22	0	3	96	48	7
NMTAP	22	96	1
NMTAP	22	144	1
EXTAP	22	192	0
EXTAP	22	192	6
EXTAP	22	264	1
EXTAP	22	264	5
EXTAP	22	336	2
EXTAP	22	336	4
BXTAP	23	0	1
NMSTR	23	0	3
NMSI_	23	0	3	96	96	5
NMTAP	23	192	2
CNSI_	23	192	5	0	96	7
NMTAP	23	288	2
CNSI_	23	288	7	0	96	1
CNSCL	24	0	1	0	192	4
NMTAP	24	0	3
NMTAP	24	96	3
NMTAP	24	192	3
NMTAP	24	288	1
NMTAP	24	288	3
NMTAP	24	352	0
NMTAP	24	352	4
NMHLD	25	0	0	64
NMTAP	25	0	4
NMTAP	25	64	3
NMTAP	25	96	3
NMTAP	25	160	1
NMTAP	25	160	5
NMHLD	25	192	1	64
NMTAP	25	192	5
NMTAP	25	256	3
NMTAP	25	288	3
NMTAP	25	352	2
NMTAP	25	352	6
NMHLD	26	0	2	64
NMTAP	26	0	6
NMTAP	26	64	3
NMTAP	26	96	3
NMTAP	26	160	1
NMTAP	26	160	6
NMTAP	26	192	1
NMHLD	26	192	6	96
EXTAP	26	288	4
EXSTR	27	0	4
NMSI_	27	0	4	96	96	2
EXTAP	27	0	5
CNSI_	27	192	2	0	96	0
NMTAP	27	192	5
CNSI_	27	288	0	0	96	6
NMTAP	27	288	5
NMTAP	28	0	4
CNSCR	28	0	6	0	192	3
NMTAP	28	96	4
NMTAP	28	192	4
NMTAP	28	288	3
NMTAP	28	288	5
NMTAP	28	336	5
NMTAP	29	0	2
NMTAP	29	0	4
NMTAP	29	48	2
NMTAP	29	96	3
NMTAP	29	96	5
NMTAP	29	144	5
NMTAP	29	192	1
NMTAP	29	192	3
NMTAP	29	240	1
NMTAP	29	288	2
NMTAP	29	288	6
NMTAP	29	336	2
NMTAP	29	336	6
NMTAP	30	0	1
NMTAP	30	24	7
NMTAP	30	48	1
NMTAP	30	72	7
NMTAP	30	96	2
NMTAP	30	120	6
NMTAP	30	144	3
NMTAP	30	168	5
NMTAP	30	192	4
BRSTR	30	288	1
NMSCR	30	288	1	96	72	5
BRTAP	30	288	7
BXTAP	31	0	0
BXTAP	31	0	1
NMTAP	31	72	7
BXTAP	31	144	4
BXSTR	31	144	6
NMSUL	31	144	6	96	96	0
NMTAP	31	240	3
NMTAP	31	288	3
NMTAP	31	336	2
NMTAP	32	0	1
NMTAP	32	48	1
NMTAP	32	72	3
NMTAP	32	120	3
NMHLD	32	144	0	144
NMTTP	32	192	4	E	0	M1
NMTTP	32	204	3	E	0	M1
NMTTP	32	216	2	E	0	M1
NMTTP	32	228	1	E	0	M1
NMTTP	32	240	0	E	0	M1
NMTTP	32	252	7	E	0	M1
NMTTP	32	264	6	E	0	M1
NMTTP	32	276	5	E	0	M1
NMTTP	32	288	4	E	1	M1
NMTAP	32	336	1
NMSTR	33	0	1
NMSCR	33	0	1	96	48	4
NMTAP	33	72	0
NMTAP	33	96	1
NMTAP	33	144	7
NMSTR	33	192	6
NMSCL	33	192	6	96	48	3
NMTAP	33	264	7
NMTAP	33	288	6
NMTAP	33	336	0
NMHLD	34	0	1	48
NMTAP	34	48	2
NMHLD	34	72	2	48
NMTAP	34	120	3
NMHLD	34	144	3	144
NMTTP	34	192	0	E	0	M1
NMTTP	34	204	7	E	0	M1
NMTTP	34	216	6	E	0	M1
NMTTP	34	228	5	E	0	M1
NMTTP	34	240	4	E	0	M1
NMTTP	34	252	3	E	0	M1
NMTTP	34	264	2	E	0	M1
NMTTP	34	276	1	E	0	M1
NMTTP	34	288	0	E	1	M1
NMTAP	34	336	2
NMTAP	35	0	1
NMTAP	35	0	3
NMSTR	35	72	0
NMSLR	35	72	0	96	72	4
NMSTR	35	144	4
NMSI_	35	144	4	96	48	0
NMTAP	35	240	6
NMTAP	35	288	6
NMTAP	35	336	5
NMTAP	36	0	4
NMTAP	36	0	6
NMSTR	36	72	7
NMSLL	36	72	7	96	72	3
NMSTR	36	144	3
NMSI_	36	144	3	96	48	7
NMTAP	36	240	2
NMTAP	36	288	2
NMTAP	36	336	1
NMTAP	37	0	7
NMTAP	37	48	0
NMTAP	37	48	6
EXTAP	37	72	0
EXHLD	37	72	6	72
NMTAP	37	144	4
NMTAP	37	168	5
NMTAP	37	192	3
NMTAP	37	240	2
NMTAP	37	240	4
NMHLD	37	264	2	72
NMTAP	37	264	4
NMTAP	37	336	3
EXTAP	38	0	1
EXTAP	38	0	3
NMTAP	38	48	5
EXTAP	38	72	4
EXTAP	38	72	6
NMTAP	38	120	2
EXTAP	38	144	1
EXTAP	38	144	3
NMTAP	38	192	5
NMTAP	38	240	3
NMTAP	38	240	4
NMTAP	38	288	0
NMSTR	38	288	6
NMSCL	38	288	6	96	72	2
BXTAP	39	0	6
BXTAP	39	0	7
NMTAP	39	72	0
BXSTR	39	144	1
NMSUR	39	144	1	96	96	7
BXTAP	39	144	3
NMTAP	39	240	4
NMTAP	39	288	4
NMTAP	39	336	5
NMTAP	40	0	6
NMTAP	40	48	6
NMTAP	40	72	4
NMTAP	40	120	4
NMHLD	40	144	7	144
NMTTP	40	192	4	E	0	M1
NMTTP	40	204	5	E	0	M1
NMTTP	40	216	6	E	0	M1
NMTTP	40	228	7	E	0	M1
NMTTP	40	240	0	E	0	M1
NMTTP	40	252	1	E	0	M1
NMTTP	40	264	2	E	0	M1
NMTTP	40	276	3	E	0	M1
NMTTP	40	288	4	E	1	M1
NMTAP	40	336	6
NMSTR	41	0	6
NMSCL	41	0	6	96	48	3
NMTAP	41	72	7
NMTAP	41	96	6
NMTAP	41	144	0
NMSTR	41	192	1
NMSCR	41	192	1	96	48	4
NMTAP	41	264	0
NMTAP	41	288	1
NMTAP	41	336	7
NMHLD	42	0	6	48
NMTAP	42	48	5
NMHLD	42	72	5	48
NMTAP	42	120	4
NMHLD	42	144	4	144
NMTTP	42	192	0	E	0	M1
NMTTP	42	204	1	E	0	M1
NMTTP	42	216	2	E	0	M1
NMTTP	42	228	3	E	0	M1
NMTTP	42	240	4	E	0	M1
NMTTP	42	252	5	E	0	M1
NMTTP	42	264	6	E	0	M1
NMTTP	42	276	7	E	0	M1
NMTTP	42	288	0	E	1	M1
NMTAP	42	336	5
NMTAP	43	0	4
NMTAP	43	0	6
NMSTR	43	72	3
NMSLL	43	72	3	96	72	7
NMSTR	43	144	7
NMSI_	43	144	7	96	48	3
NMTAP	43	240	6
NMTAP	43	288	6
NMTAP	43	336	5
BXTAP	44	0	3
BXTAP	44	0	4
BXTAP	44	72	0
BXTAP	44	72	7
BXSTR	44	144	2
NMSUR	44	144	2	96	48	7
BXSTR	44	144	5
NMSUL	44	144	5	96	48	0
EXTAP	44	336	0
EXTAP	44	336	7
EXTAP	45	0	0
EXTAP	45	0	7
NMTAP	45	48	5
NMTAP	45	72	4
NMTAP	45	96	6
NMTAP	45	144	2
NMTAP	45	168	3
NMTAP	45	192	1
NMTAP	45	240	6
NMTAP	45	264	4
NMTAP	45	288	7
NMTAP	45	336	1
NMTAP	45	360	3
NMSTR	46	0	0
NMSI_	46	0	0	96	48	4
NMTAP	46	48	7
NMTAP	46	72	7
NMTAP	46	96	0
NMTAP	46	144	5
NMSTR	46	192	2
BRSCL	46	192	2	96	48	7
NMSTR	46	192	6
BRSCL	46	192	6	96	48	3
BRTAP	47	0	1
BRTAP	47	0	5
NMSTR	47	96	2
NMSI_	47	96	2	96	48	0
NMTAP	47	120	3
NMTAP	47	144	1
NMTAP	47	192	2
NMTAP	47	192	4
NMTAP	47	240	5
NMSTR	47	288	6
NMSI_	47	288	6	96	48	4
NMTAP	47	312	7
NMTAP	47	336	5
NMTAP	48	0	0
NMTAP	48	0	6
NMTAP	48	48	1
NMTAP	48	96	2
NMTAP	48	120	3
NMTAP	48	144	1
NMTAP	48	192	0
NMTAP	48	192	4
NMSTR	48	240	2
NMSLR	48	240	2	96	96	0
NMSTR	48	240	6
NMSLL	48	240	6	96	96	0
NMTAP	48	288	1
NMTAP	48	288	7
NMSTR	49	96	2
NMSI_	49	96	2	96	24	4
NMTAP	49	120	0
NMTAP	49	144	1
NMTAP	49	192	2
NMTAP	49	192	7
NMTAP	49	240	6
NMSTR	49	288	6
NMSI_	49	288	6	96	24	0
NMTAP	49	312	4
NMTAP	49	336	5
NMTAP	50	0	3
NMTAP	50	0	6
NMTAP	50	48	2
NMHLD	50	96	2	72
EXTAP	50	168	4
EXSTR	50	192	4
NMSCR	50	192	4	96	48	7
NMTAP	50	264	3
NMTAP	50	288	3
NMTAP	50	336	2
BRTAP	51	0	1
BRTAP	51	0	7
NMSTR	51	96	7
NMSI_	51	96	7	96	48	3
NMTAP	51	120	0
NMTAP	51	144	6
NMTAP	51	192	1
NMTAP	51	192	7
NMTAP	51	240	2
NMSTR	51	288	3
NMSI_	51	288	3	96	48	7
NMTAP	51	312	4
NMTAP	51	336	2
NMTAP	52	0	3
NMTAP	52	0	5
NMTAP	52	48	6
NMTAP	52	96	0
NMTAP	52	120	7
NMTAP	52	144	0
NMTAP	52	168	7
NMTAP	52	192	0
NMTAP	52	240	1
NMTAP	52	240	5
NMTAP	52	288	2
NMTAP	52	312	4
NMHLD	52	336	3	240
BXHLD	53	0	7	192
NMTTP	53	288	0	C	1	M1
NMTTP	53	288	2	B	0	M1
NMTTP	53	288	3	B	0	M1
NMTTP	53	288	3	E	0	M1
NMTTP	53	288	4	B	0	M1
NMTTP	53	288	5	B	0	M1
NMTTP	53	288	5	E	0	M1
NMTAP	54	0	1
NMTAP	54	24	0
NMTAP	54	48	1
NMTAP	54	96	2
NMTAP	54	96	7
NMTAP	54	144	6
NMTAP	54	168	7
NMTAP	54	192	6
NMTAP	54	240	0
NMTAP	54	240	5
NMTAP	54	288	5
NMTAP	54	312	4
NMTAP	54	336	5
NMHLD	55	0	2	48
NMTAP	55	0	7
NMTAP	55	48	3
NMHLD	55	72	3	48
NMTAP	55	120	0
NMSTR	55	144	0
NMSCR	55	144	0	96	48	4
NMTAP	55	192	6
NMTAP	55	240	7
NMTAP	55	288	7
NMTAP	56	0	5
NMTAP	56	24	4
NMTAP	56	48	5
NMTAP	56	96	3
NMTAP	56	96	6
NMTAP	56	144	2
NMTAP	56	168	3
NMTAP	56	192	2
NMTAP	56	240	1
NMTAP	56	240	4
NMTAP	56	288	6
NMTAP	56	312	7
NMTAP	56	336	6
NMTAP	57	0	0
NMTAP	57	0	6
NMTAP	57	48	2
NMTAP	57	72	1
BXTAP	57	72	3
NMTAP	57	120	5
BXTAP	57	144	4
NMTAP	57	144	6
EXTAP	57	192	0
EXTAP	57	208	7
EXTAP	57	224	0
EXTAP	57	240	7
EXTAP	57	256	0
EXTAP	57	272	7
EXTAP	57	288	0
BRTAP	58	0	1
BRTAP	58	0	6

T_REC_TAP	340
T_REC_BRK	7
T_REC_XTP	31
T_REC_BXX	15
T_REC_HLD	40
T_REC_XHO	1
T_REC_BHO	0
T_REC_BXH	1
T_REC_STR	29
T_REC_BST	1
T_REC_XST	2
T_REC_XBS	4
T_REC_TTP	46
T_REC_THO	0
T_REC_SLD	34
T_REC_BSL	2
T_REC_ALL	553
T_NUM_TAP	448
T_NUM_BRK	30
T_NUM_HLD	41
T_NUM_SLD	34
T_NUM_ALL	553
T_JUDGE_TAP	475
T_JUDGE_HLD	109
T_JUDGE_SLD	36
T_JUDGE_ALL	620
TTM_EACHPAIRS	88
TTM_SCR_TAP	224000
TTM_SCR_BRK	78000
TTM_SCR_HLD	41000
TTM_SCR_SLD	51000
TTM_SCR_ALL	394000
TTM_SCR_S	379300
TTM_SCR_SS	391000
TTM_RAT_ACV	10076

