VERSION	0.00.00	1.04.00
FES_MODE	0
BPM_DEF	133.000	133.000	133.000	133.000
MET_DEF	4	4
RESOLUTION	384
CLK_DEF	384
COMPATIBLE_CODE	MA2

BPM	0	0	133.000
MET	0	0	4	4

NMSTR	1	0	3
NMSCL	1	0	3	96	480	0
NMSTR	1	0	4
NMSCR	1	0	4	96	480	7
EXTAP	2	288	3
EXTAP	2	288	4
NMTAP	3	0	2
NMTAP	3	0	3
NMTAP	3	48	1
NMTAP	3	48	3
NMTAP	3	144	4
NMTAP	3	144	5
NMTAP	3	192	4
NMTAP	3	192	6
NMTAP	3	288	2
NMTAP	3	288	3
NMTAP	3	336	1
NMTAP	3	336	3
NMSTR	4	0	0
NMSCR	4	0	0	96	96	4
NMTAP	4	288	3
NMTAP	4	288	6
NMTAP	5	0	4
NMTAP	5	0	5
NMTAP	5	48	4
NMTAP	5	48	6
NMTAP	5	144	2
NMTAP	5	144	3
NMTAP	5	192	1
NMTAP	5	192	3
NMTAP	5	288	4
NMTAP	5	288	5
NMTAP	5	336	4
NMTAP	5	336	6
NMHLD	6	0	7	72
NMHLD	6	72	1	72
NMTAP	6	144	3
NMTAP	6	192	3
BRTAP	6	288	2
BRTAP	6	288	4
NMTAP	7	0	3
NMTAP	7	0	5
NMTAP	7	96	5
NMTAP	7	192	3
NMTAP	7	192	5
NMTAP	7	288	5
NMHLD	8	0	4	192
NMTAP	8	0	5
NMTAP	8	96	5
NMTAP	8	192	5
NMTAP	8	240	4
NMTAP	8	288	4
NMTAP	8	288	5
NMHLD	9	0	3	96
NMTAP	9	0	6
NMTAP	9	96	6
NMHLD	9	192	4	96
NMTAP	9	192	6
NMSTR	9	288	6
NMSUL	9	288	6	96	192	4
NMTAP	10	288	3
NMTAP	10	288	5
NMTAP	11	0	2
NMTAP	11	0	4
NMTAP	11	96	2
NMTAP	11	192	2
NMTAP	11	192	4
NMTAP	11	288	2
NMTAP	12	0	2
NMHLD	12	0	3	192
NMTAP	12	96	2
NMTAP	12	192	2
NMTAP	12	240	3
NMTAP	12	288	2
NMTAP	12	288	3
NMTAP	13	0	1
NMHLD	13	0	4	96
NMTAP	13	96	1
NMTAP	13	192	1
NMHLD	13	192	3	96
NMSTR	13	288	1
NMSXL	13	288	1	96	192	4
NMTAP	14	288	3
NMTAP	14	288	5
NMHLD	15	0	6	72
NMHLD	15	72	5	72
NMTAP	15	144	4
NMHLD	15	192	1	72
NMHLD	15	264	2	72
NMTAP	15	336	3
NMSTR	16	0	4
NMSCL	16	0	4	96	96	2
NMTAP	16	240	1
NMTAP	16	288	1
NMHLD	17	0	2	72
NMHLD	17	72	3	72
NMTAP	17	144	4
NMTAP	17	240	5
NMSTR	17	288	5
NMSUL	17	288	5	96	192	3
NMTAP	18	288	2
NMTAP	18	288	4
NMHLD	19	0	1	72
NMHLD	19	72	2	72
NMTAP	19	144	3
NMHLD	19	192	5	72
NMHLD	19	264	6	72
NMTAP	19	336	7
NMSTR	20	0	0
NMSCR	20	0	0	96	96	3
NMTAP	20	240	4
NMTAP	20	288	4
NMHLD	21	0	6	72
NMHLD	21	72	5	72
NMTAP	21	144	4
NMHLD	21	192	2	72
NMHLD	21	264	1	72
NMTAP	21	336	0
BRTAP	22	0	0
BRTAP	22	0	7
NMTAP	22	144	3
EXTAP	22	192	3
EXTAP	22	264	2
EXTAP	22	264	4
EXTAP	22	336	3
EXTAP	22	336	5
EXSTR	23	0	6
NMSI_	23	0	6	96	96	3
NMSTR	23	192	1
NMSI_	23	192	1	96	96	4
NMTTP	24	0	6	E	0	M1
NMTTP	24	96	7	E	0	M1
NMTTP	24	192	0	E	0	M1
NMTTP	24	192	2	E	0	M1
NMHLD	25	0	0	96
NMHLD	25	96	1	96
NMHLD	25	192	2	96
NMHLD	25	288	3	96
NMTTP	26	0	2	B	0	M1
NMTTP	26	96	3	B	0	M1
NMTTP	26	192	2	E	0	M1
NMTTP	26	192	4	E	0	M1
NMSTR	27	0	1
NMSI_	27	0	1	96	96	4
NMSTR	27	192	6
NMSI_	27	192	6	96	96	3
NMTTP	28	0	2	E	0	M1
NMTTP	28	96	1	E	0	M1
NMTTP	28	192	0	E	0	M1
NMTTP	28	192	6	E	0	M1
EXTAP	29	0	6
NMTAP	29	48	6
NMTAP	29	96	6
NMTAP	29	144	6
NMTAP	29	192	3
NMTAP	29	192	5
NMTAP	29	288	2
NMTAP	29	288	4
EXTAP	30	0	1
NMTAP	30	48	1
NMTAP	30	96	1
NMTAP	30	144	1
NMTAP	30	192	0
NMTAP	30	192	7
BRTAP	30	288	1
BRTAP	30	288	6
EXTAP	31	0	4
EXTAP	31	0	5
NMTAP	31	72	2
NMTAP	31	72	3
NMTAP	31	144	0
NMTAP	31	144	7
NMTAP	31	240	6
NMTAP	31	288	7
NMTAP	31	336	0
NMSTR	32	0	1
NMSCL	32	0	1	96	192	2
NMSTR	33	0	0
NMSI_	33	0	0	96	48	5
NMSTR	33	0	1
NMSI_	33	0	1	96	48	4
NMSTR	33	192	6
NMSI_	33	192	6	96	48	3
NMSTR	33	192	7
NMSI_	33	192	7	96	48	2
EXTAP	34	0	1
EXTAP	34	0	4
EXTAP	34	72	3
EXTAP	34	72	6
EXTAP	34	144	0
EXTAP	34	144	7
BRTAP	34	240	1
BRTAP	34	288	1
EXTAP	35	0	0
EXTAP	35	0	1
NMSTR	35	72	2
NMSUR	35	72	2	96	96	7
NMSTR	35	72	3
NMSCR	35	72	3	96	96	6
EXTAP	35	336	6
EXTAP	35	336	7
EXTAP	36	0	6
EXTAP	36	0	7
NMSTR	36	72	4
NMSI_	36	72	4	96	72	0
NMSTR	36	72	5
NMSI_	36	72	5	96	72	7
NMTAP	36	336	1
NMHLD	37	0	1	72
NMHLD	37	72	2	72
NMTAP	37	144	3
NMHLD	37	192	7	72
NMHLD	37	264	6	72
NMTAP	37	336	5
NMTAP	38	0	5
NMTAP	38	96	3
NMTAP	38	144	4
NMTAP	38	192	3
NMTAP	38	192	4
BXTAP	38	288	0
BXTAP	38	288	7
EXTAP	39	0	1
EXTAP	39	0	3
NMTAP	39	72	4
NMTAP	39	72	6
NMTAP	39	144	0
NMTAP	39	144	7
NMTAP	39	240	1
NMTAP	39	288	0
NMTAP	39	336	7
NMSTR	40	0	6
NMSCR	40	0	6	96	192	5
NMSTR	41	0	6
NMSI_	41	0	6	96	48	3
NMSTR	41	0	7
NMSI_	41	0	7	96	48	2
NMSTR	41	192	0
NMSI_	41	192	0	96	48	5
NMSTR	41	192	1
NMSI_	41	192	1	96	48	4
EXTAP	42	0	3
EXTAP	42	0	6
EXTAP	42	72	1
EXTAP	42	72	4
EXTAP	42	144	0
EXTAP	42	144	7
BRTAP	42	240	6
BRTAP	42	288	6
EXTAP	43	0	6
EXTAP	43	0	7
NMSTR	43	72	4
NMSCL	43	72	4	96	96	1
NMSTR	43	72	5
NMSUL	43	72	5	96	96	0
EXTAP	43	336	0
EXTAP	43	336	1
EXTAP	44	0	0
EXTAP	44	0	1
NMTAP	44	72	2
NMSTR	44	72	3
NMSF_	44	72	3	96	96	7
EXTAP	44	336	1
EXTAP	44	336	6
EXHLD	45	0	1	96
EXHLD	45	0	6	96
NMTAP	45	144	0
NMTAP	45	168	7
NMTAP	45	192	0
NMTAP	45	336	6
NMHLD	46	0	6	72
NMHLD	46	72	5	72
NMTAP	46	144	4
NMHLD	46	192	0	72
NMHLD	46	264	1	72
NMTAP	46	336	2
BXTAP	47	0	3
BXTAP	47	0	7
NMTAP	47	96	5
NMTAP	47	144	5
NMTAP	47	192	4
NMTAP	47	288	3
NMTAP	47	288	6
NMTAP	48	0	1
NMTAP	48	48	1
NMTAP	48	96	0
NMTAP	48	96	2
NMTAP	48	192	6
NMTAP	48	240	6
NMTAP	48	288	5
NMTAP	48	288	7
NMTAP	49	0	3
NMTAP	49	0	4
NMTAP	49	96	2
NMTAP	49	144	2
NMTAP	49	192	3
NMTAP	49	288	1
NMTAP	49	288	4
NMTAP	50	0	3
NMTAP	50	0	6
NMSTR	50	96	4
NMSI_	50	96	4	96	48	1
NMSTR	50	96	5
NMSI_	50	96	5	96	48	0
BRTAP	50	288	2
BRTAP	50	288	7
NMTAP	51	0	3
NMTAP	51	0	4
NMTAP	51	96	6
NMTAP	51	144	6
NMTAP	51	192	7
NMTAP	51	288	0
NMTAP	51	288	5
NMTAP	52	0	2
NMTAP	52	48	2
NMTAP	52	96	1
NMTAP	52	96	3
NMTAP	52	192	5
NMTAP	52	240	5
NMTAP	52	288	4
NMTAP	52	288	6
NMTHO	53	0	0	192	C	0	M1
NMTTP	53	288	0	A	0	M1
NMTTP	53	288	0	D	1	M1
NMTTP	53	288	7	A	0	M1
NMTAP	54	0	4
NMTAP	54	0	5
NMTAP	54	48	4
NMTAP	54	48	6
NMTAP	54	144	2
NMTAP	54	144	3
NMTAP	54	192	1
NMTAP	54	192	3
NMTAP	54	288	4
NMTAP	54	288	5
NMTAP	54	336	4
NMTAP	54	336	6
NMSTR	55	0	7
NMSCL	55	0	7	96	96	3
NMTAP	55	288	1
NMTAP	55	288	4
NMTAP	56	0	2
NMTAP	56	0	3
NMTAP	56	48	1
NMTAP	56	48	3
NMTAP	56	144	4
NMTAP	56	144	5
NMTAP	56	192	4
NMTAP	56	192	6
NMTAP	56	288	2
NMTAP	56	288	3
NMTAP	56	336	1
NMTAP	56	336	3
NMHLD	57	0	0	72
NMHLD	57	72	6	72
NMTAP	57	144	4
NMTAP	57	192	4
BRSTR	57	288	1
NMSI_	57	288	1	96	48	5
BRTAP	57	288	5
NMTTP	58	0	0	E	1	M1

T_REC_TAP	183
T_REC_BRK	13
T_REC_XTP	39
T_REC_BXX	4
T_REC_HLD	36
T_REC_XHO	2
T_REC_BHO	0
T_REC_BXH	0
T_REC_STR	31
T_REC_BST	1
T_REC_XST	1
T_REC_XBS	0
T_REC_TTP	16
T_REC_THO	1
T_REC_SLD	33
T_REC_BSL	0
T_REC_ALL	360
T_NUM_TAP	270
T_NUM_BRK	18
T_NUM_HLD	39
T_NUM_SLD	33
T_NUM_ALL	360
T_JUDGE_TAP	288
T_JUDGE_HLD	84
T_JUDGE_SLD	33
T_JUDGE_ALL	405
TTM_EACHPAIRS	95
TTM_SCR_TAP	135000
TTM_SCR_BRK	46800
TTM_SCR_HLD	39000
TTM_SCR_SLD	49500
TTM_SCR_ALL	270300
TTM_SCR_S	260450
TTM_SCR_SS	268500
TTM_RAT_ACV	10067

