VERSION	0.00.00	1.04.00
FES_MODE	0
BPM_DEF	168.000	168.000	168.000	168.000
MET_DEF	4	4
RESOLUTION	384
CLK_DEF	384
COMPATIBLE_CODE	MA2

BPM	0	0	168.000
MET	0	0	4	4

NMHLD	1	0	3	2016
NMTAP	5	0	4
NMTAP	5	96	4
NMTAP	5	192	4
NMTAP	5	288	4
NMTAP	6	0	4
NMTAP	6	96	4
NMTTP	6	192	1	B	0	M1
NMTAP	6	192	4
NMTAP	6	288	4
EXTAP	7	0	4
EXTAP	7	96	4
EXTAP	7	192	4
EXHLD	7	288	4	384
NMTAP	8	288	3
NMSTR	9	0	3
NMSI_	9	0	3	96	48	6
NMSTR	9	0	4
NMSI_	9	0	4	96	48	1
NMTAP	9	192	2
NMHLD	9	192	4	96
NMTAP	9	288	5
NMHLD	10	0	3	96
NMTAP	10	0	5
NMSTR	10	96	2
NMSCL	10	96	2	96	96	7
NMTAP	10	192	4
NMTAP	10	288	4
NMTAP	11	0	3
NMTAP	11	0	4
NMSTR	11	96	0
BRSCR	11	96	0	96	48	3
NMSTR	11	96	6
NMSI_	11	96	6	96	48	4
NMSTR	11	288	2
BRSI_	11	288	2	96	48	6
NMHLD	11	288	4	96
EXTAP	12	96	7
BXTAP	12	192	0
BXTAP	12	192	6
BXTAP	12	288	1
BXTAP	12	288	7
NMSTR	13	0	3
NMSCL	13	0	3	96	48	1
NMTAP	13	0	5
NMTAP	13	96	4
NMTAP	13	192	2
NMSTR	13	192	4
NMSCR	13	192	4	96	48	6
NMSTR	13	288	3
NMSXR	13	288	3	96	96	2
NMTAP	14	0	5
NMTAP	14	96	5
NMTAP	14	192	5
BXSTR	14	288	0
NMSXL	14	288	0	96	192	4
BXTAP	14	288	7
NMTAP	15	0	4
NMTAP	15	192	6
NMSTR	15	240	6
NMSUL	15	240	6	96	240	4
NMTTP	15	336	0	C	1	M1
NMTAP	16	192	3
NMSTR	16	288	3
NMSCL	16	288	3	96	192	0
NMTAP	16	288	4
NMTAP	17	0	5
NMTAP	17	96	5
NMTAP	17	192	5
NMSTR	17	288	0
NMSUR	17	288	0	96	192	4
NMTAP	17	288	5
NMTAP	18	0	6
NMTAP	18	96	6
NMTAP	18	192	6
NMSTR	18	288	0
NMSCR	18	288	0	96	192	3
NMTAP	18	288	6
NMTAP	19	0	5
NMTAP	19	96	5
NMTAP	19	192	5
NMTAP	19	288	5
NMTAP	20	0	4
NMTAP	20	96	4
NMTAP	20	192	5
NMTAP	20	288	5
NMSTR	21	0	0
NMSCL	21	0	0	96	144	4
NMSTR	21	0	6
NMSCR	21	0	6	96	144	2
NMTAP	22	0	3
NMTAP	22	0	5
NMSTR	22	96	0
NMSCL	22	96	0	96	48	6
NMSCR	22	96	0	96	48	2
NMTAP	23	0	2
NMSTR	23	0	3
BRSCR	23	0	3	96	96	7
NMTAP	23	96	2
NMTAP	23	192	3
NMTAP	23	288	7
NMSTR	23	336	7
NMSSR	23	336	7	96	144	3
EXTAP	24	288	2
EXTAP	24	288	4
NMTAP	25	0	5
NMTAP	25	96	3
NMTAP	25	96	6
NMTAP	25	192	0
NMTAP	25	192	7
NMTAP	25	288	1
NMTAP	25	288	5
NMTAP	25	336	1
NMTAP	25	336	5
NMTAP	26	0	2
NMTAP	26	96	1
NMTAP	26	96	4
NMTAP	26	192	0
NMTAP	26	192	7
NMTAP	26	288	2
NMTAP	26	288	6
NMTAP	26	336	2
NMTAP	26	336	6
NMTAP	27	0	1
NMTAP	27	0	7
NMSTR	27	96	3
NMSV_	27	96	3	96	48	0
NMSTR	27	96	4
NMSV_	27	96	4	96	48	7
CNSCR	27	240	0	0	48	2
CNSCL	27	240	7	0	48	5
NMTAP	28	0	1
NMTAP	28	0	7
NMTTP	28	96	3	B	0	M1
NMTTP	28	96	3	E	0	M1
NMTTP	28	96	3	D	0	M1
NMTTP	28	96	5	B	0	M1
NMTTP	28	96	6	E	0	M1
NMTTP	28	96	6	D	0	M1
NMTAP	28	192	0
NMTAP	28	192	6
NMTTP	28	288	2	B	0	M1
NMTTP	28	288	2	E	0	M1
NMTTP	28	288	2	D	0	M1
NMTTP	28	288	4	B	0	M1
NMTTP	28	288	5	E	0	M1
NMTTP	28	288	5	D	0	M1
NMHLD	29	0	1	288
NMSTR	29	0	3
NMSCL	29	0	3	96	144	5
NMTAP	30	0	4
NMTAP	30	96	2
NMTAP	30	96	6
NMTAP	30	192	3
NMTAP	30	288	1
NMTAP	30	288	5
NMSTR	31	0	0
NMSCR	31	0	0	96	96	3
NMSTR	31	0	6
NMSCL	31	0	6	96	96	3
EXTAP	31	288	2
EXTAP	31	288	4
EXHLD	31	336	2	96
EXTAP	31	336	4
NMSTR	32	48	3
NMSI_	32	48	3	96	96	7
NMTAP	32	144	1
NMTAP	32	240	0
NMSTR	32	288	0
NMSCR	32	288	0	96	384	7
BRTAP	33	0	7
NMSTR	35	0	3
NMSCL	35	0	3	96	48	1
NMTAP	35	0	5
NMTAP	35	288	7
NMHLD	35	336	7	48
NMHLD	36	48	0	48
NMHLD	36	48	7	48
NMHLD	36	144	1	48
NMHLD	36	144	6	48
NMTAP	36	240	2
NMTAP	36	240	5
NMTAP	36	336	3
NMHLD	37	0	2	288
NMHLD	37	0	6	288
NMHLD	38	0	3	96
NMHLD	38	0	5	96
NMHLD	38	192	2	960
NMTAP	38	192	4
NMTAP	38	288	3
NMSTR	39	0	3
NMSUR	39	0	3	96	144	7
BRTAP	40	192	7
NMTHO	41	0	0	384	C	0	M1
NMTTP	41	0	4	B	0	M1
NMTTP	41	0	5	B	0	M1
NMTAP	41	96	3
NMTAP	41	192	3
NMTAP	41	288	2
EXTAP	42	0	1
EXTAP	42	48	1
EXTAP	42	96	1
NMSTR	42	192	0
NMSCR	42	192	0	96	48	3
NMSTR	42	192	7
NMSCL	42	192	7	96	48	4
BRTAP	42	288	0
BRTAP	42	288	7
NMTAP	43	0	3
NMTAP	43	0	5
NMTAP	43	96	1
NMSTR	43	96	7
BRSCL	43	96	7	96	96	2
NMTAP	43	144	0
NMTAP	43	192	1
EXTAP	43	192	7
NMTAP	43	288	1
NMTAP	44	0	0
NMSTR	44	0	3
NMSCL	44	0	3	96	48	7
NMSUL	44	0	3	96	48	7
EXTAP	44	192	6
NMTAP	44	288	4
NMSTR	44	288	5
NMSI_	44	288	5	96	48	7
NMSTR	45	0	3
NMSI_	45	0	3	96	48	1
NMTAP	45	0	5
NMTAP	45	96	3
NMTAP	45	96	7
NMSTR	45	192	2
NMSI_	45	192	2	96	48	0
NMSTR	45	192	4
NMSI_	45	192	4	96	48	6
NMTAP	45	288	2
NMTAP	45	288	4
EXTAP	46	0	7
EXTAP	46	48	7
EXTAP	46	96	0
EXTAP	46	96	6
NMTAP	46	192	2
NMTAP	46	192	4
NMSTR	46	288	0
NMSCL	46	288	0	96	48	5
NMSTR	46	288	1
NMSCR	46	288	1	96	48	4
NMTAP	47	0	0
NMTAP	47	0	1
NMTTP	47	192	3	B	0	M1
NMTTP	47	192	3	E	0	M1
NMTTP	47	192	4	B	1	M1
NMTTP	47	192	5	B	0	M1
NMTTP	47	192	6	E	0	M1
EXTAP	47	288	0
EXTAP	48	0	1
EXHLD	48	0	7	96
NMHLD	48	96	5	96
NMHLD	48	192	3	96
NMTAP	48	288	1
NMTAP	49	0	2
NMTAP	49	0	5
NMSTR	49	96	0
NMSCR	49	96	0	96	48	3
NMSTR	49	96	7
NMSCL	49	96	7	96	48	4
NMTAP	49	192	0
NMTAP	49	192	7
NMTAP	49	288	3
NMTAP	49	288	5
NMSTR	50	0	4
NMSXL	50	0	4	96	96	4
NMSXR	50	0	4	96	96	4
NMHLD	50	288	2	96
NMSTR	50	288	3
NMSCL	50	288	3	96	96	5
NMTAP	51	192	1
NMTAP	51	192	4
NMSTR	51	288	6
NMSCL	51	288	6	96	48	4
NMTAP	52	0	3
NMTAP	52	0	6
NMSTR	52	96	1
NMSCR	52	96	1	96	48	4
NMTAP	52	192	1
NMTAP	52	192	5
NMHLD	52	288	7	96
NMSTR	53	0	0
NMSCL	53	0	0	96	96	4
NMSTR	53	96	4
NMSCL	53	96	4	96	96	0
NMSTR	53	192	0
NMSCL	53	192	0	96	96	4
NMSTR	53	288	4
NMSLL	53	288	4	96	96	0
NMSTR	54	0	0
NMSLL	54	0	0	96	96	4
NMSTR	54	96	4
NMSLL	54	96	4	96	96	0
NMTAP	54	192	0
NMTAP	54	288	4
EXTAP	55	0	2
EXTAP	55	0	6
EXTAP	55	48	2
EXTAP	55	48	6
EXTAP	55	96	2
EXTAP	55	96	6
NMTAP	55	192	3
NMSTR	55	192	5
BRSI_	55	192	5	96	48	0
NMTAP	55	288	4
NMTAP	55	336	4
NMTAP	56	48	2
NMTAP	56	96	2
NMTAP	56	144	3
NMTAP	56	192	1
NMTAP	56	192	3
NMTAP	56	288	0
NMTAP	56	288	4
NMSTR	57	0	2
BRSI_	57	0	2	96	48	7
NMSTR	57	0	3
BRSI_	57	0	3	96	48	6
NMTAP	57	96	2
NMTAP	57	96	3
NMTAP	57	240	6
NMHLD	57	288	6	96
NMSTR	58	0	4
NMSI_	58	0	4	96	48	0
EXTAP	58	96	4
EXTAP	58	96	5
NMSTR	58	192	3
NMSI_	58	192	3	96	48	7
EXTAP	58	288	2
EXTAP	58	288	3
NMTAP	59	0	4
NMTAP	59	0	5
NMSTR	59	96	0
NMSCR	59	96	0	96	96	4
NMSTR	59	96	1
NMSCL	59	96	1	96	96	5
NMTAP	59	144	0
NMTAP	59	144	1
NMTAP	60	0	2
NMTAP	60	0	3
NMSTR	60	96	6
NMSCR	60	96	6	96	96	2
NMSTR	60	96	7
NMSCL	60	96	7	96	96	3
NMTAP	60	144	6
NMTAP	60	144	7
NMTAP	61	0	1
NMTAP	61	0	3
NMTAP	61	72	2
NMTAP	61	72	4
NMTAP	61	144	3
NMTAP	61	144	5
NMTAP	61	240	2
NMTAP	61	240	6
NMSTR	61	288	2
NMSUL	61	288	2	96	72	5
NMSTR	61	288	6
NMSCR	61	288	6	96	72	1
EXTAP	62	144	0
EXTAP	62	144	7
NMSTR	62	240	2
NMSCL	62	240	2	96	48	0
NMSTR	62	240	4
NMSCR	62	240	4	96	48	6
EXTAP	62	336	2
EXTAP	62	336	4
NMSTR	63	48	3
NMSCL	63	48	3	96	48	1
NMSTR	63	48	5
NMSCR	63	48	5	96	48	7
EXTAP	63	144	3
EXTAP	63	144	5
NMHLD	63	240	2	48
NMHLD	63	240	4	48
NMTAP	63	336	1
NMTAP	63	336	5
NMSTR	64	48	7
NMSCL	64	48	7	96	48	4
NMSCR	64	48	7	96	48	2
NMTAP	64	240	1
NMSTR	64	288	0
NMSI_	64	288	0	96	48	3
NMSI_	64	288	0	96	48	5
CNSV_	65	48	3	0	528	0
CNSV_	65	48	5	0	528	0

T_REC_TAP	154
T_REC_BRK	4
T_REC_XTP	36
T_REC_BXX	5
T_REC_HLD	22
T_REC_XHO	3
T_REC_BHO	0
T_REC_BXH	0
T_REC_STR	66
T_REC_BST	0
T_REC_XST	0
T_REC_XBS	1
T_REC_TTP	21
T_REC_THO	1
T_REC_SLD	65
T_REC_BSL	7
T_REC_ALL	385
T_NUM_TAP	277
T_NUM_BRK	17
T_NUM_HLD	26
T_NUM_SLD	65
T_NUM_ALL	385
T_JUDGE_TAP	287
T_JUDGE_HLD	127
T_JUDGE_SLD	72
T_JUDGE_ALL	486
TTM_EACHPAIRS	95
TTM_SCR_TAP	138500
TTM_SCR_BRK	44200
TTM_SCR_HLD	26000
TTM_SCR_SLD	97500
TTM_SCR_ALL	306200
TTM_SCR_S	295400
TTM_SCR_SS	304500
TTM_RAT_ACV	10055

