VERSION	0.00.00	1.04.00
FES_MODE	0
BPM_DEF	227.000	227.000	227.000	197.000
MET_DEF	4	4
RESOLUTION	384
CLK_DEF	288
COMPATIBLE_CODE	MA2

BPM	0	0	227.000
BPM	99	0	197.000
BPM	99	288	212.000
BPM	100	192	227.000
BPM	102	0	212.000
BPM	102	96	227.000
BPM	105	0	212.000
BPM	105	96	227.000
MET	0	0	4	3

EXTAP	1	192	2
EXTAP	1	192	5
EXSTR	1	204	3
NMSCL	1	204	3	96	564	4
EXSTR	1	204	4
NMSCR	1	204	4	96	564	3
NMTAP	3	288	2
NMTAP	3	288	3
BRTAP	4	0	0
BRTAP	4	0	5
NMTAP	4	192	1
NMTAP	4	192	7
NMTAP	4	288	2
NMHLD	4	336	2	96
NMTAP	5	48	4
NMHLD	5	96	4	96
NMHLD	5	192	5	96
NMSTR	5	288	6
NMSCR	5	288	6	96	144	2
NMTAP	6	0	4
NMTAP	6	96	3
CNSUL	6	144	2	0	144	5
NMTAP	6	144	3
NMTAP	6	240	4
NMHLD	6	288	4	96
NMHLD	7	0	3	96
NMSTR	7	96	2
NMSCL	7	96	2	96	288	3
NMTAP	8	192	1
NMTAP	8	192	4
NMTAP	8	288	2
NMTAP	8	288	5
NMTAP	9	0	6
NMTAP	9	48	4
NMTAP	9	96	6
NMTAP	9	144	1
NMTAP	9	192	3
NMTAP	9	240	1
NMTAP	9	288	7
NMTAP	9	336	0
NMTAP	10	0	5
NMTAP	10	96	3
NMTAP	10	96	6
NMTAP	10	192	7
NMTAP	10	288	5
NMHLD	10	336	5	96
NMTAP	11	48	3
NMHLD	11	96	3	96
NMHLD	11	192	2	96
NMSTR	11	288	1
NMSCL	11	288	1	96	144	5
NMTAP	12	0	3
NMTAP	12	96	4
NMTAP	12	144	4
CNSUR	12	144	5	0	144	2
NMTAP	12	240	3
NMHLD	12	288	3	96
NMHLD	13	0	4	96
NMSTR	13	96	5
NMSCR	13	96	5	96	288	4
NMTAP	14	192	3
NMTAP	14	192	6
NMTAP	14	288	2
NMTAP	14	288	5
NMTAP	15	0	1
NMTAP	15	48	3
NMTAP	15	96	2
NMTAP	15	144	6
NMTAP	15	192	4
NMTAP	15	240	5
NMTAP	15	288	1
NMTAP	15	336	1
NMTAP	16	0	0
NMTAP	16	96	2
NMTAP	16	96	7
EXTAP	16	192	3
EXTAP	16	192	6
EXTAP	16	240	3
EXTAP	16	240	6
EXTAP	16	336	1
EXTAP	16	336	4
EXTAP	17	48	0
EXTAP	17	48	7
EXTAP	17	96	0
EXSTR	17	96	7
NMSI_	17	96	7	96	48	3
EXSTR	17	192	1
NMSI_	17	192	1	96	48	5
EXTAP	17	192	7
EXTAP	17	288	1
BXTAP	18	0	0
BXSTR	18	0	6
NMSUL	18	0	6	96	768	3
NMTTP	19	192	0	C	0	M1
NMTTP	20	96	1	A	0	M1
NMSTR	21	0	4
NMSXL	21	0	4	96	768	7
NMTTP	22	192	2	E	0	M1
NMTTP	23	96	3	E	0	M1
NMSTR	24	0	1
NMSUR	24	0	1	96	768	4
NMTTP	25	192	0	C	0	M1
NMTTP	26	96	6	A	0	M1
NMSTR	27	0	3
NMSCL	27	0	3	96	240	7
NMHLD	27	288	6	288
NMHLD	28	192	4	288
NMTAP	29	96	5
NMTAP	29	144	5
NMTAP	29	240	3
NMTAP	29	240	4
NMTAP	29	336	2
NMTAP	29	336	3
EXTAP	30	0	2
EXTAP	30	0	3
NMTAP	30	96	1
NMTAP	30	144	1
NMTAP	30	192	0
NMTAP	30	288	0
NMHLD	30	288	7	96
NMHLD	31	0	6	96
NMSTR	31	96	5
NMSCL	31	96	5	96	96	2
NMTAP	31	192	2
NMTAP	31	288	1
NMTAP	32	0	0
NMTAP	32	96	1
NMTAP	32	96	7
NMTAP	32	288	2
NMTAP	32	288	4
EXTAP	33	0	3
EXTAP	33	0	5
NMTAP	33	96	6
NMTAP	33	144	6
NMTAP	33	192	7
NMHLD	33	288	0	96
NMTAP	33	288	7
NMHLD	34	0	1	96
NMSTR	34	96	2
NMSCR	34	96	2	96	96	5
NMTAP	34	192	5
NMTAP	34	288	6
NMTAP	35	0	7
NMTAP	35	48	7
EXTAP	35	96	0
EXTAP	35	96	6
NMTAP	35	288	3
NMTAP	35	288	4
EXTAP	36	0	2
EXTAP	36	0	3
NMTAP	36	96	1
NMTAP	36	144	1
NMTAP	36	192	0
NMTAP	36	288	0
NMHLD	36	288	7	96
NMHLD	37	0	6	96
NMSTR	37	96	5
NMSCL	37	96	5	96	96	2
NMTAP	37	192	2
NMTAP	37	288	1
NMTAP	38	0	0
NMTAP	38	48	0
NMTAP	38	96	1
NMTAP	38	96	7
NMTAP	38	192	3
NMTAP	38	192	6
NMTAP	38	288	1
NMTAP	38	288	4
NMTAP	39	0	0
NMTAP	39	48	1
NMTAP	39	96	2
NMTAP	39	96	3
NMTAP	39	192	4
NMTAP	39	192	6
NMTAP	39	288	6
NMTAP	39	288	7
NMTAP	40	0	4
NMTAP	40	0	5
NMTAP	40	96	1
NMTAP	40	96	3
NMTAP	40	192	0
NMTAP	40	192	7
NMTAP	40	288	2
NMTAP	40	336	2
NMTAP	40	336	3
NMTAP	41	48	5
NMTAP	41	96	4
NMTAP	41	96	5
BRTAP	41	192	1
BRTAP	41	192	6
EXTAP	42	0	0
EXTAP	42	0	5
NMTAP	42	24	4
NMTAP	42	48	3
NMTAP	42	72	2
NMTAP	42	96	1
NMTAP	42	120	0
NMTAP	42	144	7
NMTAP	42	168	6
NMTAP	42	192	5
NMTAP	42	288	2
NMTAP	42	312	3
NMTAP	42	336	2
NMTAP	42	360	3
EXTAP	43	0	1
EXTAP	43	0	4
EXTAP	43	192	2
EXTAP	43	192	7
NMTAP	43	216	3
NMTAP	43	240	4
NMTAP	43	264	5
NMTAP	43	288	6
NMTAP	43	312	7
NMTAP	43	336	0
NMTAP	43	360	1
NMTAP	44	0	2
NMTAP	44	96	5
NMTAP	44	120	4
NMTAP	44	144	5
NMTAP	44	168	4
EXTAP	44	192	3
EXTAP	44	192	6
NMTAP	45	0	0
NMHLD	45	0	1	96
NMTAP	45	96	3
NMTAP	45	144	3
NMTAP	45	192	3
NMHLD	45	288	5	96
NMHLD	46	0	6	96
NMHLD	46	96	7	96
NMTAP	46	192	0
NMTAP	46	288	2
NMTAP	46	336	2
NMTAP	46	336	3
NMTAP	47	48	5
NMTAP	47	96	4
NMTAP	47	96	5
NMTAP	47	192	2
NMTAP	47	192	7
NMTAP	47	288	0
NMTAP	47	288	5
EXTAP	48	0	6
EXTAP	48	0	7
NMTAP	48	24	5
NMTAP	48	48	4
NMTAP	48	72	3
NMTAP	48	96	2
NMTAP	48	120	1
NMTAP	48	144	0
NMTAP	48	168	7
NMTAP	48	192	6
NMTAP	48	216	5
NMTAP	48	240	4
NMTAP	48	264	3
EXTAP	48	288	0
NMTAP	48	312	1
NMTAP	48	336	2
NMTAP	48	360	3
NMTAP	49	0	4
NMTAP	49	24	5
NMTAP	49	48	6
NMTAP	49	72	7
NMTAP	49	96	0
NMTAP	49	120	1
NMTAP	49	144	2
NMTAP	49	168	3
EXTAP	49	192	7
NMTAP	49	216	6
NMTAP	49	240	5
NMTAP	49	264	4
NMTAP	49	288	3
NMTAP	49	312	2
NMTAP	49	336	1
NMTAP	49	360	0
NMTAP	50	0	7
NMTAP	50	24	6
NMTAP	50	48	5
NMTAP	50	72	4
EXTAP	50	96	1
NMTAP	50	120	2
NMTAP	50	144	3
NMTAP	50	168	4
NMTAP	50	192	5
NMTAP	50	216	6
NMTAP	50	240	7
NMTAP	50	264	0
BRTAP	50	288	1
BRTAP	50	288	4
NMHLD	51	0	2	48
NMTAP	51	0	3
NMTAP	51	96	1
NMHLD	51	96	2	48
NMTAP	51	192	0
NMHLD	51	192	2	48
NMHLD	51	288	2	48
NMTAP	51	288	3
NMTAP	52	0	1
NMHLD	52	0	2	48
NMTAP	52	96	0
NMHLD	52	96	2	48
NMTAP	52	192	4
NMHLD	52	192	6	48
NMTAP	52	288	5
NMHLD	52	288	6	48
NMHLD	53	0	6	48
NMTAP	53	0	7
NMTAP	53	96	4
NMHLD	53	96	6	48
NMTAP	53	192	5
NMHLD	53	192	6	48
NMHLD	53	288	6	48
NMTAP	53	288	7
NMTAP	54	0	0
NMTAP	54	0	7
NMTAP	54	96	1
NMTAP	54	192	2
NMTAP	54	288	3
NMTAP	55	0	4
NMTAP	55	96	5
NMTAP	55	192	0
NMTAP	55	192	6
NMTAP	55	288	5
NMTAP	56	0	4
NMTAP	56	96	3
NMTAP	56	192	2
NMTAP	56	288	1
NMTAP	56	372	0
NMSTR	57	0	7
NMSCL	57	0	7	96	864	0
NMHLD	57	12	6	1140
BRTAP	60	0	7
NMTTP	61	160	1	E	0	M1
NMTTP	61	176	0	B	0	M1
NMTTP	61	192	7	B	0	M1
NMTAP	61	336	3
NMTAP	61	336	5
NMTAP	62	48	4
NMTAP	62	96	4
BRTAP	62	192	2
BRTAP	62	192	6
EXSTR	63	0	0
NMSI_	63	0	0	96	72	4
EXTAP	63	0	4
NMTAP	63	96	5
NMTAP	63	144	6
CNSCL	63	168	4	0	72	1
NMTAP	63	192	7
NMSTR	63	288	7
NMSI_	63	288	7	96	48	4
NMSTR	64	0	7
NMSI_	64	0	7	96	48	2
NMSTR	64	96	7
NMSCL	64	96	7	96	48	4
EXTAP	64	192	1
CNSXL	64	240	4	0	120	3
NMTAP	64	336	0
NMTAP	65	0	0
BRTAP	65	96	1
BRTAP	65	96	2
NMTAP	65	288	2
NMTAP	65	288	4
NMTAP	65	336	5
NMSTR	66	0	6
NMSCR	66	0	6	96	72	1
NMTAP	66	96	1
NMTAP	66	144	2
CNSI_	66	168	1	0	72	5
NMTAP	66	192	3
NMSTR	66	288	3
NMSCL	66	288	3	96	96	0
NMSTR	67	0	0
NMSCL	67	0	0	96	96	5
NMSTR	67	96	5
NMSCL	67	96	5	96	96	2
NMSTR	67	192	2
NMSCL	67	192	2	96	96	7
NMSTR	67	288	7
NMSCL	67	288	7	96	96	4
NMSTR	68	0	4
NMSI_	68	0	4	96	72	1
NMTTP	68	96	6	E	1	M1
NMTAP	68	288	1
NMTAP	68	336	0
EXSTR	69	0	2
NMSI_	69	0	2	96	72	6
EXTAP	69	0	7
NMTAP	69	96	6
NMTAP	69	144	5
CNSCR	69	168	6	0	72	1
NMTAP	69	192	4
NMSTR	69	288	3
NMSI_	69	288	3	96	48	7
NMSTR	70	0	3
NMSI_	70	0	3	96	48	1
NMSTR	70	96	3
NMSCR	70	96	3	96	48	7
EXTAP	70	192	0
CNSUR	70	240	7	0	240	0
NMTAP	70	336	1
NMTAP	71	0	1
BRTAP	71	96	2
NMTAP	71	192	3
NMTAP	71	192	6
NMTAP	71	288	2
NMTAP	71	336	3
NMSTR	72	0	1
NMSI_	72	0	1	96	48	3
NMTAP	72	0	4
NMTAP	72	96	5
NMTAP	72	144	5
NMTAP	72	192	4
NMTAP	72	192	6
NMTAP	72	288	0
NMTAP	72	288	7
NMTAP	72	336	1
NMTAP	73	0	2
NMTAP	73	48	3
NMTAP	73	48	6
NMTAP	73	96	5
NMTAP	73	144	4
NMSTR	73	192	1
NMSCR	73	192	1	96	48	4
NMSTR	73	192	3
NMSI_	73	192	3	96	48	0
NMTAP	74	0	7
NMTAP	74	48	6
BRTAP	74	96	1
BRTAP	74	96	5
NMTAP	74	288	4
NMTAP	74	288	5
NMTAP	74	336	6
EXTAP	75	0	3
EXSTR	75	0	7
NMSI_	75	0	7	96	72	3
NMTAP	75	96	2
NMTAP	75	144	1
CNSCR	75	168	3	0	72	6
NMTAP	75	192	0
NMSTR	75	288	0
NMSI_	75	288	0	96	48	3
NMSTR	76	0	0
NMSI_	76	0	0	96	48	5
NMSTR	76	96	0
NMSCR	76	96	0	96	48	3
EXTAP	76	192	6
CNSXR	76	240	3	0	144	4
NMTAP	76	336	7
NMTAP	77	0	7
BRTAP	77	96	5
BRTAP	77	96	6
NMTAP	77	288	3
NMTAP	77	288	5
NMTAP	77	336	2
NMTAP	78	0	0
NMSTR	78	0	1
NMSCL	78	0	1	96	72	6
NMTAP	78	96	6
NMTAP	78	144	5
CNSI_	78	168	6	0	72	2
NMTAP	78	192	4
NMSTR	78	288	4
NMSCR	78	288	4	96	96	7
NMSTR	79	0	7
NMSCR	79	0	7	96	96	2
NMSTR	79	96	2
NMSCR	79	96	2	96	96	5
NMSTR	79	192	5
NMSI_	79	192	5	96	96	0
NMSTR	79	288	0
NMSI_	79	288	0	96	96	3
NMSTR	80	0	3
NMSI_	80	0	3	96	96	6
NMSTR	80	96	6
NMSCR	80	96	6	96	96	1
NMSTR	80	192	1
NMSCR	80	192	1	96	96	4
NMSTR	80	288	4
NMSXL	80	288	4	96	192	7
NMTTP	81	0	0	A	1	M1
NMTAP	81	144	1
NMTAP	81	192	1
NMTAP	81	288	2
NMTAP	81	288	6
NMTAP	82	0	2
NMTAP	82	48	3
NMTAP	82	96	4
NMTAP	82	144	5
BRSTR	82	192	6
NMSI_	82	192	6	96	48	3
NMTAP	82	288	6
BRSTR	82	336	1
NMSI_	82	336	1	96	48	5
NMTAP	83	48	1
BRSTR	83	96	7
NMSF_	83	96	7	96	48	3
NMTAP	83	192	7
BRTAP	83	288	1
BRTAP	83	288	5
EXTAP	84	0	0
EXTAP	84	0	4
NMTAP	84	48	0
NMTAP	84	48	4
NMTAP	84	96	1
NMTAP	84	144	3
NMTAP	84	192	4
NMTAP	84	240	6
EXTAP	84	288	3
EXTAP	84	288	7
NMTAP	84	336	3
NMTAP	84	336	7
NMTAP	85	0	6
NMTAP	85	48	4
NMTAP	85	96	3
NMTAP	85	144	1
EXHLD	85	192	0	384
EXTAP	85	192	4
NMTAP	85	336	3
NMTAP	86	0	4
NMTAP	86	48	5
NMSTR	86	96	6
NMSI_	86	96	6	96	48	2
NMTAP	86	192	6
NMTTP	86	193	0	C	1	M1
NMTAP	86	288	7
NMTAP	86	312	0
NMTAP	86	336	1
NMTAP	86	360	2
BRTAP	87	0	3
BRTAP	87	0	7
NMTAP	88	48	3
NMTAP	88	96	4
NMHLD	88	192	2	192
NMTAP	89	0	3
NMTAP	89	96	3
NMTAP	89	192	4
NMTAP	89	288	5
NMHLD	90	0	6	192
NMSTR	90	192	4
NMSUL	90	192	4	96	576	2
NMTAP	90	288	4
NMHLD	93	0	3	432
NMTAP	94	48	4
NMTAP	94	96	3
NMHLD	94	192	5	192
NMTAP	95	0	4
NMTAP	95	96	4
NMTAP	95	192	3
NMTAP	95	288	2
NMHLD	96	0	1	192
NMSTR	96	192	3
NMSCR	96	192	3	96	192	6
NMTAP	96	288	3
BRTAP	97	192	0
BRTAP	97	192	7
NMTAP	97	336	2
NMTAP	97	336	4
NMTAP	98	48	3
NMTAP	98	96	3
NMTAP	98	96	5
NMTAP	98	192	2
NMTAP	98	192	6
NMTAP	98	288	0
NMTAP	98	288	7
BRTAP	99	0	1
BRTAP	99	0	5
NMTAP	99	96	2
NMTAP	99	144	2
NMTAP	99	192	3
NMTAP	99	240	3
NMTAP	99	288	2
NMTAP	99	336	1
NMTAP	100	0	0
NMTAP	100	48	7
NMTAP	100	96	6
NMTAP	100	144	5
NMHLD	100	192	4	96
NMHLD	100	192	5	96
NMSTR	101	0	5
NMSCR	101	0	5	96	192	2
NMTAP	101	48	4
NMHLD	101	96	3	192
BRTAP	102	0	1
BRTAP	102	0	4
NMTAP	102	144	3
NMTAP	102	192	4
NMTAP	102	240	5
NMTAP	102	288	6
NMTAP	102	288	7
NMTAP	103	0	0
NMTAP	103	0	5
NMTAP	103	96	2
NMTAP	103	144	3
EXTAP	103	192	1
EXTAP	103	192	4
NMTAP	103	240	2
NMTAP	103	288	3
EXTAP	103	336	7
NMTAP	104	0	6
NMTAP	104	48	5
EXTAP	104	96	0
NMTAP	104	128	4
NMTAP	104	160	0
NMTAP	104	192	4
NMTAP	104	224	0
NMTAP	104	256	4
BXTAP	104	288	1
BXTAP	104	288	5
EXTAP	105	0	3
EXHLD	105	0	7	96
EXTAP	105	96	2
NMTAP	105	120	1
NMTAP	105	144	0
NMTAP	105	168	7
NMTAP	105	192	6
NMTAP	105	216	5
NMTAP	105	240	4
NMTAP	105	264	3
EXTAP	105	288	6
NMTAP	105	312	5
NMTAP	105	336	4
NMTAP	105	360	3
NMTAP	106	0	2
NMTAP	106	24	1
NMTAP	106	48	0
NMTAP	106	72	7
NMTAP	106	96	6
NMTAP	106	120	5
NMTAP	106	144	4
NMTAP	106	168	3
EXTAP	106	192	0
NMTAP	106	216	1
NMTAP	106	240	2
NMTAP	106	264	3
NMTAP	106	288	4
NMTAP	106	312	5
NMTAP	106	336	6
NMTAP	106	360	7
NMTAP	107	0	0
NMTAP	107	24	1
NMTAP	107	48	2
NMTAP	107	72	3
EXTAP	107	96	4
EXTAP	107	96	5
NMTAP	107	192	0
NMTAP	107	192	7
NMSTR	107	288	2
NMSCL	107	288	2	96	480	3
NMTAP	107	288	3
NMTTP	108	0	3	B	0	M1
NMTTP	108	0	4	B	0	M1
NMTTP	108	0	4	E	1	M1
CNSCR	109	96	3	0	576	2
NMTAP	109	96	6
NMTAP	109	144	7
NMHLD	109	192	0	480
BRTAP	111	0	3
BRTAP	111	0	6
NMTTP	112	160	7	E	0	M1
NMTTP	112	176	7	B	0	M1
NMTTP	112	192	0	B	0	M1
NMTAP	112	336	2
NMTAP	112	336	4
NMTAP	113	48	3
NMTAP	113	96	3
BRTAP	113	192	1
BRTAP	113	192	5
NMTAP	114	0	6
NMTAP	114	0	7
NMTAP	114	96	1
NMTAP	114	96	3
NMTAP	114	144	2
NMTAP	114	240	4
NMTAP	114	240	6
NMTAP	114	288	5
NMTAP	115	0	2
NMTAP	115	0	4
NMTAP	115	96	0
NMTAP	115	96	1
NMSTR	115	192	6
NMSI_	115	192	6	96	48	2
NMTAP	115	192	7
NMSTR	115	288	5
NMSI_	115	288	5	96	48	1
NMTAP	115	336	5
NMSTR	116	48	4
NMSI_	116	48	4	96	48	0
NMTAP	116	96	4
NMTAP	116	192	1
NMTAP	116	288	3
NMSTR	117	0	4
NMSCL	117	0	4	96	48	1
NMTAP	117	0	5
NMSTR	117	96	6
NMSI_	117	96	6	96	48	2
NMTAP	117	144	6
NMSTR	117	240	7
NMSCR	117	240	7	96	48	3
NMTAP	117	288	7
NMTAP	118	0	4
NMTAP	118	96	5
NMTAP	118	192	4
NMTAP	118	192	6
NMTAP	118	240	7
NMTAP	118	288	0
NMTAP	118	336	1
NMTAP	118	336	3
NMTAP	119	0	0
NMTAP	119	48	7
NMTAP	119	96	4
NMTAP	119	96	6
NMTAP	119	144	7
NMTAP	119	192	0
NMTAP	119	192	1
BRTAP	119	288	2
BRTAP	119	288	6
NMTAP	120	0	0
NMTAP	120	0	7
NMTAP	120	96	4
NMTAP	120	96	6
NMTAP	120	144	5
NMTAP	120	240	1
NMTAP	120	240	3
NMTAP	120	288	2
NMTAP	121	0	3
NMTAP	121	0	5
NMTAP	121	96	6
NMTAP	121	96	7
NMTAP	121	192	0
NMSTR	121	192	1
NMSI_	121	192	1	96	48	5
NMSTR	121	288	2
NMSI_	121	288	2	96	48	6
NMTAP	121	336	2
NMSTR	122	48	3
NMSI_	122	48	3	96	48	7
NMTAP	122	96	3
NMTAP	122	192	6
NMTAP	122	288	4
NMTAP	123	0	2
NMSTR	123	0	3
NMSCR	123	0	3	96	48	6
NMSTR	123	96	1
NMSI_	123	96	1	96	48	5
NMTAP	123	144	1
NMSTR	123	240	0
NMSCL	123	240	0	96	48	4
NMTAP	123	288	0
NMTAP	124	0	3
NMTAP	124	96	2
NMTAP	124	192	1
NMTAP	124	192	3
NMTAP	124	240	0
NMTAP	124	288	7
NMTAP	124	336	4
NMTAP	124	336	6
NMTAP	125	0	7
NMTAP	125	48	0
NMTAP	125	96	1
NMTAP	125	96	3
NMTAP	125	144	0
NMTAP	125	192	6
NMTAP	125	192	7
BRTAP	125	288	0
BRTAP	125	288	4
EXTAP	126	0	1
EXTAP	126	0	6
NMSTR	126	48	0
NMSCR	126	48	0	96	48	3
NMTAP	126	48	5
NMTAP	126	144	0
NMTAP	126	144	7
NMTAP	126	240	4
NMTAP	126	240	6
EXTAP	126	288	5
EXSTR	126	288	7
NMSI_	126	288	7	96	48	2
EXSTR	127	0	4
NMSI_	127	0	4	96	48	0
EXTAP	127	0	7
EXTAP	127	96	4
EXTAP	127	96	5
EXTAP	127	192	1
EXTAP	127	192	6
NMTAP	127	240	2
NMSTR	127	240	7
NMSCL	127	240	7	96	48	4
NMTAP	127	336	0
NMTAP	127	336	7
NMTAP	128	48	1
NMTAP	128	48	3
EXSTR	128	96	0
NMSI_	128	96	0	96	48	5
EXTAP	128	96	2
EXTAP	128	192	0
EXSTR	128	192	3
NMSI_	128	192	3	96	48	7
EXTAP	128	288	2
EXTAP	128	288	3
EXTAP	129	0	1
EXTAP	129	0	6
NMSTR	129	48	0
NMSCR	129	48	0	96	48	3
NMTAP	129	48	5
NMTAP	129	144	0
NMTAP	129	144	7
NMTAP	129	240	4
NMTAP	129	240	6
EXTAP	129	288	5
EXSTR	129	288	7
NMSI_	129	288	7	96	48	2
EXSTR	130	0	4
NMSI_	130	0	4	96	48	0
EXTAP	130	0	7
EXTAP	130	96	4
EXTAP	130	96	5
EXTAP	130	192	1
EXTAP	130	192	5
NMSTR	130	240	2
NMSI_	130	240	2	96	48	7
NMSTR	130	240	6
NMSI_	130	240	6	96	48	3
NMTAP	130	336	2
NMTAP	130	336	6
EXTAP	131	48	1
EXTAP	131	48	5
EXSTR	131	96	3
NMSI_	131	96	3	96	48	7
EXSTR	131	96	4
NMSI_	131	96	4	96	48	0
EXTAP	131	192	3
EXTAP	131	192	4
BXTAP	131	288	1
BXTAP	131	288	6
NMTAP	132	240	0
NMTAP	132	240	7
NMTAP	132	256	1
NMTAP	132	256	6
NMTAP	132	272	2
NMTAP	132	272	5
BXSTR	132	288	3
NMSCL	132	288	3	96	480	4
BXSTR	132	288	4
NMSCR	132	288	4	96	480	3
CNSXR	134	96	3	0	576	0
CNSXL	134	96	4	0	576	7

T_REC_TAP	484
T_REC_BRK	34
T_REC_XTP	79
T_REC_BXX	5
T_REC_HLD	44
T_REC_XHO	2
T_REC_BHO	0
T_REC_BXH	0
T_REC_STR	62
T_REC_BST	3
T_REC_XST	15
T_REC_XBS	3
T_REC_TTP	18
T_REC_THO	0
T_REC_SLD	83
T_REC_BSL	0
T_REC_ALL	832
T_NUM_TAP	658
T_NUM_BRK	45
T_NUM_HLD	46
T_NUM_SLD	83
T_NUM_ALL	832
T_JUDGE_TAP	703
T_JUDGE_HLD	141
T_JUDGE_SLD	83
T_JUDGE_ALL	927
TTM_EACHPAIRS	168
TTM_SCR_TAP	329000
TTM_SCR_BRK	117000
TTM_SCR_HLD	46000
TTM_SCR_SLD	124500
TTM_SCR_ALL	616500
TTM_SCR_S	593650
TTM_SCR_SS	612000
TTM_RAT_ACV	10073

