VERSION	0.00.00	1.04.00
FES_MODE	0
BPM_DEF	227.000	227.000	227.000	197.000
MET_DEF	4	4
RESOLUTION	384
CLK_DEF	288
COMPATIBLE_CODE	MA2

BPM	0	0	227.000
BPM	99	0	197.000
BPM	99	288	212.000
BPM	100	192	227.000
BPM	102	0	212.000
BPM	102	96	227.000
BPM	105	0	212.000
BPM	105	96	227.000
MET	0	0	4	3

NMSTR	1	192	3
NMSCL	1	192	3	96	576	4
NMTAP	1	192	4
EXTAP	3	288	3
NMTAP	4	0	3
NMTAP	4	96	2
NMTAP	4	96	4
BRTAP	4	192	1
BRTAP	4	192	5
NMTAP	4	288	0
NMTAP	5	0	7
NMTAP	5	96	2
NMTAP	5	96	6
NMTAP	5	192	3
NMTAP	5	288	4
NMTAP	6	0	0
NMTAP	6	0	5
NMTAP	6	96	0
NMTAP	6	96	5
NMTAP	6	192	1
NMTAP	6	288	1
NMTAP	6	288	3
NMTAP	7	0	3
NMTAP	7	0	4
NMTAP	7	96	4
NMTAP	7	96	6
NMHLD	7	192	7	192
NMTAP	7	288	0
NMTAP	8	0	0
NMHLD	8	96	1	192
NMTAP	8	192	0
NMTAP	8	288	0
NMTAP	9	0	2
NMTAP	9	48	2
NMTAP	9	96	4
NMTAP	9	144	4
NMTAP	9	192	3
NMTAP	9	240	3
NMTAP	9	288	5
NMTAP	9	336	5
NMTAP	10	0	4
NMTAP	10	96	2
NMTAP	10	96	6
BRTAP	10	192	1
BRTAP	10	192	5
NMTAP	10	288	4
NMTAP	11	0	3
NMTAP	11	96	2
NMTAP	11	96	6
NMTAP	11	192	7
NMTAP	11	288	0
NMTAP	12	0	1
NMTAP	12	0	4
NMTAP	12	96	1
NMTAP	12	96	4
NMTAP	12	192	5
NMTAP	12	288	6
NMTAP	12	288	7
NMTAP	13	0	6
NMTAP	13	0	7
NMTAP	13	96	0
NMTAP	13	96	5
NMHLD	13	192	1	192
NMTAP	13	288	3
NMTAP	14	0	3
NMHLD	14	96	5	192
NMTAP	14	192	4
NMTAP	14	288	4
NMTAP	15	0	6
NMTAP	15	48	6
NMTAP	15	96	4
NMTAP	15	144	4
NMTAP	15	192	5
NMTAP	15	240	5
NMTAP	15	288	2
NMTAP	15	336	2
NMTAP	16	0	3
NMTAP	16	96	1
NMTAP	16	96	4
EXTAP	16	192	6
EXTAP	16	192	7
EXTAP	16	240	6
EXTAP	16	240	7
EXTAP	16	336	2
EXTAP	16	336	5
EXTAP	17	48	0
EXTAP	17	48	1
EXTAP	17	96	0
EXTAP	17	96	1
EXTAP	17	192	2
EXTAP	17	192	7
EXTAP	17	288	3
EXTAP	17	288	6
NMTTP	18	0	0	C	1	M1
NMTTP	18	0	2	B	0	M1
NMTTP	18	0	3	B	0	M1
NMTTP	18	0	4	B	0	M1
NMTTP	18	0	5	B	0	M1
NMTTP	18	0	6	B	0	M1
NMTTP	19	192	6	E	0	M1
NMTTP	19	288	5	B	0	M1
NMTTP	20	0	4	B	0	M1
NMTTP	20	96	2	B	0	M1
NMTTP	20	96	4	E	0	M1
NMTTP	21	0	2	E	0	M1
NMTTP	21	96	2	B	0	M1
NMTTP	21	192	3	B	0	M1
NMTTP	21	288	4	E	0	M1
NMTTP	21	288	6	E	0	M1
NMTHO	22	192	0	288	C	0	M1
NMTTP	22	192	3	B	0	M1
NMTTP	22	192	4	B	0	M1
NMTTP	24	0	0	A	0	M1
NMTTP	24	96	0	B	0	M1
NMTTP	24	192	0	C	0	M1
NMTTP	24	288	4	B	0	M1
NMTTP	24	288	5	A	0	M1
NMTTP	25	192	7	A	0	M1
NMTTP	25	288	7	B	0	M1
NMTTP	26	0	0	C	0	M1
NMTTP	26	96	2	A	0	M1
NMTTP	26	96	3	B	0	M1
NMHLD	27	0	4	288
EXHLD	27	288	3	576
NMTHO	28	192	0	288	C	0	M1
NMTAP	30	0	0
NMTAP	30	0	7
NMTAP	30	96	6
NMTAP	30	144	6
NMHLD	30	192	6	192
NMTAP	30	288	4
NMTAP	31	0	4
NMTAP	31	96	3
NMTAP	31	96	7
NMTAP	31	192	2
NMTAP	31	192	6
NMTAP	31	288	1
NMTAP	31	336	1
NMHLD	32	0	1	192
NMTAP	32	96	3
NMTAP	32	192	3
NMTAP	32	288	0
NMTAP	32	288	4
NMHLD	33	0	5	192
NMTAP	33	96	7
NMTAP	33	192	0
NMHLD	33	288	1	192
NMTAP	34	0	0
NMSTR	34	96	7
NMSCL	34	96	7	96	288	2
EXTAP	34	192	2
NMTAP	35	96	0
NMTAP	35	192	0
NMTAP	35	288	0
NMTAP	35	288	7
NMHLD	36	0	1	96
NMHLD	36	96	2	96
NMTAP	36	192	3
NMTAP	36	288	3
NMTAP	36	288	4
NMTAP	37	0	4
NMTAP	37	0	5
NMTAP	37	96	3
NMTAP	37	96	6
NMHLD	37	192	6	96
NMHLD	37	288	5	96
NMTAP	38	0	4
NMTAP	38	96	3
NMTAP	38	96	4
NMTAP	38	192	2
NMTAP	38	192	3
NMTAP	38	288	1
NMTAP	38	288	4
NMTAP	39	0	1
NMTAP	39	48	1
NMTAP	39	96	0
NMTAP	39	192	2
NMTAP	39	192	7
NMTAP	39	288	6
NMTAP	39	336	6
NMTAP	40	0	7
NMTAP	40	96	0
NMTAP	40	96	5
NMTAP	40	192	1
NMTAP	40	192	4
NMTAP	40	288	2
NMTAP	40	288	3
NMTAP	41	0	3
NMTAP	41	0	4
NMTAP	41	96	4
NMTAP	41	96	5
BRTAP	41	192	2
BRTAP	41	192	7
NMTAP	42	0	6
NMTAP	42	48	6
NMTAP	42	96	4
NMTAP	42	144	4
NMTAP	42	192	5
NMTAP	42	240	5
NMTAP	42	288	7
EXTAP	43	0	0
EXTAP	43	0	6
NMTAP	43	192	1
NMTAP	43	240	1
NMTAP	43	288	3
NMTAP	43	336	3
NMTAP	44	0	2
NMTAP	44	48	2
NMTAP	44	96	0
EXTAP	44	192	1
EXTAP	44	192	7
NMTAP	45	0	2
NMTAP	45	96	3
NMTAP	45	96	5
NMTAP	45	192	4
NMSTR	45	192	6
NMSUL	45	192	6	96	192	4
NMTAP	46	192	3
NMTAP	46	288	2
NMTAP	46	288	4
NMTAP	47	0	1
NMTAP	47	0	5
NMTAP	47	96	0
NMTAP	47	144	0
NMTAP	47	192	7
NMTAP	47	288	1
NMTAP	47	288	6
NMTAP	48	0	5
NMTAP	48	48	5
NMTAP	48	96	4
NMTAP	48	192	3
NMTAP	48	192	6
NMTAP	48	288	2
NMTAP	48	336	2
NMTAP	49	0	3
NMTAP	49	96	1
NMTAP	49	96	4
NMTAP	49	192	6
NMTAP	49	240	6
NMTAP	49	288	7
NMTAP	50	0	0
NMTAP	50	0	5
NMTAP	50	96	1
NMTAP	50	144	1
NMTAP	50	192	0
NMTAP	50	288	2
NMTAP	50	288	7
NMTAP	51	0	3
NMTAP	51	0	6
NMTAP	51	96	2
NMTAP	51	96	5
NMTAP	51	192	1
NMTAP	51	192	4
NMTAP	51	288	0
NMTAP	51	288	5
NMTAP	52	0	1
NMTAP	52	0	6
NMTAP	52	96	2
NMTAP	52	96	7
NMTAP	52	192	0
NMTAP	52	192	1
NMTAP	52	288	0
NMTAP	52	288	1
NMTAP	53	0	2
NMTAP	53	0	3
NMTAP	53	96	4
NMTAP	53	96	5
NMTAP	53	192	4
NMTAP	53	192	5
NMTAP	53	288	6
NMTAP	53	288	7
BXHLD	54	0	0	1152
BXTAP	54	0	5
NMTTP	54	288	0	E	0	M1
NMTTP	55	192	0	C	0	M1
NMTTP	56	96	4	E	0	M1
BRSTR	57	0	7
NMSCL	57	0	7	96	864	0
NMTTP	60	0	0	C	1	M1
NMTTP	60	0	2	B	0	M1
NMTTP	60	0	3	B	0	M1
NMTTP	60	0	4	B	0	M1
NMTTP	60	0	5	B	0	M1
NMHLD	61	192	4	144
NMTAP	61	288	3
NMTAP	61	336	3
NMTAP	62	48	2
NMTAP	62	48	5
NMTAP	62	96	2
NMTAP	62	96	5
BRTAP	62	192	0
NMSTR	62	288	1
NMSI_	62	288	1	96	96	4
BRTAP	63	0	5
NMTAP	63	96	7
NMTAP	63	144	7
NMTAP	63	240	6
NMHLD	63	288	6	96
NMHLD	64	0	4	96
NMHLD	64	96	2	96
NMTAP	64	192	0
NMTAP	64	288	1
NMTAP	64	288	7
NMTAP	64	336	1
NMTAP	64	336	7
NMTAP	65	48	2
NMTAP	65	48	3
NMTAP	65	96	2
NMTAP	65	96	3
NMTAP	65	192	4
NMTAP	65	192	5
NMSTR	65	288	6
NMSI_	65	288	6	96	96	3
BRTAP	66	0	2
NMTAP	66	96	0
NMTAP	66	144	0
NMTAP	66	240	1
NMTAP	66	240	7
NMHLD	66	288	1	96
NMTAP	66	288	7
NMHLD	67	0	3	96
NMHLD	67	96	5	96
NMHLD	67	192	7	96
NMHLD	67	288	1	96
NMTAP	68	0	0
NMTAP	68	96	2
NMTAP	68	96	7
NMTAP	68	192	2
NMTAP	68	192	7
NMSTR	68	288	1
NMSI_	68	288	1	96	96	4
BRTAP	69	0	6
NMTAP	69	96	5
NMTAP	69	144	5
NMTAP	69	240	3
NMTAP	69	240	7
NMTAP	69	288	3
NMHLD	69	288	7	96
NMHLD	70	0	5	96
NMHLD	70	96	3	96
NMTAP	70	192	2
NMTAP	70	288	1
NMTAP	70	288	4
NMTAP	70	336	1
NMTAP	70	336	4
NMTAP	71	48	3
NMTAP	71	48	6
NMTAP	71	96	3
NMTAP	71	96	6
NMTAP	71	192	5
NMTAP	71	240	5
NMTAP	71	288	4
NMTAP	71	336	6
BRTAP	72	0	0
NMTAP	72	96	1
NMTAP	72	96	3
NMTAP	72	192	1
NMTAP	72	192	3
NMTAP	72	288	7
NMTAP	73	0	4
NMTAP	73	0	6
NMTAP	73	96	4
NMTAP	73	96	6
NMHLD	73	192	2	96
NMTAP	73	288	3
NMTAP	74	0	0
NMTAP	74	0	4
BRTAP	74	96	0
BRTAP	74	96	4
NMSTR	74	288	6
NMSCL	74	288	6	96	96	3
BRTAP	75	0	3
NMTAP	75	96	1
NMTAP	75	144	1
NMTAP	75	240	0
NMTAP	75	240	7
NMHLD	75	288	0	96
NMTAP	75	288	7
NMHLD	76	0	6	96
NMHLD	76	96	4	96
NMTAP	76	192	3
NMTAP	76	288	2
NMTAP	76	288	3
NMTAP	76	336	2
NMTAP	76	336	3
NMTAP	77	48	0
NMTAP	77	48	1
NMTAP	77	96	0
NMTAP	77	96	1
NMTAP	77	192	2
NMTAP	77	192	7
NMSTR	77	288	1
NMSCR	77	288	1	96	96	4
BRTAP	78	0	4
NMTAP	78	96	6
NMTAP	78	144	6
NMTAP	78	240	7
NMHLD	78	288	7	96
NMHLD	79	0	1	96
NMHLD	79	96	3	96
NMHLD	79	192	5	96
NMHLD	79	288	7	96
NMHLD	80	0	1	96
NMHLD	80	96	3	96
NMTAP	80	192	4
NMTAP	80	288	2
NMTAP	80	288	5
BRTAP	81	0	0
NMTAP	81	96	2
NMTAP	81	96	6
NMTAP	81	144	2
NMTAP	81	144	6
NMTAP	81	240	1
NMTAP	81	240	5
NMTAP	81	288	1
NMTAP	81	288	5
NMTAP	82	0	6
NMTAP	82	48	6
NMTAP	82	96	7
BXTAP	82	192	0
BXTAP	82	192	5
EXTAP	82	288	2
EXTAP	82	288	7
BXTAP	82	336	2
BXTAP	82	336	7
EXTAP	83	48	0
EXTAP	83	48	1
BXTAP	83	96	0
BXTAP	83	96	1
BXTAP	83	192	6
BXTAP	83	192	7
BXTAP	83	288	0
BXTAP	83	288	5
NMTAP	84	0	1
NMTAP	84	48	1
NMTAP	84	96	0
NMTAP	84	144	0
NMTAP	84	192	2
NMTAP	84	240	2
NMTAP	84	288	6
NMTAP	84	336	6
NMTAP	85	0	7
NMTAP	85	48	7
NMTAP	85	96	5
NMTAP	85	144	5
BXTAP	85	192	0
NMTAP	85	288	1
NMTAP	85	288	7
NMTAP	86	0	2
NMTAP	86	0	6
NMTAP	86	48	2
NMTAP	86	48	6
NMTAP	86	96	2
NMTAP	86	96	6
NMTAP	86	192	1
NMTAP	86	192	5
NMTAP	86	288	0
NMTAP	86	288	7
NMTTP	87	0	0	C	1	M1
NMTTP	87	0	2	B	0	M1
NMTTP	87	0	3	B	0	M1
NMTTP	87	0	4	B	0	M1
NMTTP	87	0	5	B	0	M1
NMTAP	88	96	6
NMHLD	88	192	6	288
NMTAP	89	0	4
NMHLD	89	96	3	288
NMTAP	89	288	4
NMHLD	90	0	5	288
NMTAP	90	192	4
NMTAP	90	288	4
NMTTP	91	192	5	E	0	M1
NMTTP	91	288	4	E	0	M1
NMTTP	92	0	3	E	0	M1
NMTTP	92	96	2	E	0	M1
NMTTP	92	96	6	E	0	M1
NMTTP	92	192	1	E	0	M1
NMTTP	92	192	7	E	0	M1
EXHLD	93	0	6	576
NMTAP	94	96	4
NMHLD	94	192	3	288
NMTAP	95	0	4
NMHLD	95	96	5	288
NMTAP	95	288	4
NMHLD	96	0	4	288
NMTAP	96	192	5
NMSTR	96	288	5
NMSCL	96	288	5	96	192	2
EXTAP	97	192	0
NMTAP	97	336	1
NMTAP	97	336	7
NMTAP	98	48	2
NMTAP	98	48	6
NMTAP	98	96	2
NMTAP	98	96	6
NMTAP	98	192	4
NMTAP	98	192	5
NMTAP	98	288	2
NMTAP	98	288	3
BRTAP	99	0	1
BRTAP	99	0	6
NMTAP	99	192	1
NMTAP	99	240	1
NMTAP	99	288	0
NMTAP	99	288	1
NMTAP	100	0	6
NMTAP	100	0	7
NMTAP	100	96	4
NMTAP	100	96	5
NMHLD	100	192	3	96
NMHLD	100	192	6	96
NMSTR	101	0	5
NMSCR	101	0	5	96	192	2
BRTAP	101	96	2
BRTAP	102	0	1
BRTAP	102	0	4
NMTAP	102	192	5
NMTAP	102	240	5
NMTAP	102	288	4
NMTAP	102	288	5
NMTAP	103	0	6
NMTAP	103	0	7
NMTAP	103	96	0
NMTAP	103	96	1
EXTAP	103	192	2
EXTAP	103	192	7
EXTAP	103	336	0
EXTAP	103	336	5
EXTAP	104	96	6
EXTAP	104	128	7
EXTAP	104	160	6
EXTAP	104	192	7
EXTAP	104	224	6
EXTAP	104	256	7
BXTAP	104	288	6
EXTAP	105	0	0
NMTTP	105	96	1	E	0	M1
NMTTP	105	120	2	E	0	M1
NMTTP	105	144	3	E	0	M1
NMTTP	105	168	4	E	0	M1
NMTTP	105	192	5	E	0	M1
EXTAP	105	288	7
NMTTP	106	0	6	A	0	M1
NMTTP	106	24	5	A	0	M1
NMTTP	106	48	4	A	0	M1
NMTTP	106	72	3	A	0	M1
NMTTP	106	96	2	A	0	M1
EXTAP	106	192	0
NMTTP	106	288	2	E	0	M1
NMTTP	106	312	3	E	0	M1
NMTTP	106	336	4	E	0	M1
NMTTP	106	360	5	E	0	M1
NMTTP	107	0	6	E	0	M1
EXTAP	107	96	7
EXTAP	107	192	7
EXSTR	107	288	0
NMSCR	107	288	0	96	480	6
BRTAP	108	0	6
CNSUR	109	96	6	0	480	7
BRTAP	111	0	0
BRTAP	111	0	6
NMTHO	112	192	0	288	C	0	M1
NMTAP	113	96	7
NMTAP	113	192	7
NMTAP	113	288	0
NMTAP	113	288	7
BRTAP	114	0	1
BRTAP	114	0	6
NMTAP	114	96	5
NMHLD	114	144	5	96
NMTAP	114	240	3
NMHLD	114	288	3	96
NMTAP	115	0	2
NMSTR	115	96	1
NMSUR	115	96	1	96	192	4
NMSTR	116	0	6
NMSCR	116	0	6	96	192	3
EXTAP	117	0	0
NMTAP	117	96	1
NMTAP	117	96	4
NMTAP	117	144	1
NMTAP	117	144	4
NMTAP	117	240	2
NMTAP	117	240	5
NMTAP	117	288	2
NMHLD	117	288	5	96
NMTAP	118	0	4
NMTAP	118	96	3
NMTAP	118	96	6
NMTAP	118	192	5
NMTAP	118	240	4
NMTAP	118	288	5
NMTAP	118	336	2
NMTAP	119	0	3
NMTAP	119	48	2
NMTAP	119	96	5
NMTAP	119	144	4
NMTAP	119	192	6
NMTAP	119	240	2
NMTAP	119	288	3
NMTAP	119	336	1
BRTAP	120	0	7
NMTAP	120	96	3
NMHLD	120	144	3	96
NMTAP	120	240	1
NMHLD	120	288	1	96
NMTAP	121	0	0
NMSTR	121	96	6
NMSUL	121	96	6	96	192	3
NMSTR	122	0	1
NMSCL	122	0	1	96	192	4
EXTAP	123	0	3
NMTAP	123	96	2
NMTAP	123	96	7
NMTAP	123	144	2
NMTAP	123	144	7
NMTAP	123	240	1
NMTAP	123	240	6
NMTAP	123	288	1
NMHLD	123	288	6	96
NMTAP	124	0	7
NMTAP	124	96	0
NMTAP	124	96	5
NMTAP	124	192	6
NMTAP	124	240	7
NMTAP	124	288	6
NMTAP	124	336	1
NMTAP	125	0	0
NMTAP	125	48	1
NMTAP	125	96	7
NMTAP	125	144	7
NMTAP	125	192	0
EXTAP	125	288	1
EXTAP	125	288	6
NMTAP	126	0	2
EXTAP	126	0	4
EXTAP	126	48	2
NMTAP	126	48	4
NMTAP	126	144	0
EXTAP	126	144	7
NMTAP	126	240	4
EXTAP	126	240	5
EXTAP	126	288	4
NMTAP	126	288	5
EXTAP	127	0	0
NMTAP	127	0	1
BRTAP	127	96	2
BRTAP	127	96	7
NMTAP	127	192	3
EXTAP	127	192	6
EXTAP	127	240	3
NMTAP	127	240	6
EXTAP	127	336	0
NMTAP	127	336	7
EXTAP	128	48	2
NMTAP	128	48	3
NMTAP	128	96	2
EXTAP	128	96	3
NMTAP	128	192	6
EXTAP	128	192	7
BRTAP	128	288	0
BRTAP	128	288	5
BRTAP	129	0	2
BRTAP	129	0	3
BRTAP	129	48	2
BRTAP	129	48	3
BRTAP	129	144	0
BRTAP	129	144	6
BRTAP	129	240	4
BRTAP	129	240	5
BRTAP	129	288	4
BRTAP	129	288	5
BRTAP	130	0	0
BRTAP	130	0	1
BRTAP	130	96	2
BRTAP	130	96	7
BRTAP	130	192	4
BRTAP	130	192	5
BRTAP	130	240	4
BRTAP	130	240	5
BRTAP	130	336	1
BRTAP	130	336	7
BRTAP	131	48	2
BRTAP	131	48	3
BRTAP	131	96	2
BRTAP	131	96	3
BRTAP	131	192	0
BRTAP	131	192	7
BXHLD	131	288	1	384
BRTAP	131	288	5
BRSTR	132	288	0
NMSUR	132	288	0	96	480	1
CNSCR	134	96	1	0	576	7

T_REC_TAP	410
T_REC_BRK	58
T_REC_XTP	56
T_REC_BXX	13
T_REC_HLD	50
T_REC_XHO	2
T_REC_BHO	0
T_REC_BXH	2
T_REC_STR	14
T_REC_BST	2
T_REC_XST	1
T_REC_XBS	0
T_REC_TTP	63
T_REC_THO	3
T_REC_SLD	17
T_REC_BSL	0
T_REC_ALL	691
T_NUM_TAP	544
T_NUM_BRK	75
T_NUM_HLD	55
T_NUM_SLD	17
T_NUM_ALL	691
T_JUDGE_TAP	617
T_JUDGE_HLD	219
T_JUDGE_SLD	17
T_JUDGE_ALL	853
TTM_EACHPAIRS	173
TTM_SCR_TAP	272000
TTM_SCR_BRK	195000
TTM_SCR_HLD	55000
TTM_SCR_SLD	25500
TTM_SCR_ALL	547500
TTM_SCR_S	523800
TTM_SCR_SS	540000
TTM_RAT_ACV	10138

