VERSION	0.00.00	1.04.00
FES_MODE	0
BPM_DEF	227.000	227.000	227.000	197.000
MET_DEF	4	4
RESOLUTION	384
CLK_DEF	288
COMPATIBLE_CODE	MA2

BPM	0	0	227.000
BPM	99	0	197.000
BPM	99	288	212.000
BPM	100	192	227.000
BPM	102	0	212.000
BPM	102	96	227.000
BPM	105	0	212.000
BPM	105	96	227.000
MET	0	0	4	3

NMTAP	4	192	0
NMTAP	4	288	0
NMTAP	5	96	0
NMTAP	5	192	0
NMTAP	6	0	1
NMTAP	6	96	1
NMTAP	6	288	1
NMTAP	7	0	1
NMTAP	7	192	2
NMTAP	7	288	2
NMTAP	8	96	2
NMTAP	8	192	2
EXTAP	9	0	3
EXTAP	9	0	4
EXTAP	9	96	3
EXTAP	9	96	4
EXTAP	9	288	3
EXTAP	9	288	4
EXTAP	10	0	3
EXTAP	10	0	4
NMTAP	10	192	4
NMTAP	10	288	4
NMTAP	11	96	4
NMTAP	11	192	4
NMTAP	12	0	5
NMTAP	12	96	5
NMTAP	12	288	5
NMTAP	13	0	5
NMTAP	13	192	6
NMTAP	13	288	6
NMTAP	14	96	6
NMTAP	14	192	6
EXTAP	15	0	0
EXTAP	15	0	7
EXTAP	15	96	0
EXTAP	15	96	7
EXTAP	15	288	0
EXTAP	15	288	7
EXTAP	16	0	0
EXTAP	16	0	7
BRTAP	16	192	0
BRTAP	16	192	7
NMHLD	18	0	1	288
NMTAP	18	288	0
NMHLD	19	192	2	288
NMTAP	20	96	3
NMHLD	21	0	5	288
NMTAP	21	288	4
NMTAP	22	192	6
NMTAP	23	0	6
NMTAP	23	0	7
NMTAP	23	96	6
NMTAP	23	96	7
NMHLD	24	0	6	288
NMTAP	24	288	7
NMHLD	25	192	5	288
NMTAP	26	96	4
NMHLD	27	0	2	288
NMTAP	27	288	3
NMTAP	28	192	1
NMTAP	29	0	0
NMTAP	29	0	1
NMTAP	29	96	0
NMTAP	29	96	1
EXTAP	30	0	6
EXTAP	30	0	7
NMTAP	30	288	6
NMTAP	31	0	6
NMTAP	31	96	6
NMTAP	31	192	6
NMTAP	31	192	7
NMTAP	32	0	6
NMTAP	32	0	7
NMTAP	32	96	6
NMTAP	32	96	7
EXTAP	33	0	4
EXTAP	33	0	5
NMTAP	33	288	5
NMTAP	34	0	5
NMTAP	34	96	5
NMTAP	34	192	4
NMTAP	34	192	5
NMTAP	35	0	4
NMTAP	35	0	5
NMTAP	35	96	4
NMTAP	35	96	5
EXTAP	36	0	2
EXTAP	36	0	3
NMTAP	36	288	2
NMTAP	37	0	2
NMTAP	37	96	2
NMTAP	37	192	2
NMTAP	37	192	3
NMTAP	38	0	2
NMTAP	38	0	3
NMTAP	38	96	2
NMTAP	38	96	3
EXTAP	39	0	0
EXTAP	39	0	1
NMTAP	39	288	1
NMTAP	40	0	1
NMTAP	40	96	1
NMTAP	40	192	0
NMTAP	40	192	1
EXTAP	41	0	0
EXTAP	41	0	7
EXTAP	41	96	0
EXTAP	41	96	7
NMTTP	42	0	0	B	0	L1
NMTTP	42	0	1	B	0	L1
NMTTP	42	288	2	B	0	L1
NMTTP	43	0	3	B	0	L1
NMTTP	43	192	6	B	0	L1
NMTTP	43	192	7	B	0	L1
NMTTP	44	96	5	B	0	L1
NMTTP	44	192	4	B	0	L1
NMTTP	45	0	0	B	0	L1
NMTTP	45	0	1	B	0	L1
NMTTP	45	288	2	B	0	L1
NMTTP	45	288	3	B	0	L1
NMTTP	46	192	4	B	0	L1
NMTTP	46	192	5	B	0	L1
NMTTP	47	96	0	C	0	L1
NMTTP	48	0	7	B	0	L1
NMTTP	48	96	6	B	0	L1
NMTTP	48	192	5	B	0	L1
NMTTP	48	288	4	B	0	L1
NMTTP	49	192	0	B	0	L1
NMTTP	49	288	1	B	0	L1
NMTTP	50	0	2	B	0	L1
NMTTP	50	96	3	B	0	L1
NMTTP	51	0	7	B	0	L1
NMTTP	51	96	6	B	0	L1
NMTTP	51	192	5	B	0	L1
NMTTP	51	288	3	B	0	L1
NMTTP	51	288	4	B	0	L1
NMTTP	52	192	0	B	0	L1
NMTTP	52	288	1	B	0	L1
NMTTP	53	0	2	B	0	L1
NMTTP	53	96	3	B	0	L1
NMTTP	53	96	4	B	0	L1
NMTTP	54	0	0	B	0	L1
NMTTP	54	0	7	B	0	L1
NMTTP	54	288	1	B	0	L1
NMTTP	54	288	6	B	0	L1
NMTTP	55	192	2	B	0	L1
NMTTP	55	192	5	B	0	L1
NMTTP	56	96	3	B	0	L1
NMTTP	56	96	4	B	0	L1
NMTTP	57	0	0	C	1	L1
BRTAP	60	0	0
NMTAP	63	0	0
NMTAP	63	0	7
NMTAP	63	288	1
NMTAP	64	0	1
NMTAP	64	96	1
NMTAP	64	192	2
NMTAP	64	288	2
NMTAP	65	0	2
NMTAP	65	96	2
NMTAP	65	96	3
NMTAP	66	0	4
NMTAP	66	0	5
NMTAP	66	288	6
NMTAP	67	0	6
NMTAP	67	96	6
NMTAP	67	192	5
NMTAP	67	288	5
NMTAP	68	0	5
NMTAP	68	96	4
NMTAP	68	96	5
NMTAP	69	0	2
NMTAP	69	0	3
NMTAP	69	288	1
NMTAP	70	0	1
NMTAP	70	96	1
NMTAP	70	192	2
NMTAP	70	288	2
NMTAP	71	0	2
NMTAP	71	96	2
NMTAP	71	96	3
NMTAP	72	0	4
NMTAP	72	0	5
NMTAP	72	288	6
NMTAP	73	0	6
NMTAP	73	96	6
NMTAP	73	192	5
NMTAP	73	288	5
NMTAP	74	0	5
NMTAP	74	96	4
NMTAP	74	96	5
EXTAP	75	0	3
EXTAP	75	0	4
NMTAP	75	288	2
NMTAP	76	0	2
NMTAP	76	96	2
NMTAP	76	192	1
NMTAP	76	288	1
NMTAP	77	0	1
NMTAP	77	96	0
NMTAP	77	96	1
NMTAP	78	0	6
NMTAP	78	0	7
NMTAP	78	288	5
NMTAP	79	0	5
NMTAP	79	96	5
NMTAP	79	192	6
NMTAP	79	288	6
NMTAP	80	0	6
NMTAP	80	96	6
NMTAP	80	96	7
NMTAP	81	0	0
NMTAP	81	0	1
NMTAP	81	288	2
NMTAP	82	0	2
NMTAP	82	96	2
NMTAP	82	192	1
NMTAP	82	288	1
NMTAP	83	0	1
NMTAP	83	96	0
NMTAP	83	96	1
NMTAP	84	0	6
NMTAP	84	0	7
NMTAP	84	288	5
NMTAP	85	0	5
NMTAP	85	96	5
NMTAP	85	192	6
NMTAP	85	288	6
NMTAP	86	0	6
EXTAP	86	96	0
EXTAP	86	96	7
NMSTR	87	0	1
NMSI_	87	0	1	96	480	4
NMTAP	89	96	5
NMSTR	90	0	6
NMSI_	90	0	6	96	480	3
NMTAP	92	96	3
NMSTR	93	0	2
NMSI_	93	0	2	96	480	7
NMTAP	95	96	5
NMSTR	96	0	5
NMSI_	96	0	5	96	480	0
NMTAP	98	96	0
EXHLD	99	0	0	288
EXHLD	99	288	1	288
EXHLD	100	192	2	288
EXHLD	101	96	3	288
EXHLD	102	0	4	288
EXHLD	102	288	5	288
EXHLD	103	192	6	288
EXHLD	104	96	7	288
NMTAP	105	0	0
NMTAP	105	288	0
NMTAP	105	288	7
NMTAP	106	0	0
NMTAP	106	0	7
NMTAP	106	192	1
NMTAP	106	192	6
NMTAP	106	288	1
NMTAP	106	288	6
NMTAP	107	96	2
NMTAP	107	96	5
NMTAP	107	192	2
NMTAP	107	192	5
NMHLD	108	0	3	1152
NMHLD	108	0	4	1152
BRTAP	112	192	3
BRTAP	112	192	4
EXTAP	114	0	2
EXTAP	114	0	3
NMTAP	114	288	1
NMTAP	115	0	1
NMTAP	115	96	1
NMTAP	115	192	2
NMTAP	115	192	3
NMTAP	115	288	2
NMTAP	115	288	3
NMTAP	116	0	2
NMTAP	116	0	3
NMTAP	116	96	4
NMTAP	116	192	4
NMTAP	116	288	4
NMTAP	117	0	4
NMTAP	117	0	5
NMTAP	117	96	4
NMTAP	117	96	5
NMTAP	117	192	4
NMTAP	117	192	5
NMTAP	117	288	6
NMTAP	118	0	6
NMTAP	118	96	6
NMHLD	118	192	7	288
NMTAP	119	96	0
EXTAP	120	0	0
EXTAP	120	0	7
NMTAP	120	288	6
NMTAP	121	0	6
NMTAP	121	96	6
NMTAP	121	192	4
NMTAP	121	192	5
NMTAP	121	288	4
NMTAP	121	288	5
NMTAP	122	0	4
NMTAP	122	0	5
NMTAP	122	96	3
NMTAP	122	192	3
NMTAP	122	288	3
NMTAP	123	0	2
NMTAP	123	0	3
NMTAP	123	96	2
NMTAP	123	96	3
NMTAP	123	192	2
NMTAP	123	192	3
NMTAP	123	288	1
NMTAP	124	0	1
NMTAP	124	96	1
NMHLD	124	192	0	288
NMTAP	125	96	7
EXTAP	126	0	6
EXTAP	126	0	7
EXTAP	126	96	6
EXTAP	126	96	7
EXTAP	126	288	4
EXTAP	126	288	5
EXTAP	127	0	4
EXTAP	127	0	5
EXTAP	127	192	2
EXTAP	127	192	3
EXTAP	127	288	2
EXTAP	127	288	3
EXTAP	128	96	0
EXTAP	128	96	1
EXTAP	128	192	0
EXTAP	128	192	1
NMTAP	129	0	0
NMTAP	129	0	1
NMTAP	129	96	0
NMTAP	129	96	1
NMTAP	129	288	2
NMTAP	129	288	3
NMTAP	130	0	2
NMTAP	130	0	3
NMTAP	130	192	4
NMTAP	130	192	5
NMTAP	130	288	4
NMTAP	130	288	5
EXTAP	131	96	6
EXTAP	131	192	0
EXTAP	131	192	7
EXTAP	131	288	0
EXTAP	131	288	7
BXHLD	132	288	1	1152
BXHLD	132	288	6	1152

T_REC_TAP	221
T_REC_BRK	5
T_REC_XTP	57
T_REC_BXX	0
T_REC_HLD	10
T_REC_XHO	8
T_REC_BHO	0
T_REC_BXH	2
T_REC_STR	4
T_REC_BST	0
T_REC_XST	0
T_REC_XBS	0
T_REC_TTP	42
T_REC_THO	0
T_REC_SLD	4
T_REC_BSL	0
T_REC_ALL	353
T_NUM_TAP	324
T_NUM_BRK	7
T_NUM_HLD	18
T_NUM_SLD	4
T_NUM_ALL	353
T_JUDGE_TAP	329
T_JUDGE_HLD	192
T_JUDGE_SLD	4
T_JUDGE_ALL	525
TTM_EACHPAIRS	84
TTM_SCR_TAP	162000
TTM_SCR_BRK	18200
TTM_SCR_HLD	18000
TTM_SCR_SLD	6000
TTM_SCR_ALL	204200
TTM_SCR_S	197400
TTM_SCR_SS	203500
TTM_RAT_ACV	10034

