VERSION	0.00.00	1.04.00
FES_MODE	0
BPM_DEF	132.000	132.000	132.000	132.000
MET_DEF	4	4
RESOLUTION	384
CLK_DEF	384
COMPATIBLE_CODE	MA2

BPM	0	0	132.000
MET	0	0	4	4
MET	2	0	8	5
MET	3	336	4	4
MET	17	336	4	3
MET	18	240	8	5
MET	19	336	4	4
MET	69	336	4	1
MET	70	48	8	5
MET	72	0	8	6
MET	72	288	16	7
MET	73	72	4	4

NMTAP	2	0	0
NMTAP	2	0	4
NMTAP	2	48	1
NMTAP	2	48	5
NMTAP	2	96	1
NMTAP	2	96	5
NMTAP	2	144	2
NMTAP	2	144	6
NMTAP	2	192	2
NMTAP	2	192	6
NMTAP	2	240	3
NMTAP	2	240	7
NMTAP	2	288	3
NMTAP	2	288	7
NMTAP	2	336	0
NMTAP	2	336	4
NMTAP	3	0	0
NMTAP	3	0	4
NMSTR	3	48	1
NMSLL	3	48	1	96	120	4
NMSTR	3	48	5
NMSLL	3	48	5	96	120	0
NMTAP	3	96	1
NMTAP	3	96	5
EXTAP	3	336	2
EXTAP	3	336	5
NMTTP	4	48	2	B	0	M1
NMTTP	4	144	1	B	0	M1
NMTTP	4	240	1	E	0	M1
NMTTP	4	336	3	E	0	M1
EXTAP	4	364	4
EXTAP	5	28	4
NMTTP	5	48	2	B	0	M1
NMTTP	5	144	1	B	0	M1
NMTTP	5	240	1	E	0	M1
NMTTP	5	336	3	E	0	M1
EXTAP	5	336	4
EXTAP	6	28	4
NMTTP	6	48	2	B	0	M1
NMTTP	6	144	1	B	0	M1
NMTTP	6	240	1	E	0	M1
NMTTP	6	336	3	E	0	M1
BRSTR	6	336	4
NMSI_	6	336	4	96	32	6
NMTAP	7	48	4
NMSTR	7	48	7
NMSI_	7	48	7	96	36	3
NMSTR	7	144	2
NMSI_	7	144	2	96	32	0
NMTAP	7	144	7
NMTAP	7	240	2
NMTAP	7	240	5
NMTAP	7	336	3
NMTAP	7	336	7
NMTAP	8	48	4
NMTAP	8	48	5
NMTAP	8	96	2
NMTAP	8	124	2
NMTAP	8	144	3
NMTAP	8	240	5
NMTAP	8	268	4
NMTAP	8	268	5
NMTAP	8	316	2
NMTAP	8	336	1
NMTAP	8	336	3
NMTAP	9	48	0
NMTAP	9	48	3
NMTAP	9	96	2
NMTAP	9	144	4
NMTAP	9	144	7
NMTAP	9	192	5
NMTAP	9	240	0
NMTAP	9	240	3
NMTAP	9	288	2
NMHLD	9	336	4	288
NMTAP	9	336	7
NMTTP	10	48	5	B	0	M1
NMTTP	10	48	6	E	0	M1
NMTTP	10	96	2	B	0	M1
NMTTP	10	96	2	E	0	M1
NMTTP	10	144	5	E	0	M1
NMTTP	10	160	4	B	0	M1
NMTTP	10	176	3	B	0	M1
NMTTP	10	192	3	E	0	M1
NMTHO	10	240	0	96	C	0	M1
NMSTR	10	336	0
NMSF_	10	336	0	96	36	4
BRTAP	11	48	0
NMTAP	11	144	6
NMTAP	11	192	6
NMTAP	11	240	3
NMTAP	11	288	3
NMTAP	11	336	4
NMSTR	11	336	5
NMSCR	11	336	5	96	48	7
NMTAP	12	28	4
NMHLD	12	28	5	116
NMTAP	12	144	1
NMTAP	12	192	1
NMTAP	12	240	4
NMTAP	12	288	4
NMSTR	12	336	2
NMSCL	12	336	2	96	48	0
NMTAP	12	336	3
NMHLD	13	28	2	116
NMTAP	13	28	3
NMTAP	13	144	7
NMTAP	13	192	7
NMTAP	13	240	0
NMTAP	13	240	6
NMSTR	13	336	7
NMSCR	13	336	7	96	96	1
NMTAP	13	344	6
NMTAP	13	352	5
NMSTR	14	144	6
NMSUR	14	144	6	96	96	2
NMTAP	14	152	5
NMTAP	14	160	4
NMSTR	14	336	5
NMSUL	14	336	5	96	144	3
NMTAP	14	344	4
NMTAP	14	352	3
NMTAP	15	240	5
NMTAP	15	288	6
NMHLD	15	336	0	192
NMTAP	15	336	7
NMTAP	16	0	6
NMTAP	16	16	5
NMTAP	16	32	4
NMTAP	16	48	3
NMTAP	16	96	1
NMTAP	16	112	2
NMTAP	16	128	3
NMTAP	16	144	4
NMSTR	16	192	1
NMSI_	16	192	1	96	42	4
NMSTR	16	192	5
NMSI_	16	192	5	96	42	0
NMTAP	16	240	2
NMTAP	16	240	6
BRTAP	16	288	1
BRTAP	16	288	5
NMSTR	17	0	2
NMSXR	17	0	2	96	48	0
NMSTR	17	0	6
NMSXR	17	0	6	96	48	4
NMTAP	17	48	1
NMTAP	17	48	5
BRTAP	17	96	2
BRTAP	17	96	6
NMTAP	17	240	4
NMTAP	17	288	5
NMTTP	17	336	1	D	0	M1
NMTAP	17	336	6
NMTTP	17	344	1	A	0	M1
NMTTP	17	352	2	D	0	M1
NMTAP	18	48	1
NMTTP	18	48	6	A	0	M1
NMTTP	18	56	6	D	0	M1
NMTTP	18	64	5	A	0	M1
NMTTP	18	144	2	D	0	M1
NMTAP	18	144	7
NMTTP	18	152	2	A	0	M1
NMTTP	18	160	3	D	0	M1
BRSTR	18	240	0
NMSI_	18	240	0	96	48	2
NMTTP	18	240	3	B	0	M1
NMTTP	18	240	4	B	0	M1
NMTTP	18	240	4	E	0	M1
CNSI_	19	0	2	0	48	4
CNSI_	19	48	4	0	48	6
CNSXL	19	96	6	0	156	3
NMTTP	19	336	0	C	1	M1
NMTTP	19	336	1	B	0	M1
NMTTP	19	336	2	B	0	M1
NMTTP	19	336	5	B	0	M1
NMTTP	19	336	6	B	0	M1
NMTAP	20	336	3
NMTAP	20	336	4
NMTTP	21	192	3	B	0	M1
NMTTP	21	208	4	B	0	M1
NMTTP	21	224	2	B	0	M1
NMTTP	21	240	5	B	0	M1
NMTTP	21	256	1	B	0	M1
NMTTP	21	272	6	B	0	M1
NMTTP	21	288	0	B	0	M1
NMTTP	21	304	7	B	0	M1
NMTTP	21	320	0	E	0	M1
NMTTP	21	336	7	E	0	M1
NMTTP	21	352	1	E	0	M1
NMTTP	21	368	6	E	0	M1
NMTTP	22	0	2	E	0	M1
NMTTP	22	16	5	E	0	M1
NMTTP	22	32	3	E	0	M1
NMTTP	22	48	4	E	0	M1
NMTTP	22	64	3	A	0	M1
NMTTP	22	80	4	A	0	M1
NMTTP	22	96	2	A	0	M1
NMTTP	22	112	5	A	0	M1
NMTTP	22	128	1	A	0	M1
NMTTP	22	144	6	A	0	M1
NMTTP	22	160	0	A	0	M1
NMTTP	22	176	7	A	0	M1
NMTTP	22	192	0	D	0	M1
NMTTP	22	208	7	D	0	M1
NMTTP	22	224	1	D	0	M1
NMTTP	22	240	6	D	0	M1
NMTTP	22	256	2	D	0	M1
NMTTP	22	272	5	D	0	M1
NMTTP	22	288	3	D	0	M1
NMTTP	22	304	4	D	0	M1
NMTTP	22	320	0	C	0	M1
EXTAP	23	316	0
EXTAP	23	316	7
NMHLD	24	0	7	48
NMHLD	24	48	6	48
NMHLD	24	96	5	48
NMHLD	24	144	4	48
NMHLD	24	192	3	48
NMHLD	24	240	2	48
NMHLD	24	288	1	48
BRSTR	24	336	0
NMSI_	24	336	0	96	48	4
NMTAP	25	48	2
NMTAP	25	76	2
NMTAP	25	124	3
NMSTR	25	144	3
NMSI_	25	144	3	96	48	7
NMTAP	25	240	1
NMTAP	25	268	1
NMTAP	25	316	0
EXTAP	25	364	1
EXTAP	25	364	7
EXTAP	26	28	0
EXTAP	26	28	6
NMTAP	26	96	4
NMTAP	26	144	1
NMTAP	26	144	3
NMTAP	26	192	2
NMSTR	26	240	4
NMSCL	26	240	4	96	72	0
NMTAP	26	240	6
NMTAP	26	288	5
NMTAP	26	336	2
NMTAP	26	336	4
NMSTR	27	48	3
NMSCR	27	48	3	96	72	7
NMTAP	27	96	4
NMTAP	27	144	3
NMTAP	27	144	5
NMTAP	27	240	4
NMTAP	27	288	3
NMTAP	27	336	2
NMSTR	27	336	4
NMSI_	27	336	4	96	36	0
NMTAP	28	0	3
NMTAP	28	0	5
NMTAP	28	48	4
NMTAP	28	48	6
NMTAP	28	144	3
NMTAP	28	192	2
NMTAP	28	240	1
NMTAP	28	288	0
NMSTR	28	336	7
NMSXL	28	336	7	96	96	1
NMTAP	28	344	6
NMTAP	28	352	5
NMSTR	29	144	6
NMSXR	29	144	6	96	96	4
NMTAP	29	152	5
NMTAP	29	160	4
NMSTR	29	336	0
NMSXR	29	336	0	96	96	6
NMTAP	29	344	1
NMTAP	29	352	2
NMSTR	30	144	1
NMSXL	30	144	1	96	96	3
NMTAP	30	152	2
NMTAP	30	160	3
NMTAP	30	336	7
NMTAP	30	344	6
NMHLD	30	352	5	176
NMTAP	31	48	4
NMTAP	31	144	0
NMTAP	31	152	1
NMHLD	31	160	2	176
NMTAP	31	240	3
NMTAP	31	336	7
NMTAP	32	0	0
NMTAP	32	16	7
NMTAP	32	32	0
NMTAP	32	48	7
NMTAP	32	96	1
NMTAP	32	144	2
NMTAP	32	144	5
NMTAP	32	192	2
NMTAP	32	192	5
NMTAP	32	240	3
NMTAP	32	240	4
NMTTP	32	336	3	B	0	M1
NMTTP	32	336	5	E	0	M1
NMTTP	33	48	0	C	0	M1
NMTTP	33	48	2	E	0	M1
NMTTP	33	144	6	B	0	M1
NMTTP	33	192	1	E	0	M1
NMTTP	33	240	7	E	0	M1
NMTTP	33	288	1	B	0	M1
NMTTP	33	336	7	A	0	M1
NMTTP	34	0	0	A	0	M1
NMTTP	34	48	1	A	0	M1
NMTTP	34	48	6	A	0	M1
NMTTP	34	144	2	B	0	M1
NMTTP	34	144	2	A	0	M1
NMTTP	34	144	5	B	0	M1
NMTTP	34	144	5	A	0	M1
NMTTP	34	240	3	B	0	M1
NMTTP	34	240	3	A	0	M1
NMTTP	34	240	4	B	0	M1
NMTTP	34	240	4	A	0	M1
NMTAP	34	336	1
NMTAP	34	364	7
NMTAP	35	0	0
NMTAP	35	28	6
NMTAP	35	48	7
NMTAP	35	76	6
NMTAP	35	76	7
NMTAP	35	124	0
NMTAP	35	124	5
NMTAP	35	144	6
NMTAP	35	172	0
NMTAP	35	192	7
NMTAP	35	220	1
NMTAP	35	240	0
NMTAP	35	268	0
NMTAP	35	268	1
NMTAP	35	316	2
NMTAP	35	316	7
NMTAP	35	336	1
NMTAP	35	364	0
NMTAP	36	0	2
NMTAP	36	28	2
NMTAP	36	48	6
NMTAP	36	76	7
NMTAP	36	96	5
NMTAP	36	124	5
NMTAP	36	144	1
NMTAP	36	160	2
NMTAP	36	176	3
NMTAP	36	192	7
NMTAP	36	220	7
NMSTR	36	240	3
NMSXR	36	240	3	96	192	4
BRTAP	36	336	3
BRTAP	36	336	4
CNSCR	37	144	4	0	264	2
NMTTP	38	264	5	B	0	M1
NMTTP	38	288	4	B	0	M1
NMTTP	38	312	3	B	0	M1
NMTTP	38	336	2	B	0	M1
NMSTR	39	264	5
NMSCR	39	264	5	96	168	3
CNSXR	40	144	3	0	144	4
NMHLD	41	0	3	48
NMHLD	41	0	5	48
NMHLD	41	72	2	48
NMHLD	41	72	4	48
NMHLD	41	144	1	48
NMHLD	41	144	3	48
NMTAP	41	216	0
NMTAP	41	216	2
NMTAP	41	332	3
NMHLD	42	0	2	48
NMHLD	42	0	4	48
NMHLD	42	72	3	48
NMHLD	42	72	5	48
NMHLD	42	144	4	48
NMHLD	42	144	6	48
NMHLD	42	216	5	24
NMHLD	42	216	7	24
EXTAP	42	264	6
NMHLD	42	312	5	48
NMHLD	42	312	6	48
NMHLD	43	0	4	48
NMHLD	43	0	5	48
NMHLD	43	72	3	48
NMHLD	43	72	4	48
NMHLD	43	144	2	48
NMHLD	43	144	3	48
NMHLD	43	216	1	42
NMHLD	43	216	2	42
NMTTP	43	264	1	E	0	M1
NMTTP	43	264	3	E	0	M1
NMTTP	43	270	0	B	0	M1
NMTTP	43	270	3	B	0	M1
NMTTP	43	276	4	B	0	M1
NMTTP	43	276	7	B	0	M1
NMTTP	43	282	5	E	0	M1
NMTTP	43	282	7	E	0	M1
EXTAP	43	288	5
EXTAP	43	288	6
NMSTR	44	336	3
BRSCL	44	336	3	96	32	0
NMSTR	44	336	4
BRSCR	44	336	4	96	32	7
BRTAP	45	48	3
BRTAP	45	48	4
NMTTP	45	56	3	D	0	M1
NMTTP	45	56	5	D	0	M1
NMTTP	45	64	2	D	0	M1
NMTTP	45	64	6	D	0	M1
NMTTP	45	72	1	D	0	M1
NMTTP	45	72	7	D	0	M1
NMTTP	45	80	0	D	1	M1
NMTAP	45	192	1
NMTAP	45	192	6
NMTAP	45	240	2
NMTAP	45	240	5
NMTAP	45	288	4
NMTAP	45	316	3
NMHLD	45	336	3	76
NMSTR	46	0	1
NMSUR	46	0	1	96	72	6
NMTAP	46	28	1
NMTAP	46	96	2
NMTAP	46	192	0
NMSTR	46	240	0
NMSI_	46	240	0	96	36	5
NMTAP	46	240	6
NMSTR	46	336	0
NMSI_	46	336	0	96	36	3
EXTAP	46	336	2
EXSTR	47	48	0
NMSCL	47	48	0	96	36	5
EXTAP	47	48	6
EXSTR	47	144	0
NMSCR	47	144	0	96	36	3
EXTAP	47	144	2
EXSTR	47	240	0
NMSCL	47	240	0	96	36	5
EXTAP	47	240	6
EXSTR	47	336	0
NMSCR	47	336	0	96	36	3
EXTAP	47	336	2
NMTTP	47	342	0	D	0	M1
NMTTP	47	348	7	A	0	M1
NMTTP	47	354	7	D	0	M1
NMTTP	47	360	6	A	0	M1
NMTTP	47	366	6	D	0	M1
EXTAP	48	48	0
EXTAP	48	48	6
NMTTP	48	54	1	D	0	M1
NMTTP	48	60	1	A	0	M1
NMTTP	48	66	2	D	0	M1
NMTTP	48	72	2	A	0	M1
NMTTP	48	78	3	D	0	M1
NMTAP	48	144	0
BRTAP	48	192	1
BRTAP	48	192	7
BRTAP	48	240	3
BRSTR	48	240	5
NMSI_	48	240	5	96	36	7
NMSTR	48	336	4
NMSI_	48	336	4	96	36	0
NMTAP	48	336	5
NMTAP	49	0	3
NMTAP	49	48	4
NMTAP	49	48	5
NMTAP	49	96	6
NMTAP	49	144	4
NMTAP	49	144	5
NMSTR	49	192	3
NMSCL	49	192	3	96	96	7
NMSTR	49	288	7
NMSCL	49	288	7	96	96	3
NMTAP	50	0	3
NMTTP	50	96	0	E	0	M1
NMTTP	50	96	7	B	0	M1
NMTTP	50	96	7	E	0	M1
NMTAP	50	192	2
NMTAP	50	192	3
NMTAP	50	240	3
NMTAP	50	240	4
NMHLD	50	288	4	76
NMHLD	50	288	5	76
NMHLD	51	0	4	28
NMHLD	51	0	6	28
NMHLD	51	48	4	28
NMHLD	51	48	7	28
NMHLD	51	96	0	28
NMHLD	51	96	4	28
NMHLD	51	144	0	28
NMHLD	51	144	3	28
NMHLD	51	192	0	28
NMHLD	51	192	2	28
NMHLD	51	240	0	28
NMHLD	51	240	1	28
BRSTR	51	288	0
NMSSL	51	288	0	96	96	4
NMTAP	52	0	1
NMTAP	52	48	1
NMTAP	52	144	2
NMTAP	52	192	3
NMTAP	52	240	4
NMTAP	52	240	5
NMTAP	52	288	6
NMTAP	52	316	6
NMSTR	52	336	7
BRSCL	52	336	7	96	40	3
NMHLD	53	48	0	76
BRTAP	53	48	7
NMTTP	53	56	7	D	0	M1
NMTTP	53	64	6	D	0	M1
NMTTP	53	72	5	D	0	M1
NMTTP	53	80	4	D	0	M1
NMTTP	53	88	3	D	1	M1
NMTAP	53	192	1
NMTAP	53	240	1
NMTAP	53	268	3
NMTAP	53	288	2
NMTAP	53	316	4
NMHLD	53	336	3	76
NMTAP	54	0	7
NMTAP	54	28	7
NMTAP	54	96	2
NMTAP	54	96	4
NMTAP	54	192	3
NMTAP	54	192	5
NMSTR	54	240	3
NMSI_	54	240	3	96	36	6
NMTAP	54	240	5
EXTAP	54	336	1
EXSTR	54	336	3
NMSI_	54	336	3	96	36	0
EXSTR	55	48	3
NMSCR	55	48	3	96	36	6
EXTAP	55	48	5
EXTAP	55	144	1
EXSTR	55	144	3
NMSCL	55	144	3	96	36	0
EXSTR	55	240	3
NMSCR	55	240	3	96	36	6
EXTAP	55	240	5
EXTAP	55	336	1
EXSTR	55	336	3
NMSCL	55	336	3	96	36	0
NMTTP	55	342	4	D	0	M1
NMTTP	55	348	4	A	0	M1
NMTTP	55	354	5	D	0	M1
NMTTP	55	360	5	A	0	M1
NMTTP	55	366	6	D	0	M1
EXTAP	56	48	3
EXTAP	56	48	5
NMTTP	56	54	3	D	0	M1
NMTTP	56	60	2	A	0	M1
NMTTP	56	66	2	D	0	M1
NMTTP	56	72	1	A	0	M1
NMTTP	56	78	1	D	0	M1
NMTAP	56	144	3
BRTAP	56	192	0
BRTAP	56	192	6
BRSTR	56	240	2
NMSI_	56	240	2	96	36	0
BRTAP	56	240	4
NMTAP	56	336	2
NMSTR	56	336	3
NMSI_	56	336	3	96	36	7
NMTAP	57	0	4
NMTAP	57	48	2
NMTAP	57	48	3
NMTAP	57	96	1
NMTAP	57	144	2
NMTAP	57	144	3
NMSTR	57	192	4
NMSI_	57	192	4	96	36	0
NMTAP	57	240	5
NMTAP	57	288	6
NMSTR	58	0	1
NMSI_	58	0	1	96	36	4
NMSTR	58	0	5
NMSI_	58	0	5	96	36	0
NMTAP	58	48	2
NMTAP	58	48	6
BRTAP	58	96	1
BRTAP	58	96	5
NMSTR	58	192	2
NMSXR	58	192	2	96	36	0
NMSTR	58	192	6
NMSXR	58	192	6	96	36	4
NMTAP	58	240	1
NMTAP	58	240	5
BRTAP	58	288	2
BRTAP	58	288	6
NMTTP	58	297	2	B	0	M1
NMTTP	58	297	6	B	0	M1
NMTTP	58	306	0	C	0	M1
NMHLD	59	0	0	1
NMHLD	59	0	4	1
NMHLD	59	48	0	2
NMHLD	59	48	4	2
NMHLD	59	96	0	4
NMHLD	59	96	4	4
NMHLD	59	144	1	6
NMHLD	59	144	5	6
NMHLD	59	192	1	9
NMHLD	59	192	5	9
NMHLD	59	240	1	12
NMHLD	59	240	5	12
NMHLD	59	288	1	15
NMHLD	59	288	5	15
NMHLD	59	336	2	18
NMHLD	59	336	6	18
NMHLD	60	0	2	21
NMHLD	60	0	6	21
NMHLD	60	48	2	24
NMHLD	60	48	6	24
NMHLD	60	96	2	27
NMHLD	60	96	6	27
NMHLD	60	144	3	28
NMHLD	60	144	7	28
NMHLD	60	192	3	28
NMHLD	60	192	7	28
NMHLD	60	240	3	28
NMHLD	60	240	7	28
BRHLD	60	288	0	336
BRTAP	60	288	4
NMTAP	61	240	3
NMTAP	61	268	1
NMTAP	61	288	2
NMTAP	61	316	0
NMTAP	61	336	1
NMTAP	61	364	7
NMTAP	62	0	0
NMTAP	62	28	6
NMSTR	62	48	7
NMSCR	62	48	7	96	84	3
NMTAP	62	124	6
NMTAP	62	124	7
NMTAP	62	240	5
NMTAP	62	288	3
NMTAP	62	316	4
NMTAP	62	336	1
NMTAP	62	364	1
NMTAP	63	0	3
NMTAP	63	28	2
NMTAP	63	48	6
NMTAP	63	76	6
NMTAP	63	96	4
NMHLD	63	124	5	44
NMTAP	63	168	7
NMTAP	63	180	0
NMTAP	63	192	1
NMTAP	63	220	4
NMTAP	63	240	2
NMTAP	63	268	5
NMTAP	63	288	3
NMTAP	63	316	6
EXSTR	63	336	4
NMSXL	63	336	4	96	120	7
NMSXR	63	336	4	96	120	1
NMTAP	63	368	3
NMTAP	63	368	5
NMTAP	64	16	3
NMTAP	64	16	5
EXTAP	64	48	4
NMTAP	64	240	2
NMTAP	64	240	6
NMTAP	64	288	1
NMTAP	64	304	2
NMTAP	64	320	3
NMTAP	64	336	6
NMTAP	64	364	6
NMTAP	65	0	4
NMTAP	65	28	4
NMTAP	65	48	0
NMTAP	65	76	0
NMTAP	65	96	1
NMTAP	65	124	1
NMHLD	65	144	3	96
BRTAP	65	192	7
BRTAP	65	218	7
BRTAP	65	240	7
NMTAP	65	288	1
NMTAP	65	288	5
NMTAP	65	336	2
NMTAP	65	364	2
NMTAP	66	0	3
NMTAP	66	28	1
NMTAP	66	48	5
NMTAP	66	76	5
NMTAP	66	96	4
NMTAP	66	124	6
NMTAP	66	144	2
NMTAP	66	172	0
NMTAP	66	192	1
NMTAP	66	220	7
NMTAP	66	240	0
NMTAP	66	268	6
NMTAP	66	288	7
NMTAP	66	316	5
NMTAP	66	336	6
NMTAP	66	364	6
NMTAP	67	0	4
NMTAP	67	28	4
NMTAP	67	48	7
NMTAP	67	76	7
NMTAP	67	96	1
NMTAP	67	124	1
NMTAP	67	144	0
NMTAP	67	172	0
NMTAP	67	192	3
NMTAP	67	220	3
NMTAP	67	240	2
NMTAP	67	268	2
NMTAP	67	288	5
NMHLD	67	316	5	52
NMTAP	67	368	7
NMTAP	68	0	0
NMTAP	68	16	1
NMTAP	68	32	2
NMTAP	68	48	3
NMTAP	68	76	5
NMTAP	68	96	4
NMTAP	68	124	6
NMTAP	68	144	3
NMTAP	68	172	5
NMTAP	68	192	2
NMTAP	68	220	4
NMTAP	68	240	1
NMTAP	68	268	3
NMTAP	68	288	0
NMSTR	68	316	0
NMSI_	68	316	0	96	164	4
NMTAP	69	0	7
NMTAP	69	48	1
NMTAP	69	96	6
NMTAP	69	144	2
NMTAP	69	192	5
NMTAP	69	240	3
NMHLD	69	288	4	48
NMHLD	70	48	2	1
NMHLD	70	48	6	1
NMHLD	70	96	3	2
NMHLD	70	96	7	2
NMHLD	70	144	0	4
NMHLD	70	144	4	4
NMHLD	70	192	1	6
NMHLD	70	192	5	6
NMHLD	70	240	2	9
NMHLD	70	240	6	9
NMHLD	70	288	3	12
NMHLD	70	288	7	12
NMHLD	70	336	0	15
EXHLD	70	336	2	15
NMHLD	71	0	1	18
EXHLD	71	0	3	18
NMHLD	71	48	2	21
EXHLD	71	48	4	21
NMHLD	71	96	3	24
EXHLD	71	96	5	24
NMHLD	71	144	4	28
EXHLD	71	144	6	28
NMHLD	71	192	5	28
EXHLD	71	192	7	28
BXHLD	71	240	0	28
NMHLD	71	240	1	28
BXHLD	71	288	2	28
NMHLD	71	288	3	28
BXHLD	71	336	4	28
EXHLD	71	336	5	28
BXHLD	72	0	6	28
EXHLD	72	0	7	28
BXHLD	72	48	0	28
EXHLD	72	48	2	28
BXHLD	72	96	4	28
EXHLD	72	96	6	28
BXHLD	72	144	1	28
EXHLD	72	144	3	28
BXHLD	72	192	5	28
EXHLD	72	192	7	28
BXHLD	72	240	1	28
BXHLD	72	240	2	28
BXTAP	72	288	5
BXSTR	72	288	6
NMSXL	72	288	6	96	72	7
CNSI_	73	72	7	0	66	4
NMTTP	73	84	7	A	0	M1
NMTTP	73	93	7	E	0	M1
NMTTP	73	102	6	B	0	M1
NMTTP	73	120	5	B	0	M1
NMTTP	73	129	5	E	0	M1
NMTTP	73	138	4	A	0	M1
NMTTP	73	138	5	D	0	M1

T_REC_TAP	335
T_REC_BRK	24
T_REC_XTP	30
T_REC_BXX	1
T_REC_HLD	106
T_REC_XHO	12
T_REC_BHO	1
T_REC_BXH	10
T_REC_STR	42
T_REC_BST	6
T_REC_XST	10
T_REC_XBS	1
T_REC_TTP	147
T_REC_THO	1
T_REC_SLD	57
T_REC_BSL	3
T_REC_ALL	786
T_NUM_TAP	564
T_NUM_BRK	46
T_NUM_HLD	119
T_NUM_SLD	57
T_NUM_ALL	786
T_JUDGE_TAP	596
T_JUDGE_HLD	162
T_JUDGE_SLD	60
T_JUDGE_ALL	818
TTM_EACHPAIRS	157
TTM_SCR_TAP	282000
TTM_SCR_BRK	119600
TTM_SCR_HLD	119000
TTM_SCR_SLD	85500
TTM_SCR_ALL	606100
TTM_SCR_S	583500
TTM_SCR_SS	601500
TTM_RAT_ACV	10076

