VERSION	0.00.00	1.04.00
FES_MODE	0
BPM_DEF	132.000	132.000	132.000	132.000
MET_DEF	4	4
RESOLUTION	384
CLK_DEF	384
COMPATIBLE_CODE	MA2

BPM	0	0	132.000
MET	0	0	4	4
MET	2	0	8	5
MET	3	336	4	4
MET	17	336	4	3
MET	18	240	8	5
MET	19	336	4	4
MET	69	336	4	1
MET	70	48	8	5
MET	72	0	8	6
MET	72	288	16	7
MET	73	72	4	4

NMTAP	2	0	2
NMTAP	2	0	5
NMTAP	2	48	2
NMTAP	2	48	5
NMTAP	2	96	2
NMTAP	2	96	5
NMTAP	2	144	2
NMTAP	2	144	5
NMTAP	2	192	2
NMTAP	2	192	5
NMTAP	2	240	2
NMTAP	2	240	5
NMTAP	2	288	2
NMTAP	2	288	5
NMTAP	2	336	2
NMTAP	2	336	5
NMTAP	3	0	2
NMTAP	3	0	5
NMTAP	3	48	2
NMTAP	3	48	5
NMHLD	3	96	2	192
NMHLD	3	96	5	192
NMSTR	3	336	3
NMSI_	3	336	3	96	48	0
NMSTR	3	336	4
NMSI_	3	336	4	96	48	7
NMTAP	4	144	7
NMTAP	4	240	6
EXTAP	4	360	4
EXTAP	4	360	5
EXHLD	5	24	4	216
EXHLD	5	24	5	120
NMHLD	5	336	6	96
NMTAP	6	48	5
NMTAP	6	144	4
NMTAP	6	144	5
NMTAP	6	240	3
NMTAP	6	240	4
NMTAP	6	336	2
NMTAP	6	336	3
NMHLD	7	48	0	48
NMHLD	7	48	2	48
NMHLD	7	144	2	48
NMHLD	7	144	7	48
NMTAP	7	240	0
NMTAP	7	240	2
EXHLD	7	336	3	96
EXSTR	7	336	7
NMSI_	7	336	7	96	48	5
NMHLD	8	144	3	96
NMSTR	8	144	7
NMSI_	8	144	7	96	48	5
NMHLD	8	336	3	96
NMSTR	8	336	7
NMSI_	8	336	7	96	48	1
NMHLD	9	144	3	96
NMSTR	9	144	7
NMSI_	9	144	7	96	48	1
BRTAP	9	336	2
BRTAP	9	336	7
NMHLD	10	48	4	48
NMHLD	10	48	5	48
NMHLD	10	144	2	48
NMHLD	10	144	3	48
NMHLD	10	240	4	48
NMHLD	10	240	5	48
NMHLD	10	336	1	48
NMHLD	10	336	3	48
EXSTR	11	48	0
NMSCR	11	48	0	96	96	3
EXSTR	11	48	7
NMSCL	11	48	7	96	96	4
NMHLD	11	336	6	288
NMTAP	12	48	4
NMSTR	12	144	5
NMSI_	12	144	5	96	48	2
NMHLD	12	336	1	192
NMTAP	13	48	3
NMSTR	13	144	2
NMSI_	13	144	2	96	48	5
NMTTP	13	336	0	E	0	M1
NMTTP	14	144	0	C	0	M1
NMTTP	14	144	2	B	0	M1
NMTTP	14	144	5	B	0	M1
NMTTP	14	336	3	E	0	M1
NMTTP	14	336	4	E	0	M1
NMTTP	14	336	5	E	0	M1
NMHLD	15	144	3	96
NMHLD	15	144	4	96
EXTAP	15	336	2
EXTAP	15	336	3
NMTAP	16	0	2
NMTAP	16	0	3
NMTAP	16	48	4
NMTAP	16	48	5
NMTAP	16	96	4
NMTAP	16	96	5
NMTAP	16	144	3
NMTAP	16	144	4
NMTAP	16	192	2
NMTAP	16	192	5
NMTAP	16	240	1
NMTAP	16	240	6
EXTAP	16	288	0
EXTAP	16	288	7
NMTAP	17	0	4
NMTAP	17	0	5
NMTAP	17	48	3
NMTAP	17	48	6
EXTAP	17	96	2
EXTAP	17	96	7
NMTAP	17	192	2
NMTAP	17	192	3
NMTAP	17	240	1
NMTAP	17	240	4
NMTAP	17	288	0
NMTAP	17	288	5
BRTAP	17	336	6
BRTAP	17	336	7
BRTAP	18	48	0
BRTAP	18	48	1
BRTAP	18	144	4
BRTAP	18	144	5
NMHLD	18	240	2	192
NMTAP	18	240	3
NMTAP	18	336	1
NMTAP	19	0	1
NMTAP	19	48	0
NMHLD	19	96	7	96
NMTAP	19	144	3
NMTAP	19	192	4
NMHLD	19	240	6	24
NMHLD	19	288	5	24
NMHLD	19	336	3	24
NMHLD	19	336	4	24
EXHLD	20	336	0	96
EXHLD	20	336	7	96
NMSTR	21	192	3
BRSV_	21	192	3	96	48	6
CNSXL	21	336	6	0	48	7
CNSI_	22	0	7	0	144	4
NMTAP	22	240	0
NMTAP	22	288	6
NMTAP	22	336	3
NMTAP	23	0	5
NMTAP	23	48	7
NMTAP	23	96	3
NMTAP	23	144	1
NMTAP	23	192	0
NMTAP	23	240	2
NMTAP	23	288	2
NMTAP	23	288	3
NMHLD	24	0	4	48
NMHLD	24	48	5	48
NMHLD	24	96	6	48
NMHLD	24	144	7	48
NMHLD	24	192	0	48
NMHLD	24	240	1	48
NMHLD	24	288	2	48
EXTAP	24	336	3
NMTAP	25	48	0
NMTAP	25	48	5
NMTAP	25	96	6
NMTAP	25	120	7
NMTAP	25	168	7
NMTAP	25	192	6
NMTAP	25	240	0
NMTAP	25	240	5
NMTAP	25	288	6
NMTAP	25	312	7
NMTAP	25	360	7
NMTAP	26	0	6
NMTAP	26	48	0
NMHLD	26	48	5	288
EXTAP	26	144	6
EXTAP	26	192	6
EXTAP	26	240	4
EXTAP	26	288	4
EXSTR	26	336	6
NMSI_	26	336	6	96	48	2
EXTAP	27	48	7
NMTAP	27	144	0
NMTAP	27	192	0
NMTAP	27	240	0
NMTTP	27	336	1	E	0	M1
NMTTP	28	0	5	E	0	M1
NMTTP	28	48	2	E	0	M1
NMTTP	28	96	6	E	0	M1
NMTTP	28	144	3	E	0	M1
NMTTP	28	192	7	E	0	M1
NMTTP	28	240	4	E	0	M1
NMHLD	28	336	0	96
NMHLD	28	336	1	288
NMHLD	29	144	2	288
NMHLD	29	336	3	288
NMHLD	30	144	4	288
NMHLD	30	336	6	288
NMHLD	31	144	5	288
NMHLD	31	336	1	288
NMTAP	32	144	2
NMTAP	32	192	2
NMTAP	32	240	2
NMHLD	32	336	3	192
NMTAP	32	336	4
NMTAP	33	48	1
NMTAP	33	144	4
NMTAP	33	192	4
NMTAP	33	240	3
NMTAP	33	240	5
NMTAP	33	288	3
NMHLD	33	288	5	240
NMTAP	34	0	6
NMTAP	34	48	6
NMTAP	34	144	4
NMTAP	34	240	2
NMTAP	34	240	5
EXTAP	34	336	1
EXHLD	34	336	3	120
EXTAP	35	72	2
EXHLD	35	120	4	144
EXTAP	35	120	6
EXTAP	35	264	5
EXTAP	35	312	0
EXHLD	35	312	3	144
EXTAP	36	72	2
EXHLD	36	120	4	144
EXTAP	36	120	7
EXTAP	36	264	5
BRSTR	36	336	1
BRSLR	36	336	1	96	288	5
BRTAP	36	336	7
CNSI_	37	336	5	0	144	7
CNSUR	38	96	7	0	240	0
CNSCR	38	336	0	0	624	7
NMHLD	41	0	1	72
NMHLD	41	72	2	72
NMHLD	41	144	3	72
NMTAP	41	216	4
EXTAP	41	336	2
EXTAP	41	336	5
NMHLD	42	0	6	72
NMHLD	42	72	5	72
NMHLD	42	144	4	72
NMTAP	42	216	3
EXHLD	42	312	1	48
EXHLD	42	312	2	48
EXHLD	43	0	0	48
EXHLD	43	0	3	48
EXHLD	43	72	4	48
EXHLD	43	72	7	48
EXHLD	43	144	5	48
EXHLD	43	144	6	48
EXHLD	43	216	4	48
EXHLD	43	216	7	48
EXHLD	43	288	0	48
EXHLD	43	288	3	48
NMTAP	44	336	3
NMTAP	44	336	4
BRTAP	45	48	2
BRTAP	45	48	7
NMTAP	45	96	1
NMTAP	45	120	0
NMTAP	45	168	0
NMTAP	45	192	1
NMTAP	45	240	2
NMTAP	45	240	7
NMTAP	45	288	0
NMTAP	45	288	1
NMTAP	45	336	2
NMTAP	45	336	7
NMTAP	46	48	0
NMTAP	46	48	5
NMTAP	46	96	6
NMTAP	46	120	7
NMTAP	46	168	7
NMTAP	46	192	6
NMSTR	46	240	0
NMSI_	46	240	0	96	48	6
NMTAP	46	240	5
NMSTR	46	336	5
NMSI_	46	336	5	96	48	1
NMSTR	47	48	2
NMSI_	47	48	2	96	48	4
NMSTR	47	144	7
NMSI_	47	144	7	96	48	1
NMSTR	47	240	2
NMSCL	47	240	2	96	192	5
NMHLD	47	336	4	192
NMTAP	48	240	3
NMTAP	48	240	4
NMHLD	48	336	2	720
NMTAP	48	336	3
NMTAP	49	48	1
NMTAP	49	96	1
NMSTR	49	144	1
NMSI_	49	144	1	96	48	3
NMSTR	49	336	0
NMSLR	49	336	0	96	96	4
NMTAP	50	192	5
NMTAP	50	240	5
NMHLD	50	288	5	96
NMHLD	51	0	6	48
NMHLD	51	48	7	48
NMHLD	51	96	0	48
NMHLD	51	144	1	48
NMHLD	51	192	2	48
NMHLD	51	240	3	48
NMHLD	51	288	4	336
NMTAP	52	0	5
NMSTR	52	48	5
NMSCL	52	48	5	96	96	0
NMTAP	52	336	3
NMTAP	52	336	7
BRTAP	53	48	0
BRTAP	53	48	5
NMTAP	53	96	6
NMTAP	53	120	7
NMTAP	53	168	7
NMTAP	53	192	6
NMTAP	53	240	0
NMTAP	53	240	5
NMTAP	53	288	6
NMTAP	53	288	7
NMTAP	53	336	0
NMTAP	53	336	5
NMTAP	54	48	2
NMTAP	54	48	7
NMTAP	54	96	1
NMTAP	54	120	0
NMTAP	54	168	0
NMTAP	54	192	1
NMTAP	54	240	2
NMSTR	54	240	7
NMSI_	54	240	7	96	48	1
NMSTR	54	336	2
NMSI_	54	336	2	96	48	6
NMSTR	55	48	5
NMSI_	55	48	5	96	48	3
NMSTR	55	144	0
NMSI_	55	144	0	96	48	6
NMSTR	55	240	5
NMSI_	55	240	5	96	48	1
NMSTR	55	336	2
NMSI_	55	336	2	96	48	4
NMSTR	56	48	7
NMSCL	56	48	7	96	96	2
NMHLD	56	144	0	96
NMTAP	56	336	1
NMTAP	56	336	7
NMTAP	57	0	7
NMTAP	57	48	4
NMTAP	57	96	5
NMTAP	57	144	1
NMTAP	57	192	1
NMTAP	57	240	3
NMHLD	57	288	2	96
NMSTR	57	288	4
NMSI_	57	288	4	96	48	0
NMHLD	58	96	1	96
NMSTR	58	96	5
NMSI_	58	96	5	96	48	7
NMTAP	58	288	0
NMHLD	58	288	7	1104
NMTAP	59	0	6
NMTAP	59	48	6
NMTAP	59	96	6
NMTAP	59	144	5
NMTAP	59	192	5
NMTAP	59	240	5
NMTAP	59	288	5
NMTAP	59	336	4
NMTAP	60	0	4
NMTAP	60	48	3
NMTAP	60	96	3
NMTAP	60	144	2
NMTAP	60	192	2
NMTAP	60	240	1
NMHLD	60	288	1	336
NMTAP	61	336	5
NMTAP	61	360	4
NMTAP	62	0	5
NMTAP	62	24	4
NMHLD	62	48	6	192
NMTTP	62	120	0	C	0	M1
NMTAP	62	192	4
NMTAP	62	240	4
NMTAP	62	336	2
NMTAP	62	360	3
NMTAP	63	0	2
NMTAP	63	24	3
NMTAP	63	48	1
NMTAP	63	72	4
NMTAP	63	96	1
NMHLD	63	120	4	168
NMTTP	63	192	6	E	0	M1
NMTTP	63	240	0	C	0	M1
NMHLD	63	336	0	176
NMTTP	64	48	3	E	0	M1
NMTTP	64	128	0	C	0	M1
NMTAP	64	192	7
NMTAP	64	240	6
NMTAP	64	288	5
NMTAP	64	336	3
NMHLD	64	336	4	288
EXTAP	65	48	6
EXTAP	65	144	0
EXTAP	65	240	2
BRTAP	65	336	0
BRTAP	65	336	4
NMTAP	66	48	3
NMTAP	66	48	7
NMTAP	66	96	5
NMTAP	66	120	4
NMTAP	66	144	5
NMTAP	66	168	4
NMTAP	66	192	5
EXTAP	66	240	3
EXTAP	66	240	7
NMTAP	66	336	2
NMTAP	66	360	3
NMTAP	67	0	2
NMTAP	67	24	3
NMTAP	67	48	1
NMTAP	67	72	4
NMTAP	67	96	1
NMTAP	67	120	4
NMHLD	67	144	0	192
NMTTP	67	240	0	C	0	M1
NMHLD	67	336	7	48
NMHLD	68	0	6	48
NMHLD	68	48	5	48
NMHLD	68	96	4	48
NMTAP	68	144	3
NMTAP	68	192	3
NMTAP	68	240	2
NMTAP	68	288	2
NMTAP	68	336	1
NMTAP	68	336	5
NMTAP	69	0	3
NMTAP	69	48	2
NMTAP	69	48	6
NMTAP	69	96	4
NMTAP	69	144	0
NMTAP	69	144	5
NMTAP	69	192	3
NMTAP	69	240	2
NMSTR	69	240	7
NMSI_	69	240	7	96	48	3
NMTAP	69	288	2
NMTAP	69	288	7
BRTAP	70	48	0
EXHLD	70	48	4	1176
NMTAP	70	96	0
NMTAP	70	144	1
NMTAP	70	192	1
NMTAP	70	240	2
NMTAP	70	288	2
NMTAP	70	336	3
NMTAP	71	0	3
NMTAP	71	48	5
NMTAP	71	96	5
NMTAP	71	144	6
NMTAP	71	192	6
NMTAP	71	240	7
NMTAP	71	288	7
NMTAP	71	336	0
NMTAP	72	0	0
NMTAP	72	48	1
NMTAP	72	96	2
NMTAP	72	144	3
NMTAP	72	192	5
NMTAP	72	240	6
NMTAP	72	288	7
NMTTP	73	72	0	E	0	M1
NMTTP	73	84	7	E	0	M1
NMTTP	73	96	6	E	0	M1
NMTTP	73	108	5	E	0	M1
NMTTP	73	120	4	E	0	M1
NMTTP	73	132	3	E	0	M1
NMTTP	73	144	2	E	0	M1
NMTTP	73	156	1	E	0	M1
NMTTP	73	168	0	C	0	M1
NMTTP	73	168	0	E	0	M1

T_REC_TAP	243
T_REC_BRK	16
T_REC_XTP	29
T_REC_BXX	0
T_REC_HLD	76
T_REC_XHO	22
T_REC_BHO	0
T_REC_BXH	0
T_REC_STR	26
T_REC_BST	1
T_REC_XST	4
T_REC_XBS	0
T_REC_TTP	30
T_REC_THO	0
T_REC_SLD	29
T_REC_BSL	2
T_REC_ALL	478
T_NUM_TAP	332
T_NUM_BRK	19
T_NUM_HLD	98
T_NUM_SLD	29
T_NUM_ALL	478
T_JUDGE_TAP	349
T_JUDGE_HLD	289
T_JUDGE_SLD	31
T_JUDGE_ALL	669
TTM_EACHPAIRS	102
TTM_SCR_TAP	166000
TTM_SCR_BRK	49400
TTM_SCR_HLD	98000
TTM_SCR_SLD	43500
TTM_SCR_ALL	356900
TTM_SCR_S	344350
TTM_SCR_SS	355000
TTM_RAT_ACV	10053

