VERSION	0.00.00	1.04.00
FES_MODE	0
BPM_DEF	132.000	132.000	132.000	132.000
MET_DEF	4	4
RESOLUTION	384
CLK_DEF	384
COMPATIBLE_CODE	MA2

BPM	0	0	132.000
MET	0	0	4	4
MET	2	0	8	5
MET	3	336	4	4
MET	17	336	4	3
MET	18	240	8	5
MET	19	336	4	4
MET	69	336	4	1
MET	70	48	8	5
MET	72	0	8	6
MET	72	288	16	7
MET	73	72	4	4

NMTAP	4	48	0
NMTAP	4	48	1
NMTAP	4	240	0
NMTAP	4	240	1
NMTAP	5	48	2
NMTAP	5	48	3
NMTAP	5	240	2
NMTAP	5	240	3
NMTAP	6	48	4
NMTAP	6	48	5
NMTAP	6	240	4
NMTAP	6	240	5
EXTAP	7	48	6
EXTAP	7	144	6
EXTAP	7	240	6
NMTAP	7	336	7
NMTAP	8	48	7
NMTAP	8	144	6
NMTAP	8	240	6
NMTAP	8	336	5
NMTAP	9	48	5
NMTAP	9	144	4
NMTAP	9	240	4
NMTAP	9	336	3
NMTAP	10	48	3
NMTAP	10	144	2
NMTAP	10	240	2
NMTAP	10	336	1
NMTAP	10	336	3
NMTAP	11	48	1
NMTAP	11	48	3
NMTAP	11	144	1
NMTAP	11	144	3
NMHLD	11	336	2	192
NMTAP	12	144	3
NMHLD	12	336	5	192
NMTAP	13	144	4
NMHLD	13	336	6	192
NMHLD	14	144	7	192
NMHLD	14	336	0	192
NMTAP	15	144	1
NMTAP	15	336	1
NMTAP	16	48	1
NMTAP	16	144	0
NMTAP	16	144	7
NMTAP	16	240	0
NMTAP	16	240	7
NMTAP	16	336	6
NMTAP	17	48	6
NMTAP	17	144	0
NMTAP	17	144	7
NMTAP	17	240	0
NMTAP	17	240	7
NMTAP	17	336	1
NMTAP	17	336	6
NMTAP	18	48	1
NMTAP	18	48	6
NMTAP	18	144	2
NMTAP	18	144	5
EXHLD	18	240	3	480
EXHLD	18	240	4	480
NMTHO	20	336	0	768	C	0	L1
EXTAP	23	312	0
EXTAP	23	312	7
NMTAP	24	336	1
NMTAP	25	48	1
NMTAP	25	144	0
NMTAP	25	144	1
NMTAP	25	240	0
NMTAP	25	240	1
NMTAP	25	336	2
NMTAP	26	48	2
NMTAP	26	144	2
NMTAP	26	144	3
NMTAP	26	240	2
NMTAP	26	240	3
NMTAP	26	336	5
NMTAP	27	48	5
NMTAP	27	144	4
NMTAP	27	144	5
NMTAP	27	240	4
NMTAP	27	240	5
NMTAP	27	336	6
NMTAP	28	48	6
NMTAP	28	144	6
NMTAP	28	144	7
NMSTR	28	336	6
NMSI_	28	336	6	96	192	3
NMSTR	29	336	1
NMSI_	29	336	1	96	192	4
NMSTR	30	336	6
NMSI_	30	336	6	96	192	2
NMSTR	31	336	1
NMSI_	31	336	1	96	192	5
NMTTP	32	336	6	B	0	L1
NMTTP	33	48	5	B	0	L1
NMTTP	33	144	4	B	0	L1
NMTTP	33	336	1	B	0	L1
NMTTP	34	48	2	B	0	L1
NMTTP	34	144	3	B	0	L1
NMTTP	34	336	6	B	0	L1
NMTTP	35	48	5	B	0	L1
NMTTP	35	144	4	B	0	L1
NMTTP	35	240	3	B	0	L1
NMTTP	35	336	2	B	0	L1
NMTTP	36	48	1	B	0	L1
NMTTP	36	144	0	C	0	L1
NMHLD	36	336	1	768
NMHLD	36	336	6	768
NMTAP	39	336	0
NMTAP	39	336	7
NMTAP	40	48	0
NMTAP	40	48	7
NMTAP	40	144	0
NMTAP	40	144	7
NMTAP	40	240	0
NMTAP	40	240	7
NMSTR	40	336	1
NMSI_	40	336	1	96	192	4
NMSTR	41	336	6
NMSI_	41	336	6	96	192	3
NMSTR	42	336	2
NMSI_	42	336	2	96	192	7
BXTAP	44	144	0
BXTAP	44	144	7
NMTAP	44	336	6
NMTAP	45	48	6
NMTAP	45	144	6
NMTAP	45	144	7
NMTAP	45	240	6
NMTAP	45	240	7
NMTAP	45	336	5
NMTAP	46	48	5
NMTAP	46	144	4
NMTAP	46	144	5
NMTAP	46	240	4
NMTAP	46	240	5
NMTAP	46	336	3
NMTAP	47	48	3
NMTAP	47	144	2
NMTAP	47	144	4
NMTAP	47	240	2
NMTAP	47	240	4
NMTAP	47	336	1
NMTAP	47	336	5
NMTAP	48	48	1
NMTAP	48	48	5
NMTAP	48	144	1
NMTAP	48	144	5
NMTAP	48	336	0
NMTAP	49	48	0
NMTAP	49	144	0
NMTAP	49	144	1
NMTAP	49	240	0
NMTAP	49	240	1
NMTAP	49	336	2
NMTAP	50	48	2
NMTAP	50	144	2
NMTAP	50	144	3
NMTAP	50	240	2
NMTAP	50	240	3
NMTAP	50	336	4
NMTAP	51	48	4
NMTAP	51	144	3
NMTAP	51	144	5
NMTAP	51	240	3
NMTAP	51	240	5
EXTAP	51	336	2
EXTAP	51	336	6
EXTAP	52	48	2
EXTAP	52	48	6
EXTAP	52	144	2
EXTAP	52	144	6
NMTAP	52	336	7
NMTAP	53	48	7
NMTAP	53	144	6
NMTAP	53	144	7
NMTAP	53	240	6
NMTAP	53	240	7
NMTAP	53	336	5
NMTAP	54	48	5
NMTAP	54	144	4
NMTAP	54	144	5
NMTAP	54	240	4
NMTAP	54	240	5
EXTAP	54	336	2
EXTAP	54	336	3
EXTAP	55	48	2
EXTAP	55	48	3
EXTAP	55	144	2
EXTAP	55	144	3
EXTAP	55	240	2
EXTAP	55	240	3
BRTAP	55	336	1
BRTAP	55	336	4
BRTAP	56	48	1
BRTAP	56	48	4
BRTAP	56	144	1
BRTAP	56	144	4
NMTAP	56	336	0
NMTAP	57	48	0
NMTAP	57	144	1
NMTAP	57	240	2
NMTAP	57	336	3
NMTAP	58	48	4
NMTAP	58	144	5
NMTAP	58	240	6
EXHLD	58	336	0	768
EXHLD	58	336	7	768
NMTAP	61	336	2
NMTAP	62	48	2
NMTAP	62	48	3
NMTAP	62	144	5
NMTAP	62	240	4
NMTAP	62	240	5
NMTAP	62	336	2
NMTAP	63	48	2
NMTAP	63	48	3
NMTAP	63	144	4
NMTAP	63	240	3
NMTAP	63	240	4
NMTAP	63	336	5
NMTAP	64	48	4
NMTAP	64	48	5
NMTAP	64	144	2
NMTAP	64	240	2
NMTAP	64	240	3
NMTAP	64	336	5
EXTAP	65	48	4
EXTAP	65	48	5
EXTAP	65	144	3
EXTAP	65	144	4
EXTAP	65	240	2
EXTAP	65	240	3
NMTAP	65	336	1
NMTAP	66	48	0
NMTAP	66	48	1
NMTAP	66	144	6
NMTAP	66	240	6
NMTAP	66	240	7
NMTAP	66	336	1
NMTAP	67	48	0
NMTAP	67	48	1
NMTAP	67	144	7
NMTAP	67	240	0
NMTAP	67	240	7
NMTAP	67	336	6
NMTAP	68	48	6
NMTAP	68	48	7
NMTAP	68	144	1
NMTAP	68	240	0
NMTAP	68	240	1
NMTAP	68	336	7
NMTAP	69	48	7
EXTAP	69	144	0
EXTAP	69	144	7
EXTAP	69	240	0
EXTAP	69	240	7
NMTHO	70	48	0	1008	C	0	L1
NMTTP	73	120	0	B	0	L1
NMTTP	73	120	0	E	0	L1
NMTTP	73	120	7	B	0	L1

T_REC_TAP	182
T_REC_BRK	6
T_REC_XTP	29
T_REC_BXX	2
T_REC_HLD	7
T_REC_XHO	4
T_REC_BHO	0
T_REC_BXH	0
T_REC_STR	7
T_REC_BST	0
T_REC_XST	0
T_REC_XBS	0
T_REC_TTP	16
T_REC_THO	2
T_REC_SLD	7
T_REC_BSL	0
T_REC_ALL	262
T_NUM_TAP	234
T_NUM_BRK	8
T_NUM_HLD	13
T_NUM_SLD	7
T_NUM_ALL	262
T_JUDGE_TAP	242
T_JUDGE_HLD	141
T_JUDGE_SLD	7
T_JUDGE_ALL	390
TTM_EACHPAIRS	78
TTM_SCR_TAP	117000
TTM_SCR_BRK	20800
TTM_SCR_HLD	13000
TTM_SCR_SLD	10500
TTM_SCR_ALL	161300
TTM_SCR_S	155700
TTM_SCR_SS	160500
TTM_RAT_ACV	10049

