VERSION	0.00.00	1.04.00
FES_MODE	0
BPM_DEF	132.000	132.000	132.000	132.000
MET_DEF	4	4
RESOLUTION	384
CLK_DEF	384
COMPATIBLE_CODE	MA2

BPM	0	0	132.000
MET	0	0	4	4
MET	2	0	8	5
MET	3	336	4	4
MET	17	336	4	3
MET	18	240	8	5
MET	19	336	4	4
MET	69	336	4	1
MET	70	48	8	5
MET	72	0	8	6
MET	72	288	16	7
MET	73	72	4	4

NMHLD	2	0	0	384
NMHLD	2	0	7	384
EXTAP	3	336	0
EXTAP	3	336	7
NMTAP	4	144	1
NMTAP	4	336	2
NMTAP	5	144	3
NMTAP	5	336	4
NMTAP	6	48	4
NMTAP	6	144	4
EXTAP	6	336	3
EXTAP	6	336	4
NMTAP	7	336	3
NMTAP	7	336	4
NMTAP	8	144	5
NMTAP	8	336	6
NMTAP	9	144	7
NMTAP	9	336	0
NMTAP	10	48	0
NMTAP	10	144	0
BXTAP	10	336	0
BXTAP	10	336	7
NMHLD	11	336	0	192
NMHLD	11	336	1	192
NMTAP	12	336	0
NMTAP	12	336	1
NMHLD	13	336	6	192
NMHLD	13	336	7	192
NMTAP	14	336	6
NMTAP	14	336	7
NMHLD	15	336	0	336
NMHLD	15	336	7	336
EXTAP	17	240	0
EXTAP	17	336	0
EXTAP	18	48	7
EXTAP	18	144	7
EXSTR	18	240	0
NMSI_	18	240	0	96	288	3
EXSTR	18	240	7
NMSI_	18	240	7	96	288	4
EXTAP	20	336	3
EXTAP	20	336	4
EXSTR	21	48	3
NMSI_	21	48	3	96	288	0
EXSTR	21	48	4
NMSI_	21	48	4	96	288	7
EXTAP	22	336	0
EXTAP	22	336	7
EXHLD	23	144	0	168
EXHLD	23	144	7	168
BRTAP	24	336	0
NMTAP	25	144	1
NMTAP	25	336	2
NMTAP	26	144	3
NMTAP	26	240	3
NMTAP	26	336	3
NMTAP	26	336	4
NMTAP	27	144	4
NMTAP	27	336	5
NMTAP	28	144	6
NMTAP	28	240	6
NMTAP	28	336	6
NMTAP	29	144	6
NMTAP	29	144	7
NMTAP	29	336	1
NMTAP	30	144	0
NMTAP	30	144	1
NMHLD	30	336	7	96
NMTAP	31	144	7
NMHLD	31	336	0	96
NMTAP	32	144	0
NMTAP	32	336	1
NMTAP	33	48	1
NMTAP	33	144	0
NMTAP	33	240	0
NMTAP	33	336	7
NMTAP	34	48	7
NMTAP	34	144	0
NMTAP	34	144	7
NMTTP	34	336	0	E	0	L1
NMTTP	35	144	0	B	0	L1
NMTTP	35	144	7	B	0	L1
NMTTP	35	336	1	B	0	L1
NMTTP	35	336	6	B	0	L1
NMTHO	36	144	0	192	C	1	L1
NMSTR	38	336	0
NMSI_	38	336	0	96	288	4
NMSTR	40	336	4
NMSI_	40	336	4	96	288	0
EXHLD	42	312	0	408
EXHLD	42	312	7	408
NMTAP	44	336	7
NMTAP	45	48	7
NMTAP	45	144	7
NMTAP	45	336	6
NMTAP	46	48	6
NMTAP	46	144	6
NMTAP	46	336	5
NMTAP	47	48	5
NMTAP	47	144	5
NMTAP	47	336	4
NMTAP	48	48	4
NMTAP	48	144	3
NMTAP	48	144	4
NMTAP	48	336	3
NMTAP	49	48	3
NMTAP	49	144	3
NMTAP	49	336	2
NMTAP	50	48	2
NMTAP	50	144	2
NMTAP	50	336	1
NMTAP	51	48	1
NMTAP	51	144	1
BXTAP	51	336	0
BXTAP	51	336	1
NMTAP	52	336	0
NMTAP	53	48	0
NMTAP	53	144	0
NMTAP	53	240	0
NMTAP	53	336	1
NMTAP	54	48	1
NMTAP	54	144	0
NMTAP	54	144	1
NMTAP	54	336	7
NMTAP	55	48	7
NMTAP	55	144	7
NMTAP	55	240	7
NMTAP	55	336	6
NMTAP	56	48	6
NMTAP	56	144	6
NMTAP	56	144	7
NMTAP	56	336	5
NMTAP	57	48	5
NMTAP	57	144	4
NMTAP	57	144	5
NMTAP	57	336	2
NMTAP	58	48	2
NMTAP	58	144	2
NMTAP	58	144	3
EXSTR	58	336	3
NMSI_	58	336	3	96	288	0
EXSTR	58	336	4
NMSI_	58	336	4	96	288	7
EXTAP	60	336	0
EXTAP	60	336	7
NMSTR	61	336	0
NMSI_	61	336	0	96	288	5
NMSTR	63	336	6
NMSI_	63	336	6	96	288	3
NMSTR	65	336	2
NMSI_	65	336	2	96	288	7
NMSTR	67	336	6
NMSI_	67	336	6	96	288	1
EXTAP	70	48	0
EXTAP	70	144	0
EXTAP	70	240	7
EXTAP	70	336	7
EXTAP	71	48	7
EXTAP	71	144	0
EXTAP	71	144	7
EXTAP	71	240	0
EXTAP	71	240	7
EXTAP	71	336	1
EXTAP	71	336	6
EXTAP	72	48	1
EXTAP	72	48	6
EXTAP	72	144	2
EXTAP	72	144	5
EXHLD	72	240	2	288
EXHLD	72	240	5	288

T_REC_TAP	90
T_REC_BRK	1
T_REC_XTP	29
T_REC_BXX	4
T_REC_HLD	10
T_REC_XHO	6
T_REC_BHO	0
T_REC_BXH	0
T_REC_STR	6
T_REC_BST	0
T_REC_XST	6
T_REC_XBS	0
T_REC_TTP	5
T_REC_THO	1
T_REC_SLD	12
T_REC_BSL	0
T_REC_ALL	170
T_NUM_TAP	136
T_NUM_BRK	5
T_NUM_HLD	17
T_NUM_SLD	12
T_NUM_ALL	170
T_JUDGE_TAP	141
T_JUDGE_HLD	92
T_JUDGE_SLD	12
T_JUDGE_ALL	245
TTM_EACHPAIRS	34
TTM_SCR_TAP	68000
TTM_SCR_BRK	13000
TTM_SCR_HLD	17000
TTM_SCR_SLD	18000
TTM_SCR_ALL	116000
TTM_SCR_S	112050
TTM_SCR_SS	115500
TTM_RAT_ACV	10043

