VERSION	0.00.00	1.04.00
FES_MODE	0
BPM_DEF	186.000	186.000	186.000	186.000
MET_DEF	4	4
RESOLUTION	384
CLK_DEF	384
COMPATIBLE_CODE	MA2

BPM	0	0	186.000
MET	0	0	4	4
MET	6	0	4	2
MET	6	192	4	4
MET	9	192	4	3
MET	10	96	4	4
MET	11	96	4	3
MET	12	0	4	4
MET	17	0	4	3
MET	17	288	4	4
MET	18	288	4	3
MET	19	192	4	4
MET	21	192	4	6
MET	27	192	8	11
MET	31	240	4	4
MET	33	240	4	3
MET	38	48	4	4
MET	41	48	4	3
MET	41	336	4	4
MET	42	336	4	3
MET	43	240	4	4
MET	44	240	4	3
MET	45	144	4	5
MET	46	240	4	4
MET	48	240	4	3
MET	49	144	4	4
MET	50	144	4	3
MET	51	48	4	4
MET	52	48	4	3
MET	52	336	4	5
MET	54	48	4	3
MET	57	336	4	2
MET	58	144	4	3
MET	60	240	4	2
MET	61	48	4	3
MET	63	144	4	2
MET	63	336	4	3
MET	67	240	4	7
MET	69	144	4	4
MET	71	144	4	3
MET	72	48	4	4
MET	73	48	4	3
MET	73	336	4	4
MET	74	336	4	3
MET	75	240	4	4
MET	76	240	4	3
MET	77	144	4	4
MET	80	144	4	3
MET	81	48	4	4
MET	82	48	4	3
MET	82	336	4	4
MET	87	336	4	3
MET	88	240	4	4
MET	89	240	4	3
MET	90	144	4	4
MET	95	144	4	3
MET	96	48	4	4
MET	97	48	4	3
MET	97	336	4	4
MET	98	336	4	3
MET	102	240	4	5
MET	103	336	4	4

NMTTP	1	240	3	E	0	M1
NMTTP	1	264	5	E	0	M1
NMTTP	1	288	2	B	0	M1
NMTTP	1	312	5	B	0	M1
NMTTP	1	336	1	B	0	M1
NMTTP	1	360	6	B	0	M1
NMTAP	2	0	0
NMTAP	2	24	7
NMTAP	2	48	0
NMTAP	2	72	7
NMTAP	2	96	0
NMTAP	2	120	7
NMTAP	2	144	0
NMTAP	2	168	7
NMTAP	2	192	0
NMTAP	2	216	7
NMTAP	2	240	0
NMTAP	2	264	7
NMTAP	2	288	0
NMTAP	2	312	7
NMTAP	2	336	0
NMTAP	2	360	7
NMTAP	3	0	0
NMTAP	3	24	7
NMTAP	3	48	0
NMTAP	3	72	7
NMTAP	3	96	0
NMTAP	3	120	7
NMTAP	3	144	0
NMTAP	3	168	7
NMTAP	3	192	0
NMTAP	3	216	7
NMTAP	3	240	0
NMTAP	3	264	7
NMTAP	3	288	0
NMTAP	3	312	7
NMTAP	3	336	0
NMTAP	3	360	7
NMTAP	4	0	0
NMTAP	4	24	7
NMTAP	4	48	0
NMTAP	4	72	7
NMTAP	4	96	0
NMTAP	4	120	7
NMTAP	4	144	0
NMTAP	4	168	7
NMTAP	4	192	0
NMTAP	4	216	7
EXTAP	4	240	1
EXTAP	4	252	2
EXTAP	4	264	3
NMTAP	4	288	7
NMTAP	4	312	0
NMTAP	4	336	7
NMTAP	4	360	0
NMTAP	5	0	7
NMTAP	5	24	0
NMTAP	5	48	7
NMTAP	5	72	0
NMTAP	5	96	7
NMTAP	5	120	0
EXTAP	5	144	6
EXTAP	5	156	5
EXTAP	5	168	4
NMTAP	5	192	0
NMTAP	5	216	7
NMTAP	5	240	0
NMTAP	5	264	7
NMHLD	5	288	1	3
NMHLD	5	312	6	3
NMHLD	5	336	1	6
NMHLD	5	360	6	6
NMHLD	6	0	2	12
NMHLD	6	24	5	12
NMHLD	6	48	2	18
NMHLD	6	72	5	18
NMHLD	6	96	3	24
NMHLD	6	120	4	24
NMHLD	6	144	3	24
NMHLD	6	168	4	24
NMSTR	6	192	3
NMSI_	6	192	3	96	80	7
NMSI_	6	192	3	96	80	7
CNSCL	6	368	7	0	64	5
CNSCR	6	368	7	0	64	1
NMSTR	7	192	3
NMSI_	7	192	3	96	144	0
NMSTR	7	192	5
NMSI_	7	192	5	96	144	0
NMSTR	8	192	1
NMSLR	8	192	1	96	144	7
NMSTR	8	192	5
NMSLR	8	192	5	96	144	3
NMSTR	9	192	3
NMSV_	9	192	3	96	96	4
NMSTR	9	192	4
NMSV_	9	192	4	96	96	3
NMSTR	10	96	3
NMSUR	10	96	3	96	144	0
NMSTR	10	96	4
NMSI_	10	96	4	96	144	7
NMHLD	11	96	3	176
NMHLD	11	96	4	176
NMTTP	11	280	3	B	0	M1
NMTTP	11	280	4	B	0	M1
NMTTP	11	288	0	C	0	M1
EXHLD	12	0	4	96
EXHLD	12	0	5	96
NMTAP	12	144	1
NMTAP	12	144	6
EXHLD	12	192	1	96
EXHLD	12	192	6	96
NMTAP	12	336	0
NMTAP	12	336	5
EXHLD	13	0	4	96
EXHLD	13	0	7	96
NMTAP	13	192	3
NMTAP	13	192	4
NMTTP	13	240	0	C	0	M1
BRTAP	13	288	1
BRTAP	13	288	6
NMTAP	14	0	0
NMTAP	14	0	2
NMTAP	14	96	3
NMTAP	14	96	5
NMTAP	14	144	4
NMHLD	14	192	2	72
NMTAP	14	264	3
NMTAP	14	288	2
NMTAP	14	336	1
NMTAP	14	336	6
NMHLD	15	0	5	72
NMTAP	15	72	4
NMTAP	15	96	5
NMTAP	15	144	1
NMTAP	15	144	6
NMTAP	15	192	2
NMSTR	15	192	3
NMSI_	15	192	3	96	48	7
NMTAP	15	288	3
NMTAP	15	288	4
NMTAP	15	336	5
NMTAP	16	0	0
NMTAP	16	0	6
NMTAP	16	96	2
NMTAP	16	96	4
NMTAP	16	144	3
NMHLD	16	192	5	72
NMTAP	16	264	4
NMTAP	16	288	5
NMTAP	16	336	1
NMTAP	16	336	6
NMHLD	17	0	2	72
NMTAP	17	72	3
NMSTR	17	96	2
NMSCR	17	96	2	96	48	5
NMTAP	17	144	0
NMTAP	17	144	1
NMTAP	17	288	0
NMTAP	17	288	7
NMTAP	18	0	1
NMTAP	18	0	4
NMTAP	18	48	2
NMTAP	18	48	5
NMTAP	18	96	3
NMHLD	18	96	6	72
NMTAP	18	168	4
NMTAP	18	192	6
NMTAP	18	240	2
NMTAP	18	240	5
NMHLD	18	288	1	72
NMTAP	18	288	4
NMTAP	18	360	3
NMTAP	19	0	1
NMTAP	19	48	3
NMTAP	19	48	4
EXSTR	19	96	5
NMSCR	19	96	5	96	60	1
NMSUR	19	96	5	96	60	1
EXSTR	19	288	2
NMSCL	19	288	2	96	60	6
NMSUL	19	288	2	96	60	6
EXTAP	20	96	5
NMHLD	20	192	5	72
NMTAP	20	264	3
NMTAP	20	288	4
NMTAP	20	336	3
NMTAP	21	0	1
BRTAP	21	0	2
BRTAP	21	48	5
NMTAP	21	48	6
BRTAP	21	96	0
BRTAP	21	96	4
EXTAP	21	192	5
NMTAP	21	240	4
NMHLD	21	288	3	1
EXTAP	22	0	5
NMTAP	22	48	4
NMHLD	22	96	3	1
EXTAP	22	192	5
EXTAP	22	240	5
NMTAP	22	288	4
NMHLD	22	336	3	1
EXTAP	23	0	7
NMTAP	23	48	0
NMHLD	23	96	1	1
NMTAP	23	192	0
EXTAP	23	240	7
NMHLD	23	288	1	1
EXTAP	24	0	7
EXTAP	24	48	7
NMTAP	24	96	0
NMHLD	24	144	1	1
EXTAP	24	192	6
NMTAP	24	240	5
NMHLD	24	288	4	1
EXTAP	25	0	6
NMHLD	25	48	4	1
NMHLD	25	96	4	1
EXTAP	25	192	6
EXTAP	25	240	6
NMTAP	25	288	5
NMHLD	25	336	4	1
EXTAP	26	0	0
NMTAP	26	48	1
NMHLD	26	96	2	1
EXTAP	26	192	0
EXTAP	26	240	0
NMHLD	26	288	2	1
EXTAP	27	0	0
EXTAP	27	48	0
NMTAP	27	96	1
NMHLD	27	144	2	1
EXHLD	27	192	4	72
NMHLD	27	264	2	72
NMHLD	27	336	0	1
NMHLD	28	0	0	1
EXTAP	28	48	4
EXTAP	28	144	4
EXTAP	28	192	4
NMTAP	28	240	2
NMHLD	28	288	0	1
EXHLD	28	336	6	72
NMHLD	29	24	0	72
NMHLD	29	96	2	1
EXTAP	29	144	6
EXTAP	29	192	6
EXTAP	29	288	6
EXTAP	29	336	6
NMTAP	30	0	0
NMHLD	30	48	2	1
EXHLD	30	96	5	72
NMHLD	30	168	3	72
NMHLD	30	240	1	1
NMHLD	30	288	1	1
NMHLD	30	336	1	1
EXTAP	31	48	5
EXTAP	31	96	5
NMTAP	31	144	3
NMHLD	31	192	1	1
EXHLD	31	240	7	72
NMHLD	31	312	1	72
NMHLD	32	0	3	1
NMTAP	32	48	1
NMHLD	32	96	3	1
NMTAP	32	144	1
NMHLD	32	192	3	1
EXTAP	32	288	7
NMHLD	32	336	3	1
NMTAP	33	0	1
BXTAP	33	48	7
BRTAP	33	96	1
BRHLD	33	144	3	0
NMSTR	33	240	4
NMSXR	33	240	4	96	84	2
NMTAP	33	240	5
NMTAP	33	336	6
CNSCL	34	36	2	0	60	0
NMTAP	34	48	6
NMSTR	34	144	3
NMSXL	34	144	3	96	84	5
NMTAP	34	240	1
CNSCR	34	324	5	0	60	7
NMTAP	34	336	1
NMSTR	35	48	0
NMSXL	35	48	0	96	84	2
NMTAP	35	144	5
CNSCR	35	228	2	0	60	4
NMTAP	35	240	5
NMTAP	35	304	6
NMTAP	35	336	6
NMTAP	36	16	2
NMTAP	36	16	7
NMTAP	36	48	2
NMTAP	36	48	7
NMSTR	36	144	4
NMSCR	36	144	4	96	384	3
NMSTR	36	144	5
NMSSR	36	144	5	96	276	1
BRTAP	36	240	4
BRTAP	36	240	5
NMTTP	37	336	7	E	0	M1
NMTTP	37	360	2	E	0	M1
NMTTP	38	0	6	E	0	M1
NMTTP	38	24	3	E	0	M1
EXTAP	38	48	5
NMTAP	38	72	4
NMTAP	38	96	5
NMTAP	38	120	4
NMTAP	38	144	5
NMTAP	38	240	1
NMTAP	38	264	3
NMTAP	38	288	1
NMTAP	38	312	3
NMTAP	38	336	1
NMTAP	39	48	7
NMTAP	39	72	4
NMTAP	39	96	7
NMTAP	39	120	4
NMTAP	39	144	7
NMTAP	39	192	6
NMHLD	39	240	0	48
NMHLD	39	240	5	48
NMHLD	39	336	2	48
NMHLD	39	336	7	48
NMTAP	40	48	2
NMTAP	40	72	3
NMTAP	40	96	2
NMTAP	40	120	3
NMTAP	40	144	2
NMTAP	40	240	6
NMTAP	40	264	4
NMTAP	40	288	6
NMTAP	40	312	4
NMTAP	40	336	6
NMTAP	41	48	0
NMTAP	41	72	3
NMTAP	41	96	0
NMTAP	41	120	3
NMTAP	41	144	0
NMTAP	41	192	1
NMTAP	41	192	5
NMTAP	41	240	2
NMTAP	41	240	6
NMTAP	41	288	3
NMTAP	41	288	7
NMSTR	41	336	0
NMSI_	41	336	0	96	36	6
NMTAP	42	0	0
NMSTR	42	48	4
NMSI_	42	48	4	96	36	2
NMTAP	42	96	4
NMSTR	42	144	7
NMSI_	42	144	7	96	36	5
NMTAP	42	192	7
NMSTR	42	240	3
NMSI_	42	240	3	96	36	1
NMTAP	42	288	3
NMSTR	42	336	6
NMSI_	42	336	6	96	36	4
NMTAP	43	0	6
NMSTR	43	48	2
NMSI_	43	48	2	96	36	0
NMTAP	43	96	2
NMSTR	43	144	5
NMSUL	43	144	5	96	96	2
NMSTR	43	336	1
NMSUL	43	336	1	96	96	6
NMTAP	44	144	5
NMHLD	44	240	5	72
NMTAP	44	312	3
NMTAP	44	336	4
NMTAP	45	0	3
BRTAP	45	48	1
BRTAP	45	48	6
NMTAP	45	144	0
NMTAP	45	176	0
NMTAP	45	208	0
NMSTR	45	240	6
NMSI_	45	240	6	96	32	3
NMTAP	45	304	6
NMSTR	45	336	2
NMSI_	45	336	2	96	32	7
NMTAP	46	16	2
NMSTR	46	48	4
NMSI_	46	48	4	96	32	0
NMTAP	46	112	4
NMSTR	46	144	1
NMSI_	46	144	1	96	32	3
NMTAP	46	208	1
NMSTR	46	240	6
NMSI_	46	240	6	96	32	2
NMTAP	46	304	6
NMSTR	46	336	4
NMSI_	46	336	4	96	32	0
NMTAP	47	16	4
NMHLD	47	48	7	64
NMTAP	47	112	1
NMTAP	47	144	1
NMTAP	47	176	0
NMTAP	47	208	2
NMSTR	47	240	0
NMSUR	47	240	0	96	32	4
NMTAP	47	304	0
NMSTR	47	336	1
NMSCR	47	336	1	96	32	3
NMTAP	48	16	1
NMSTR	48	48	6
NMSCL	48	48	6	96	32	4
NMTAP	48	112	6
NMSTR	48	144	7
NMSUL	48	144	7	96	32	3
NMTAP	48	208	7
NMSTR	48	240	5
NMSV_	48	240	5	96	32	0
NMTAP	48	304	5
NMSTR	48	336	1
NMSV_	48	336	1	96	32	4
NMTAP	49	16	1
BRTAP	49	48	7
NMTAP	49	144	6
NMTAP	49	176	4
NMTAP	49	208	4
NMTAP	49	240	1
NMTAP	49	272	3
NMTAP	49	304	3
NMTAP	49	336	7
NMTAP	49	368	4
NMTAP	50	16	4
NMHLD	50	48	0	64
NMTAP	50	112	3
NMTAP	50	144	5
NMTAP	50	176	7
NMTAP	50	208	7
NMSTR	50	240	2
NMSI_	50	240	2	96	32	5
NMTAP	50	272	0
NMTAP	50	304	0
NMTAP	51	48	1
NMTAP	51	80	3
NMTAP	51	112	3
NMTAP	51	144	6
NMTAP	51	176	4
NMTAP	51	208	4
NMHLD	51	240	0	64
NMTAP	51	304	3
NMTAP	51	336	7
NMTAP	51	368	4
NMTAP	52	16	4
NMTAP	52	48	2
NMTAP	52	80	1
NMTAP	52	112	0
NMTAP	52	144	7
NMTAP	52	176	6
NMTAP	52	208	5
BRTAP	52	240	3
BRTAP	52	240	4
NMTTP	52	336	0	B	0	M1
NMTTP	52	352	6	B	0	M1
NMTTP	52	368	2	B	0	M1
NMTTP	53	0	4	B	0	M1
NMTTP	53	16	1	B	0	M1
NMTTP	53	32	7	B	0	M1
NMTTP	53	48	3	B	0	M1
NMTTP	53	64	5	B	0	M1
NMTTP	53	80	1	E	0	M1
NMTTP	53	96	6	E	0	M1
NMTTP	53	112	3	E	0	M1
NMTTP	53	128	0	E	0	M1
NMTTP	53	144	2	E	0	M1
NMTTP	53	160	7	E	0	M1
NMTTP	53	176	4	E	0	M1
NMTTP	53	192	5	E	0	M1
EXTAP	53	208	3
EXTAP	53	224	4
EXTAP	53	240	2
EXTAP	53	256	5
EXTAP	53	272	1
EXTAP	53	288	6
EXTAP	53	304	0
EXTAP	53	320	7
EXTAP	53	336	1
EXTAP	53	352	6
EXTAP	53	368	2
EXTAP	54	0	5
EXTAP	54	16	3
EXTAP	54	32	4
NMTTP	54	48	0	C	1	M1
NMTTP	54	48	2	B	0	M1
NMTTP	54	48	3	B	0	M1
NMTTP	54	48	4	B	0	M1
NMTTP	54	48	5	B	0	M1
NMHLD	55	240	3	4032
NMTTP	56	156	6	E	0	M1
NMTTP	56	216	5	B	0	M1
NMTTP	56	276	4	B	0	M1
NMTTP	57	60	4	B	0	M1
NMTTP	57	120	6	E	0	M1
NMTTP	57	216	6	E	0	M1
NMTTP	58	312	3	B	0	M1
NMTTP	58	372	2	B	0	M1
NMTTP	59	48	2	E	0	M1
NMTTP	59	240	2	E	0	M1
NMTTP	59	288	3	B	0	M1
NMTTP	59	336	2	B	0	M1
NMTTP	60	12	2	E	0	M1
NMTTP	60	120	3	B	0	M1
NMTTP	61	240	6	E	0	M1
NMTTP	61	300	6	B	0	M1
NMTTP	61	360	7	B	0	M1
NMTTP	62	168	6	E	0	M1
NMTTP	62	216	6	E	0	M1
NMTTP	62	264	7	B	0	M1
NMTTP	62	360	6	E	0	M1
NMTTP	64	60	0	B	0	M1
NMTTP	64	120	1	B	0	M1
NMTTP	64	180	2	E	0	M1
NMTTP	64	360	1	B	0	M1
NMTTP	65	24	2	E	0	M1
NMTTP	65	72	1	B	0	M1
NMTTP	65	120	2	E	0	M1
NMTTP	65	228	0	B	0	M1
NMSTR	66	324	3
BRSCL	66	324	3	96	192	1
NMSTR	66	324	4
BRSCR	66	324	4	96	192	6
NMTTP	67	240	1	D	0	M1
NMTTP	67	240	7	D	0	M1
NMTTP	67	246	1	E	0	M1
NMTTP	67	246	7	E	0	M1
NMTTP	67	252	0	B	0	M1
NMTTP	67	252	1	B	0	M1
NMTTP	67	252	6	B	0	M1
NMTTP	67	252	7	B	0	M1
NMTTP	67	258	0	C	1	M1
NMTTP	69	192	6	D	0	M1
NMTTP	69	240	6	E	0	M1
NMTTP	69	288	5	B	0	M1
NMTTP	69	288	6	B	0	M1
NMTTP	69	336	0	C	0	M1
NMTTP	70	0	1	B	0	M1
NMTTP	70	0	2	B	0	M1
NMTTP	70	48	2	E	0	M1
NMTTP	70	96	2	D	0	M1
NMHLD	70	144	5	72
NMTAP	70	216	4
NMTAP	70	240	5
NMTAP	70	288	4
NMHLD	70	336	6	72
NMTAP	71	24	4
NMTAP	71	48	6
NMTAP	71	96	4
NMHLD	71	144	7	72
NMTAP	71	216	4
NMSTR	71	240	7
NMSCL	71	240	7	96	48	4
NMSTR	71	288	4
NMSI_	71	288	4	96	48	0
NMHLD	72	48	2	72
NMTAP	72	120	3
NMTAP	72	144	2
NMTAP	72	192	3
NMHLD	72	240	1	72
NMTAP	72	312	3
NMTAP	72	336	1
NMTAP	73	0	3
NMHLD	73	48	0	72
NMTAP	73	120	3
NMSTR	73	144	0
NMSCR	73	144	0	96	48	3
NMSTR	73	192	3
NMSI_	73	192	3	96	48	7
BRSTR	73	336	5
NMSI_	73	336	5	96	48	2
BRTAP	74	48	5
BRTAP	74	48	6
NMHLD	74	144	1	72
NMTAP	74	216	3
NMTAP	74	240	1
NMTAP	74	288	2
NMTAP	74	288	3
NMHLD	74	336	6	72
NMTAP	75	24	4
NMSTR	75	48	6
NMSCR	75	48	6	96	48	1
NMTAP	75	96	4
NMTAP	75	96	5
NMSTR	75	240	3
NMSI_	75	240	3	96	48	0
NMSTR	75	288	7
NMSI_	75	288	7	96	48	4
NMTAP	75	336	3
NMTAP	76	0	7
NMSTR	76	48	1
NMSI_	76	48	1	96	48	6
NMSTR	76	96	5
NMSI_	76	96	5	96	48	2
NMTAP	76	144	1
NMTAP	76	192	5
NMTAP	76	240	0
NMSTR	76	288	0
NMSF_	76	288	0	96	36	4
BRTAP	77	0	0
NMTTP	77	18	0	C	0	M1
NMTTP	77	24	4	B	0	M1
NMTTP	77	30	4	E	0	M1
NMTTP	77	30	5	E	0	M1
EXTAP	77	144	0
EXTAP	77	144	7
NMTAP	77	192	2
NMTAP	77	216	3
NMTAP	77	240	1
NMTAP	77	288	5
NMTAP	77	312	4
NMHLD	77	336	6	72
NMTAP	78	24	7
NMSTR	78	48	7
NMSI_	78	48	7	96	48	3
NMTAP	78	96	0
NMSTR	78	144	1
NMSCL	78	144	1	96	48	6
NMTAP	78	240	5
NMTAP	78	288	5
NMSTR	78	336	4
NMSI_	78	336	4	96	48	7
NMSTR	78	336	7
NMSI_	78	336	7	96	48	2
NMTAP	79	48	4
NMTAP	79	48	7
NMTAP	79	144	0
NMTAP	79	144	1
NMTAP	79	192	5
NMTAP	79	216	4
NMTAP	79	240	6
NMTAP	79	288	2
NMTAP	79	312	3
NMHLD	79	336	1	72
NMTAP	80	24	0
NMTAP	80	48	0
NMTAP	80	96	7
NMHLD	80	144	6	72
NMSTR	80	216	1
NMSLR	80	216	1	96	72	7
NMSTR	80	240	5
NMSI_	80	240	5	96	48	7
EXTAP	81	48	1
EXTAP	81	48	5
NMTAP	81	96	6
NMTAP	81	120	7
NMTAP	81	144	5
NMTAP	81	192	1
NMTAP	81	216	0
NMSTR	81	240	2
NMSLL	81	240	2	96	96	4
NMTAP	81	312	5
NMTAP	81	336	5
NMTAP	82	0	6
NMTAP	82	48	7
NMTAP	82	120	0
NMTAP	82	120	4
NMSTR	82	144	0
NMSI_	82	144	0	96	48	5
NMSTR	82	144	4
NMSUR	82	144	4	96	48	1
EXTAP	82	336	2
EXTAP	82	336	6
NMTAP	83	0	1
NMTAP	83	24	0
NMTAP	83	48	2
NMTAP	83	96	6
NMTAP	83	120	7
NMHLD	83	144	5	72
NMTAP	83	216	4
NMTAP	83	240	4
NMTAP	83	288	3
NMSTR	83	336	2
NMSV_	83	336	2	96	72	4
NMSTR	83	336	4
NMSV_	83	336	4	96	72	2
NMSTR	84	48	2
NMSI_	84	48	2	96	48	7
NMSTR	84	48	4
NMSI_	84	48	4	96	48	7
EXTAP	84	240	1
EXTAP	84	240	5
BRSTR	84	336	3
NMSCL	84	336	3	96	210	7
NMSCR	84	336	3	96	210	7
CNSV_	85	258	7	0	135	1
CNSV_	85	258	7	0	135	5
CNSV_	86	9	1	0	135	3
CNSV_	86	9	5	0	135	3
BRSTR	86	336	3
NMSV_	86	336	3	96	168	2
NMSV_	86	336	3	96	168	4
CNSI_	87	216	2	0	120	0
CNSI_	87	216	4	0	120	6
CNSV_	87	336	0	0	192	7
CNSV_	87	336	6	0	192	7
NMTAP	88	240	1
NMTAP	88	264	0
NMTAP	88	288	1
NMTAP	88	336	6
NMTAP	88	360	7
NMTAP	89	0	6
NMTAP	89	48	2
NMTAP	89	72	0
NMTAP	89	96	2
NMTAP	89	144	5
NMTAP	89	168	7
NMTAP	89	192	5
NMTAP	89	240	1
NMTAP	89	264	3
NMTAP	89	288	1
NMTAP	89	336	6
NMTAP	89	360	4
NMTAP	90	0	6
BRTAP	90	48	3
EXTAP	90	144	3
NMTTP	90	144	3	E	0	M1
NMTTP	90	156	2	E	0	M1
NMTTP	90	168	1	E	0	M1
NMTTP	90	180	0	E	0	M1
NMTTP	90	192	7	E	0	M1
NMTTP	90	204	6	E	0	M1
NMTTP	90	216	5	E	0	M1
NMTTP	90	228	4	E	0	M1
BXTAP	90	240	3
EXTAP	90	336	3
NMTTP	90	336	4	D	0	M1
NMTTP	90	348	5	D	0	M1
NMTTP	90	360	6	D	0	M1
NMTTP	90	372	7	D	0	M1
NMTTP	91	0	0	D	0	M1
NMTTP	91	12	1	D	0	M1
NMTTP	91	24	2	D	0	M1
NMTTP	91	36	3	D	0	M1
BXSTR	91	48	3
BRSI_	91	48	3	96	36	5
BRSI_	91	48	3	96	36	6
BXSTR	91	144	3
BRSI_	91	144	3	96	36	0
BRSI_	91	144	3	96	36	1
BXSTR	91	240	3
BRSF_	91	240	3	96	36	7
BXTAP	91	336	3
EXTAP	92	48	1
EXTAP	92	48	5
NMTAP	92	144	2
NMTAP	92	168	3
NMTAP	92	192	2
NMTAP	92	216	3
NMTAP	92	240	1
NMTAP	92	264	4
NMTAP	92	288	1
NMTAP	92	312	4
NMTAP	92	336	7
NMTAP	92	360	6
NMTAP	93	0	1
NMTAP	93	24	4
NMTAP	93	48	7
NMTAP	93	72	6
NMTAP	93	96	1
NMTAP	93	120	4
NMTAP	93	144	0
NMTAP	93	168	5
NMTAP	93	192	0
NMTAP	93	216	5
NMTAP	93	240	1
NMTAP	93	264	4
NMTAP	93	288	1
NMHLD	93	312	4	48
NMTAP	93	360	3
NMTAP	94	0	2
NMTAP	94	24	1
BRTAP	94	48	0
NMTAP	94	96	2
NMTAP	94	96	6
NMTAP	94	144	5
NMTAP	94	168	4
NMTAP	94	192	5
NMTAP	94	216	4
NMTAP	94	240	6
NMTAP	94	264	3
NMTAP	94	288	6
NMTAP	94	312	3
NMTAP	94	336	0
NMTAP	94	360	1
NMTAP	95	0	6
NMTAP	95	24	3
NMTAP	95	48	0
NMTAP	95	72	1
NMTAP	95	96	6
NMTAP	95	120	3
NMTAP	95	144	0
NMTAP	95	168	2
NMTAP	95	192	0
NMTAP	95	216	2
NMTAP	95	264	6
NMTAP	95	288	4
NMTAP	95	312	6
EXTAP	95	336	5
EXTAP	95	368	5
EXTAP	96	16	5
BRSTR	96	48	6
NMSI_	96	48	6	96	48	2
NMTAP	96	120	7
NMSTR	96	144	7
NMSI_	96	144	7	96	48	3
NMSTR	96	240	0
NMSI_	96	240	0	96	48	4
NMTAP	96	312	1
NMSTR	96	336	1
NMSI_	96	336	1	96	48	5
NMHLD	97	48	2	72
NMSTR	97	120	1
NMSCL	97	120	1	96	60	6
NMSTR	97	144	2
NMSUL	97	144	2	96	36	5
BRSTR	97	336	1
NMSI_	97	336	1	96	48	5
NMTAP	98	24	0
NMSTR	98	48	0
NMSI_	98	48	0	96	48	4
NMSTR	98	144	7
NMSI_	98	144	7	96	48	3
NMTAP	98	216	6
NMSTR	98	240	6
NMSI_	98	240	6	96	48	2
NMHLD	98	336	5	72
NMTAP	99	24	6
NMTAP	99	48	5
NMTAP	99	96	4
NMTAP	99	144	2
NMTAP	99	144	6
NMTAP	99	192	1
NMTAP	99	192	7
BRTAP	99	240	0
NMTAP	99	264	0
NMTAP	99	288	0
BRTAP	99	312	0
NMTAP	99	336	0
NMTAP	99	360	0
BRTAP	100	0	0
NMTAP	100	24	0
NMTAP	100	48	0
NMTAP	100	72	0
EXTAP	100	96	1
EXTAP	100	108	2
EXTAP	100	120	3
BRTAP	100	144	0
NMTAP	100	168	0
NMTAP	100	192	0
BRTAP	100	216	0
NMTAP	100	240	0
NMTAP	100	264	0
BRTAP	100	288	0
NMTAP	100	312	0
NMTAP	100	336	0
NMTAP	100	360	0
EXTAP	101	0	7
EXTAP	101	12	6
EXTAP	101	24	5
NMTAP	101	48	1
NMTAP	101	72	7
NMTAP	101	96	1
NMTAP	101	120	7
NMTAP	101	144	2
NMTAP	101	168	6
NMTAP	101	192	3
NMTAP	101	216	5
NMTAP	101	240	4
NMTAP	101	264	6
NMTAP	101	288	3
NMTAP	101	312	7
NMTAP	101	336	2
NMTAP	101	360	0
NMTAP	102	0	1
NMTAP	102	24	7
EXTAP	102	48	1
NMTAP	102	60	2
NMTAP	102	72	3
NMTAP	102	84	4
NMTAP	102	96	5
NMTAP	102	108	6
NMTAP	102	120	7
NMTAP	102	132	0
NMTAP	102	144	1
NMTAP	102	156	2
NMTAP	102	168	3
NMTAP	102	180	4
NMTAP	102	192	5
NMTAP	102	204	6
NMTAP	102	216	7
NMTAP	102	228	0
BRTAP	102	240	1
BRTAP	102	240	5
NMTTP	103	336	1	E	0	M1
NMTTP	103	336	7	E	0	M1
NMTTP	103	344	1	B	0	M1
NMTTP	103	344	6	B	0	M1
NMTTP	103	352	2	B	0	M1
NMTTP	103	352	5	B	0	M1
NMTTP	103	360	3	E	0	M1
NMTTP	103	360	5	E	0	M1

T_REC_TAP	428
T_REC_BRK	27
T_REC_XTP	71
T_REC_BXX	3
T_REC_HLD	75
T_REC_XHO	10
T_REC_BHO	1
T_REC_BXH	0
T_REC_STR	70
T_REC_BST	5
T_REC_XST	2
T_REC_XBS	3
T_REC_TTP	110
T_REC_THO	0
T_REC_SLD	80
T_REC_BSL	7
T_REC_ALL	892
T_NUM_TAP	681
T_NUM_BRK	46
T_NUM_HLD	85
T_NUM_SLD	80
T_NUM_ALL	892
T_JUDGE_TAP	719
T_JUDGE_HLD	214
T_JUDGE_SLD	87
T_JUDGE_ALL	1020
TTM_EACHPAIRS	64
TTM_SCR_TAP	340500
TTM_SCR_BRK	119600
TTM_SCR_HLD	85000
TTM_SCR_SLD	120000
TTM_SCR_ALL	665100
TTM_SCR_S	640700
TTM_SCR_SS	660500
TTM_RAT_ACV	10069

