VERSION	0.00.00	1.04.00
FES_MODE	0
BPM_DEF	186.000	186.000	186.000	186.000
MET_DEF	4	4
RESOLUTION	384
CLK_DEF	384
COMPATIBLE_CODE	MA2

BPM	0	0	186.000
MET	0	0	4	4
MET	6	0	4	2
MET	6	192	4	4
MET	9	192	4	3
MET	10	96	4	4
MET	11	96	4	3
MET	12	0	4	4
MET	17	0	4	3
MET	17	288	4	4
MET	18	288	4	3
MET	19	192	4	4
MET	21	192	4	6
MET	27	192	8	11
MET	31	240	4	4
MET	33	240	4	3
MET	38	48	4	4
MET	41	48	4	3
MET	41	336	4	4
MET	42	336	4	3
MET	43	240	4	4
MET	44	240	4	3
MET	45	144	4	5
MET	46	240	4	4
MET	48	240	4	3
MET	49	144	4	4
MET	50	144	4	3
MET	51	48	4	4
MET	52	48	4	3
MET	52	336	4	5
MET	54	48	4	3
MET	57	336	4	2
MET	58	144	4	3
MET	60	240	4	2
MET	61	48	4	3
MET	63	144	4	2
MET	63	336	4	3
MET	67	240	4	7
MET	69	144	4	4
MET	71	144	4	3
MET	72	48	4	4
MET	73	48	4	3
MET	73	336	4	4
MET	74	336	4	3
MET	75	240	4	4
MET	76	240	4	3
MET	77	144	4	4
MET	80	144	4	3
MET	81	48	4	4
MET	82	48	4	3
MET	82	336	4	4
MET	87	336	4	3
MET	88	240	4	4
MET	89	240	4	3
MET	90	144	4	4
MET	95	144	4	3
MET	96	48	4	4
MET	97	48	4	3
MET	97	336	4	4
MET	98	336	4	3
MET	102	240	4	5
MET	103	336	4	4

NMTAP	2	0	6
NMTAP	2	48	6
NMTAP	2	96	4
NMTAP	2	144	5
NMTAP	2	192	0
NMTAP	2	240	7
NMTAP	2	288	1
NMTAP	2	336	1
NMTAP	3	0	0
NMTAP	3	48	2
NMTAP	3	96	4
NMTAP	3	144	3
NMTAP	3	192	5
NMTAP	3	240	2
NMTAP	3	288	4
NMTAP	3	336	3
NMTAP	4	0	5
NMTAP	4	48	5
NMTAP	4	96	4
NMTAP	4	144	6
NMTAP	4	192	2
NMTAP	4	240	2
NMTAP	4	288	3
NMTAP	4	336	1
NMTAP	5	0	4
NMTAP	5	48	4
NMTAP	5	96	3
NMTAP	5	144	3
NMTAP	5	192	3
NMTAP	5	192	4
NMTAP	5	240	3
NMTAP	5	240	4
NMTAP	5	288	2
NMTAP	5	288	5
NMTAP	5	336	2
NMTAP	5	336	5
NMTAP	6	0	1
NMTAP	6	0	6
NMTAP	6	48	1
NMTAP	6	48	6
NMTAP	6	96	0
NMTAP	6	96	7
NMTAP	6	144	0
NMTAP	6	144	7
BRTAP	6	192	1
BRTAP	6	192	6
NMTAP	7	0	1
NMTAP	7	0	6
NMTTP	7	192	0	B	0	M1
NMTTP	7	192	0	E	0	M1
NMTTP	7	192	1	B	0	M1
NMTTP	7	192	6	B	0	M1
NMTTP	7	192	7	B	0	M1
NMTTP	8	0	0	B	0	M1
NMTTP	8	0	0	E	0	M1
NMTTP	8	0	1	B	0	M1
NMTTP	8	0	6	B	0	M1
NMTTP	8	0	7	B	0	M1
NMTTP	8	192	1	A	0	M1
NMTTP	8	192	2	B	0	M1
NMTTP	8	192	2	E	0	M1
NMTTP	8	192	5	A	0	M1
NMTTP	8	192	6	B	0	M1
NMTTP	8	192	6	E	0	M1
NMTTP	9	0	1	A	0	M1
NMTTP	9	0	2	B	0	M1
NMTTP	9	0	2	E	0	M1
NMTTP	9	0	5	A	0	M1
NMTTP	9	0	6	B	0	M1
NMTTP	9	0	6	E	0	M1
NMTAP	9	192	3
NMTAP	9	192	4
NMTAP	9	288	3
NMTAP	9	288	4
NMTAP	10	0	3
NMTAP	10	0	4
NMHLD	10	96	2	96
NMHLD	10	96	4	96
NMHLD	10	288	1	96
NMHLD	10	288	7	96
NMHLD	11	96	3	96
NMHLD	11	96	4	192
NMTTP	12	0	0	C	0	M1
NMTTP	12	0	3	B	0	M1
NMTTP	12	0	5	B	0	M1
NMTTP	12	192	1	B	0	M1
NMTTP	12	192	1	A	0	M1
NMTTP	12	192	6	B	0	M1
NMTTP	12	192	6	A	0	M1
NMTTP	13	0	0	B	0	M1
NMTTP	13	0	0	C	0	M1
NMTTP	13	0	4	B	0	M1
NMTAP	13	192	1
NMTAP	13	192	7
BRTAP	13	288	2
BRTAP	13	288	6
NMTAP	14	0	3
NMTAP	14	0	4
NMTAP	14	96	6
NMTAP	14	96	7
NMTAP	14	192	3
NMTAP	14	192	4
NMTAP	14	288	0
NMTAP	14	288	1
NMTAP	15	0	3
NMTAP	15	0	4
NMTAP	15	96	4
NMTAP	15	96	6
EXTAP	15	192	3
EXTAP	15	192	4
EXTAP	15	288	1
EXTAP	15	288	3
NMTAP	16	0	0
NMTAP	16	96	4
NMTAP	16	96	6
NMTAP	16	192	7
NMTAP	16	288	1
NMTAP	16	288	3
NMTAP	17	0	3
NMTAP	17	0	4
NMHLD	17	96	4	192
NMHLD	17	96	6	96
NMTAP	17	288	5
NMTAP	18	0	0
NMTAP	18	0	1
NMTAP	18	96	2
NMTAP	18	96	3
NMTAP	18	192	6
NMTAP	18	192	7
NMTAP	18	288	4
NMTAP	18	288	5
NMTAP	19	0	0
NMTAP	19	0	1
NMTAP	19	96	2
NMTAP	19	96	7
NMTAP	19	192	4
NMTAP	19	192	5
NMTAP	19	288	2
NMTAP	19	288	3
NMTAP	20	0	0
NMTAP	20	0	1
NMTAP	20	96	6
NMTAP	20	96	7
NMTAP	20	192	0
NMTAP	20	192	5
NMTAP	20	288	2
NMTAP	20	288	3
NMTAP	21	0	4
NMTAP	21	0	5
EXTAP	21	96	1
EXTAP	21	96	6
NMTAP	21	192	5
NMTAP	21	240	5
NMHLD	21	288	5	288
NMTAP	22	0	3
NMTAP	22	96	4
NMTAP	22	192	4
NMTAP	22	288	3
NMTAP	22	288	4
NMTAP	23	0	2
NMTAP	23	48	2
NMHLD	23	96	2	288
NMTAP	23	192	3
NMTAP	23	288	3
NMTAP	24	0	3
NMTAP	24	96	1
NMTAP	24	96	4
NMTAP	24	192	5
NMTAP	24	240	5
NMHLD	24	288	5	288
NMTAP	25	0	3
NMTAP	25	96	4
NMTAP	25	192	3
NMTAP	25	288	3
NMTAP	25	288	5
NMTAP	26	0	1
NMTAP	26	48	1
NMHLD	26	96	1	288
NMTAP	26	192	3
NMTAP	26	288	3
NMTAP	27	0	2
NMTAP	27	96	2
NMTAP	27	96	3
NMTAP	27	192	4
NMHLD	27	192	5	96
NMHLD	27	288	7	96
NMHLD	28	0	6	96
NMTAP	28	96	4
EXTAP	28	192	3
EXTAP	28	240	3
EXTAP	28	288	4
NMHLD	28	336	2	96
NMHLD	29	48	0	96
NMHLD	29	144	1	96
NMTAP	29	240	3
EXTAP	29	336	4
EXTAP	30	0	4
EXTAP	30	48	3
NMHLD	30	96	6	96
NMHLD	30	192	4	96
NMHLD	30	288	5	96
NMTAP	31	0	7
EXTAP	31	96	0
EXTAP	31	144	0
EXTAP	31	192	7
NMHLD	31	240	1	96
NMHLD	31	336	3	96
NMHLD	32	48	4	96
NMHLD	32	144	6	96
NMHLD	32	240	4	96
NMTAP	32	336	3
EXTAP	33	48	2
EXTAP	33	48	5
EXTAP	33	96	2
EXTAP	33	96	5
EXTAP	33	144	2
EXTAP	33	144	5
NMTTP	33	240	3	E	0	M1
NMTTP	33	336	2	E	0	M1
NMTTP	34	48	0	B	0	M1
NMTTP	34	48	1	E	0	M1
NMTTP	34	144	7	E	0	M1
NMTTP	34	240	6	E	0	M1
NMTTP	34	336	4	B	0	M1
NMTTP	34	336	5	E	0	M1
NMTTP	35	48	3	E	0	M1
NMTTP	35	144	2	E	0	M1
NMTTP	35	240	0	A	0	M1
NMTTP	35	240	1	D	0	M1
EXTAP	35	336	7
EXTAP	36	48	7
EXTAP	36	144	1
NMSTR	36	144	6
NMSCR	36	144	6	96	432	1
EXTAP	38	48	2
EXTAP	38	96	2
EXTAP	38	96	3
NMTAP	38	240	6
NMTAP	38	288	4
NMTAP	38	288	6
NMTAP	39	48	2
NMTAP	39	48	3
NMHLD	39	96	2	144
NMTAP	39	96	3
NMTAP	39	240	3
NMTAP	39	336	1
NMTAP	39	336	4
NMTAP	40	48	6
NMTAP	40	96	4
NMTAP	40	96	6
NMTAP	40	240	1
NMTAP	40	288	1
NMTAP	40	288	3
NMHLD	41	48	4	96
NMTAP	41	144	3
NMTAP	41	240	2
NMTAP	41	240	5
NMTAP	41	336	1
NMTAP	42	0	0
NMTAP	42	0	1
NMTAP	42	144	6
NMTAP	42	192	6
NMTAP	42	192	7
NMTAP	42	336	4
NMTAP	42	336	5
NMTAP	43	48	3
NMTAP	43	48	6
NMTAP	43	144	2
NMTAP	43	144	7
NMTAP	43	240	0
NMTAP	43	240	5
NMTAP	43	288	0
NMTAP	43	288	5
NMTAP	44	48	2
NMTAP	44	48	7
NMTAP	44	96	2
NMTAP	44	96	7
NMTAP	44	240	4
NMTAP	44	240	5
NMTAP	44	336	2
NMTAP	44	336	3
NMTAP	45	48	3
NMTAP	45	48	4
NMTAP	45	144	2
NMTAP	45	208	2
NMTAP	45	240	3
NMTAP	45	304	3
NMTAP	45	336	1
NMTAP	46	16	1
NMTAP	46	48	7
NMTAP	46	112	7
NMTAP	46	144	4
NMTAP	46	208	4
NMSTR	46	240	6
NMSI_	46	240	6	96	48	2
NMSTR	46	336	0
NMSI_	46	336	0	96	48	4
NMTAP	47	48	5
NMTAP	47	144	3
NMTAP	47	144	6
NMTAP	47	240	5
NMTAP	47	304	5
NMTAP	47	336	4
NMTAP	48	16	4
NMTAP	48	48	6
NMTAP	48	112	6
NMTAP	48	144	1
NMTAP	48	208	1
NMTAP	48	240	3
NMTAP	48	304	3
NMHLD	48	336	1	96
BRTAP	49	48	7
NMTAP	49	144	5
NMTAP	49	208	5
NMTAP	49	240	4
NMTAP	49	304	4
NMTAP	49	336	6
NMTAP	50	16	6
NMTAP	50	48	0
NMTAP	50	112	0
NMTAP	50	144	3
NMTAP	50	208	3
NMSTR	50	240	1
NMSI_	50	240	1	96	48	5
NMSTR	50	336	7
NMSI_	50	336	7	96	48	3
NMTAP	51	48	2
NMTAP	51	144	1
NMTAP	51	144	4
NMTAP	51	208	2
NMTAP	51	240	3
NMTAP	51	304	5
NMTAP	51	336	4
NMTAP	52	16	7
NMTAP	52	48	0
NMTAP	52	80	7
NMTAP	52	112	0
NMTAP	52	144	7
NMTAP	52	176	0
NMTAP	52	208	7
BXHLD	52	240	0	96
NMTTP	52	336	7	E	0	M1
NMTTP	52	360	6	E	0	M1
NMTTP	53	0	5	E	0	M1
NMTTP	53	24	4	E	0	M1
NMTTP	53	48	3	E	0	M1
NMTTP	53	72	2	E	0	M1
NMTTP	53	96	1	E	0	M1
NMTTP	53	120	0	E	0	M1
NMTTP	53	144	7	E	0	M1
NMTTP	53	168	6	E	0	M1
NMTTP	53	192	5	E	0	M1
NMTTP	53	216	4	E	0	M1
NMTTP	53	240	3	E	0	M1
NMTTP	53	264	2	E	0	M1
NMTTP	53	288	1	E	0	M1
NMTTP	53	312	0	E	0	M1
NMTTP	53	336	7	E	0	M1
NMTTP	53	360	6	E	0	M1
NMTTP	54	0	5	E	0	M1
NMTTP	54	24	4	E	0	M1
NMTTP	54	48	0	C	1	M1
NMSTR	55	240	0
NMSLL	55	240	0	96	672	4
NMSLR	55	240	0	96	672	4
NMSTR	58	144	7
NMSV_	58	144	7	96	312	1
NMSV_	58	144	7	96	312	5
CNSV_	59	168	1	0	336	3
CNSV_	59	168	5	0	336	3
NMSTR	61	240	1
NMSCR	61	240	1	96	96	2
NMSTR	61	240	5
NMSCR	61	240	5	96	96	6
CNSI_	62	48	2	0	312	5
CNSI_	62	48	6	0	312	1
NMTTP	64	48	0	E	0	M1
NMTTP	64	48	0	D	0	M1
NMTTP	64	336	0	C	0	M1
NMTTP	65	216	4	E	0	M1
NMTTP	65	216	4	D	0	M1
NMTAP	66	336	1
NMTAP	66	336	6
NMTTP	67	240	0	C	1	M1
NMTTP	67	240	1	B	0	M1
NMTTP	67	240	6	B	0	M1
NMTAP	69	192	7
NMTAP	69	240	7
NMTAP	69	288	0
NMTAP	69	336	0
NMTAP	70	0	7
NMTAP	70	48	7
NMTAP	70	96	1
NMHLD	70	144	1	288
NMTAP	70	240	0
NMTAP	70	336	3
NMHLD	71	48	5	192
NMTAP	71	144	4
BRTAP	71	240	6
NMTAP	71	336	1
NMTAP	71	336	7
NMTAP	72	48	2
NMHLD	72	48	5	288
NMTAP	72	144	4
NMTAP	72	240	6
NMHLD	72	336	0	192
NMTAP	73	48	2
NMTAP	73	144	4
NMTAP	73	240	1
NMTAP	73	240	5
NMTAP	73	336	2
NMHLD	73	336	4	96
NMTAP	74	48	5
NMHLD	74	144	3	96
NMTAP	74	144	6
NMTAP	74	240	2
NMTAP	74	336	1
NMHLD	74	336	5	96
NMTAP	75	48	4
NMHLD	75	144	3	96
NMTAP	75	144	4
NMHLD	75	240	2	96
NMHLD	75	336	1	96
NMHLD	76	48	0	96
NMTAP	76	144	7
BXHLD	76	240	0	96
NMSTR	76	240	6
NMSCL	76	240	6	96	120	2
NMTAP	77	144	1
NMTAP	77	144	4
NMTAP	77	240	0
NMTAP	77	288	7
NMSTR	77	336	6
NMSI_	77	336	6	96	48	2
NMSTR	78	48	1
NMSI_	78	48	1	96	48	3
NMSTR	78	144	5
NMSI_	78	144	5	96	48	7
NMSTR	78	240	0
NMSI_	78	240	0	96	48	4
NMTAP	78	336	4
NMSTR	79	48	2
NMSI_	79	48	2	96	48	7
NMSTR	79	48	6
NMSI_	79	48	6	96	48	3
NMSTR	79	240	1
NMSI_	79	240	1	96	48	4
NMSTR	79	240	5
NMSI_	79	240	5	96	48	0
NMSTR	80	48	2
NMSI_	80	48	2	96	48	7
NMSTR	80	48	6
NMSI_	80	48	6	96	48	3
NMTTP	80	240	0	C	0	M1
NMTTP	80	336	1	E	0	M1
NMTTP	80	336	1	D	0	M1
NMTTP	80	336	5	E	0	M1
NMTTP	80	336	5	D	0	M1
NMTAP	81	48	3
NMTAP	81	48	6
NMTAP	81	144	7
NMTAP	81	192	0
NMSTR	81	240	1
NMSI_	81	240	1	96	48	5
NMSTR	81	336	6
NMSI_	81	336	6	96	48	4
NMSTR	82	48	0
NMSI_	82	48	0	96	48	2
NMSTR	82	144	3
NMSI_	82	144	3	96	48	7
NMTAP	82	240	0
NMHLD	82	336	4	48
NMHLD	82	336	6	48
NMHLD	83	48	3	48
NMHLD	83	48	4	48
NMHLD	83	144	1	48
NMHLD	83	144	3	48
NMHLD	83	240	3	48
NMHLD	83	240	4	48
NMSTR	83	336	4
NMSI_	83	336	4	96	48	7
NMSTR	84	48	3
NMSI_	84	48	3	96	48	0
EXTAP	84	144	7
BRTAP	84	240	1
BRTAP	84	240	6
EXTAP	84	336	2
NMTAP	84	360	3
NMTAP	85	0	2
NMTAP	85	24	3
NMTAP	85	144	5
NMTAP	85	168	4
NMTAP	85	192	5
NMTAP	85	216	4
NMTAP	85	336	2
NMTAP	85	360	3
NMTAP	86	0	2
NMTAP	86	24	3
NMTAP	86	144	4
NMTAP	86	168	3
NMTAP	86	192	4
NMTAP	86	216	3
NMTAP	86	336	6
NMTAP	86	360	7
NMTAP	87	0	6
NMTAP	87	24	7
NMTAP	87	144	1
NMTAP	87	168	0
NMTAP	87	192	1
NMTAP	87	216	0
NMTAP	87	336	7
NMTAP	87	360	0
NMTAP	88	0	7
NMTAP	88	24	0
NMTAP	88	144	2
NMTAP	88	144	5
NMHLD	88	240	4	96
NMHLD	88	336	5	96
NMHLD	89	48	6	96
NMHLD	89	144	7	96
NMHLD	89	240	0	96
NMHLD	89	336	1	96
NMTAP	90	48	2
NMTAP	90	144	1
NMTAP	90	144	3
NMTAP	90	240	3
NMTAP	90	240	4
NMTAP	90	336	4
NMTAP	90	336	6
NMTAP	91	48	0
NMTAP	91	48	7
NMTAP	91	144	1
NMTAP	91	144	3
NMTAP	91	240	4
NMTAP	91	240	6
NMTAP	91	336	3
NMTAP	91	336	4
BRTAP	92	48	0
BRTAP	92	48	7
NMTAP	92	144	1
NMTAP	92	144	6
NMTAP	92	192	2
NMTAP	92	216	3
NMTAP	92	240	2
NMTAP	92	288	5
NMTAP	92	312	4
NMTAP	92	336	5
NMTAP	93	0	2
NMTAP	93	24	3
NMTAP	93	48	1
NMTAP	93	96	5
NMTAP	93	120	4
NMTAP	93	144	6
NMTAP	93	192	1
NMTAP	93	216	0
NMTAP	93	240	1
NMTAP	93	288	6
NMTAP	93	312	7
NMTAP	93	336	6
NMTAP	94	0	0
NMTAP	94	0	5
NMTAP	94	48	0
NMTAP	94	48	5
NMTAP	94	144	2
NMTAP	94	144	3
NMTAP	94	192	5
NMTAP	94	216	4
NMTAP	94	240	6
NMTAP	94	288	2
NMTAP	94	312	3
NMTAP	94	336	1
NMTAP	95	0	6
NMTAP	95	24	7
NMTAP	95	48	6
NMTAP	95	96	1
NMTAP	95	120	0
NMTAP	95	144	1
NMTAP	95	192	6
NMTAP	95	216	7
NMTAP	95	240	6
NMTAP	95	288	0
NMTAP	95	288	5
NMTAP	95	336	0
NMTAP	95	336	5
NMHLD	96	48	1	48
NMHLD	96	48	3	48
NMHLD	96	144	0	48
NMHLD	96	144	7	48
NMHLD	96	240	4	48
NMHLD	96	240	6	48
NMHLD	96	336	0	48
NMHLD	96	336	7	48
NMHLD	97	48	2	48
NMHLD	97	48	3	48
NMHLD	97	144	4	48
NMHLD	97	144	5	48
NMTAP	97	240	2
NMTAP	97	240	6
NMHLD	97	336	4	48
NMHLD	97	336	5	48
NMHLD	98	48	1	48
NMHLD	98	48	7	48
NMHLD	98	144	2	48
NMHLD	98	144	3	48
NMHLD	98	240	0	48
NMHLD	98	240	6	48
NMTAP	98	336	4
NMTAP	98	336	5
NMTAP	99	48	2
NMTAP	99	96	2
NMTAP	99	144	5
NMTAP	99	192	5
NMTAP	99	240	3
NMTAP	99	264	4
NMTAP	99	288	3
NMTAP	99	312	4
NMTAP	99	336	3
NMTAP	99	360	4
NMTAP	100	0	3
NMTAP	100	24	4
NMTAP	100	48	3
NMTAP	100	72	4
NMTAP	100	96	3
NMTAP	100	120	4
NMTAP	100	144	3
NMTAP	100	168	4
NMTAP	100	192	3
NMTAP	100	216	4
NMTAP	100	240	3
NMTAP	100	264	4
NMTAP	100	288	3
NMTAP	100	312	4
NMTAP	100	336	3
NMTAP	100	360	4
NMTAP	101	0	3
NMTAP	101	24	4
NMTAP	101	48	2
NMTAP	101	72	5
NMTAP	101	96	2
NMTAP	101	120	5
NMTAP	101	144	1
NMTAP	101	168	6
NMTAP	101	192	1
NMTAP	101	216	6
NMTAP	101	240	0
NMTAP	101	264	7
NMTAP	101	288	0
NMTAP	101	312	7
NMTAP	101	336	0
NMTAP	101	360	7
NMTAP	102	0	0
NMTAP	102	24	7
NMTAP	102	48	0
NMTAP	102	72	7
NMTAP	102	96	0
NMTAP	102	120	7
NMTAP	102	144	0
NMTAP	102	168	7
NMTAP	102	192	0
NMTAP	102	216	7
BRTAP	102	240	1
BXTAP	102	240	6
NMTTP	103	336	3	E	0	M1
NMTTP	103	336	4	E	0	M1
NMTTP	103	336	5	E	0	M1

T_REC_TAP	409
T_REC_BRK	11
T_REC_XTP	29
T_REC_BXX	1
T_REC_HLD	74
T_REC_XHO	0
T_REC_BHO	0
T_REC_BXH	2
T_REC_STR	26
T_REC_BST	0
T_REC_XST	0
T_REC_XBS	0
T_REC_TTP	81
T_REC_THO	0
T_REC_SLD	28
T_REC_BSL	0
T_REC_ALL	661
T_NUM_TAP	545
T_NUM_BRK	14
T_NUM_HLD	74
T_NUM_SLD	28
T_NUM_ALL	661
T_JUDGE_TAP	557
T_JUDGE_HLD	157
T_JUDGE_SLD	28
T_JUDGE_ALL	742
TTM_EACHPAIRS	123
TTM_SCR_TAP	272500
TTM_SCR_BRK	36400
TTM_SCR_HLD	74000
TTM_SCR_SLD	42000
TTM_SCR_ALL	424900
TTM_SCR_S	410800
TTM_SCR_SS	423500
TTM_RAT_ACV	10033

