VERSION	0.00.00	1.04.00
FES_MODE	0
BPM_DEF	186.000	186.000	186.000	186.000
MET_DEF	4	4
RESOLUTION	384
CLK_DEF	384
COMPATIBLE_CODE	MA2

BPM	0	0	186.000
MET	0	0	4	4
MET	6	0	4	2
MET	6	192	4	4
MET	9	192	4	3
MET	10	96	4	4
MET	11	96	4	3
MET	12	0	4	4
MET	17	0	4	3
MET	17	288	4	4
MET	18	288	4	3
MET	19	192	4	4
MET	21	192	4	6
MET	27	192	8	11
MET	31	240	4	4
MET	33	240	4	3
MET	38	48	4	4
MET	41	48	4	3
MET	41	336	4	4
MET	42	336	4	3
MET	43	240	4	4
MET	44	240	4	3
MET	45	144	4	5
MET	46	240	4	4
MET	48	240	4	3
MET	49	144	4	4
MET	50	144	4	3
MET	51	48	4	4
MET	52	48	4	3
MET	52	336	4	5
MET	54	48	4	3
MET	57	336	4	2
MET	58	144	4	3
MET	60	240	4	2
MET	61	48	4	3
MET	63	144	4	2
MET	63	336	4	3
MET	67	240	4	7
MET	69	144	4	4
MET	71	144	4	3
MET	72	48	4	4
MET	73	48	4	3
MET	73	336	4	4
MET	74	336	4	3
MET	75	240	4	4
MET	76	240	4	3
MET	77	144	4	4
MET	80	144	4	3
MET	81	48	4	4
MET	82	48	4	3
MET	82	336	4	4
MET	87	336	4	3
MET	88	240	4	4
MET	89	240	4	3
MET	90	144	4	4
MET	95	144	4	3
MET	96	48	4	4
MET	97	48	4	3
MET	97	336	4	4
MET	98	336	4	3
MET	102	240	4	5
MET	103	336	4	4

NMTAP	2	0	2
NMTAP	2	96	2
NMTAP	2	192	2
NMTAP	2	192	3
NMTAP	2	288	2
NMTAP	2	288	3
NMTAP	3	0	5
NMTAP	3	96	5
NMTAP	3	192	4
NMTAP	3	192	5
NMTAP	3	288	4
NMTAP	3	288	5
NMTAP	4	0	3
NMTAP	4	96	3
NMTAP	4	192	3
NMTAP	4	192	4
NMTAP	4	288	3
NMTAP	4	288	4
NMTAP	5	0	2
NMTAP	5	96	1
NMTAP	5	192	0
NMTAP	5	288	0
NMTAP	6	0	7
NMTAP	6	96	7
NMHLD	6	192	6	192
NMHLD	7	0	5	192
NMHLD	7	192	4	192
NMTAP	8	0	3
NMHLD	8	192	1	192
NMHLD	9	0	2	192
NMTAP	9	192	3
EXHLD	10	96	5	192
NMHLD	10	288	6	192
NMTAP	11	96	7
EXHLD	12	0	0	192
NMHLD	12	192	7	192
NMTAP	13	0	0
NMTAP	13	96	0
NMTAP	13	192	0
NMTAP	13	192	7
NMTAP	14	0	1
NMTAP	14	96	1
NMTAP	14	192	0
NMTAP	14	192	1
NMTAP	15	0	6
NMTAP	15	96	6
NMTAP	15	192	6
NMTAP	15	192	7
NMTAP	16	0	0
NMTAP	16	96	0
NMTAP	16	192	1
NMTAP	16	288	2
EXTAP	17	0	3
EXTAP	17	0	4
EXTAP	17	288	5
NMTAP	18	0	6
NMTAP	18	96	7
NMTAP	18	192	7
NMTAP	18	288	0
NMTAP	19	0	0
NMTAP	19	96	0
NMTAP	19	96	7
NMTAP	19	192	1
NMTAP	19	288	1
NMTAP	20	0	2
NMTAP	20	96	3
NMTAP	20	192	4
NMTAP	20	288	4
EXTAP	21	0	3
EXTAP	21	0	4
NMTAP	21	192	2
NMTAP	21	288	2
NMTAP	22	0	2
NMTAP	22	0	3
NMTAP	22	192	5
NMTAP	22	288	5
NMTAP	23	0	4
NMTAP	23	0	5
NMTAP	23	192	6
NMTAP	23	288	6
NMTAP	24	0	6
NMTAP	24	0	7
NMTAP	24	192	1
NMTAP	24	288	1
NMTAP	25	0	0
NMTAP	25	0	1
NMTAP	25	192	7
NMTAP	25	288	7
NMTAP	26	0	0
NMTAP	26	96	0
EXTAP	26	192	1
EXTAP	26	192	6
EXTAP	26	288	2
EXTAP	26	288	5
EXTAP	27	0	3
EXTAP	27	0	4
NMSTR	27	192	3
NMSI_	27	192	3	96	288	7
NMSTR	28	336	6
NMSCL	28	336	6	96	336	3
NMSTR	30	96	2
NMSCL	30	96	2	96	336	7
NMSTR	31	240	6
NMSI_	31	240	6	96	288	2
NMTAP	33	48	1
EXHLD	33	240	2	192
EXHLD	33	240	3	192
EXHLD	34	144	3	192
EXHLD	34	144	4	192
EXHLD	35	48	4	192
EXHLD	35	48	5	192
EXTAP	35	336	4
EXTAP	35	336	5
EXTAP	36	48	4
EXTAP	36	48	5
EXSTR	36	144	6
NMSCL	36	144	6	96	432	2
NMTTP	38	48	2	E	0	L1
NMTTP	38	144	2	B	0	L1
NMTTP	38	240	3	B	0	L1
NMTTP	39	48	6	E	0	L1
NMTTP	39	144	5	B	0	L1
NMTTP	39	240	4	B	0	L1
NMTTP	40	48	1	B	0	L1
NMTTP	40	144	2	B	0	L1
NMTTP	40	240	3	B	0	L1
NMTTP	40	336	4	B	0	L1
NMTTP	41	48	5	B	0	L1
NMTTP	41	48	5	E	0	L1
NMTTP	41	336	7	E	0	L1
NMTTP	42	48	0	C	0	L1
NMTTP	42	144	3	E	0	L1
NMTTP	42	240	2	E	0	L1
NMTTP	42	336	1	E	0	L1
NMTTP	43	48	0	C	0	L1
NMTTP	43	144	5	E	0	L1
NMTTP	43	240	6	B	0	L1
NMTTP	43	240	6	E	0	L1
NMTTP	44	48	1	B	0	L1
NMTTP	44	48	2	E	0	L1
NMTTP	44	240	0	C	1	L1
EXTAP	45	144	0
EXTAP	45	144	7
NMTAP	45	240	1
NMTAP	45	336	1
NMTAP	46	48	0
NMTAP	46	48	1
NMTAP	46	144	0
NMTAP	46	144	1
NMTAP	46	240	6
NMTAP	46	336	6
NMTAP	47	48	6
NMTAP	47	48	7
NMTAP	47	240	5
NMTAP	47	336	5
NMTAP	48	48	4
NMTAP	48	48	5
NMTAP	48	144	4
NMTAP	48	144	5
NMTAP	48	240	3
NMTAP	48	336	2
BXTAP	49	48	2
BXTAP	49	48	3
NMTAP	49	144	1
NMTAP	49	240	0
NMTAP	49	240	1
NMTAP	49	336	6
NMTAP	50	48	6
NMTAP	50	48	7
NMTAP	50	144	5
NMTAP	50	240	4
NMTAP	50	240	5
NMTAP	50	336	3
NMTAP	51	48	2
NMTAP	51	144	2
NMTAP	51	144	3
NMTAP	51	240	5
NMTAP	51	336	4
NMTAP	51	336	5
NMTAP	52	48	3
NMTAP	52	144	3
NMTAP	52	144	4
NMSTR	52	240	2
BRSI_	52	240	2	96	480	6
NMSTR	52	240	5
BRSI_	52	240	5	96	480	1
NMTHO	55	240	0	576	C	0	L1
EXHLD	58	144	0	720
EXHLD	58	144	1	720
EXHLD	61	240	6	480
EXHLD	61	240	7	480
EXHLD	64	72	0	528
EXHLD	64	72	7	528
NMTHO	66	336	0	288	C	1	L1
NMTTP	67	240	1	B	0	L1
NMTTP	67	240	6	B	0	L1
NMTAP	70	144	0
NMTAP	70	144	7
NMTAP	70	240	1
NMTAP	70	336	2
NMTAP	71	48	2
NMTAP	71	144	3
NMTAP	71	240	4
NMTAP	71	336	5
NMTAP	72	48	6
NMTAP	72	144	6
NMTAP	72	240	5
NMTAP	72	336	4
NMTAP	73	48	3
NMTAP	73	144	3
NMTAP	73	144	4
NMTAP	73	240	2
NMTAP	73	336	1
NMTAP	74	48	1
NMTAP	74	144	0
NMTAP	74	240	7
NMTAP	74	336	6
NMTAP	75	48	6
NMTAP	75	144	6
NMTAP	75	144	7
NMTAP	75	240	0
NMTAP	75	336	0
NMTAP	76	48	7
NMTAP	76	144	7
NMTAP	76	240	1
NMTAP	76	240	6
EXTAP	76	336	2
EXTAP	76	336	5
NMTAP	77	144	2
NMTAP	77	240	2
NMTAP	77	240	3
NMTAP	77	336	5
NMTAP	78	48	4
NMTAP	78	48	5
NMTAP	78	144	3
NMTAP	78	240	3
NMTAP	78	240	4
NMTAP	78	336	2
NMTAP	78	336	5
NMTAP	79	48	2
NMTAP	79	48	5
NMTAP	79	144	6
NMTAP	79	240	6
NMTAP	79	240	7
NMTAP	79	336	1
NMTAP	80	48	0
NMTAP	80	48	1
NMTAP	80	144	7
NMTAP	80	192	7
NMTAP	80	240	7
NMTAP	80	336	0
NMTAP	80	336	7
NMTAP	81	48	6
NMTAP	81	144	6
NMTAP	81	240	4
NMTAP	81	240	5
NMTAP	81	336	4
NMTAP	81	336	5
NMTAP	82	48	3
NMTAP	82	96	3
NMTAP	82	144	3
NMTAP	82	240	2
NMTAP	82	240	4
NMTAP	82	336	1
NMTAP	83	48	1
NMTAP	83	144	2
NMTAP	83	240	3
NMTAP	83	336	4
NMTAP	84	48	2
NMTAP	84	48	5
NMTAP	84	144	2
NMTAP	84	144	5
BXTAP	84	240	1
BXTAP	84	240	6
BXSTR	84	336	1
NMSLR	84	336	1	96	432	7
BXTAP	84	336	6
NMSTR	86	336	6
NMSLL	86	336	6	96	432	2
NMTTP	88	240	1	B	0	L1
NMTTP	88	240	1	E	0	L1
NMTTP	89	48	0	C	0	L1
NMTTP	89	240	5	B	0	L1
NMTTP	89	240	5	E	0	L1
NMTHO	90	144	0	192	C	0	L1
EXTAP	91	144	7
EXTAP	91	240	7
EXTAP	91	336	0
EXTAP	91	336	7
NMTAP	92	144	1
NMTAP	92	240	2
NMTAP	92	336	3
NMTAP	93	0	3
NMTAP	93	48	3
NMTAP	93	144	4
NMTAP	93	192	4
NMTAP	93	240	4
NMTAP	93	336	3
NMTAP	93	336	5
NMTAP	94	48	3
NMTAP	94	48	5
NMTAP	94	144	6
NMTAP	94	240	7
NMTAP	94	336	0
NMTAP	95	0	0
NMTAP	95	48	0
NMTAP	95	144	7
NMTAP	95	192	7
NMTAP	95	240	7
NMTAP	95	336	0
NMTAP	95	336	7
NMTAP	96	48	1
NMTAP	96	144	2
NMTAP	96	240	2
NMTAP	96	240	3
NMTAP	96	336	2
NMTAP	96	336	3
NMTAP	97	48	4
NMTAP	97	144	4
NMTAP	97	240	5
NMTAP	97	336	4
NMTAP	97	336	5
NMTAP	98	48	4
NMTAP	98	48	5
NMTAP	98	144	3
NMTAP	98	144	4
NMTAP	98	240	3
NMTAP	98	240	4
NMTAP	98	336	2
NMTAP	98	336	3
NMTAP	99	48	2
NMTAP	99	48	3
NMTAP	99	144	1
NMTAP	99	144	4
NMTAP	99	240	0
NMTAP	99	288	0
NMTAP	99	336	0
NMTAP	100	48	1
NMTAP	100	48	7
NMTAP	100	144	7
NMTAP	100	192	7
NMTAP	100	240	7
NMTAP	100	336	0
NMTAP	100	336	6
NMTAP	101	48	5
NMTAP	101	96	5
NMTAP	101	144	5
NMTAP	101	240	4
NMTAP	101	240	6
NMTAP	101	336	3
NMTAP	102	0	3
NMTAP	102	48	3
NMTAP	102	144	2
NMTAP	102	144	4
BRTAP	102	240	1
BRTAP	102	240	5
NMTTP	103	336	3	E	0	L1
NMTTP	103	336	4	E	0	L1
NMTTP	103	336	5	E	0	L1

T_REC_TAP	253
T_REC_BRK	2
T_REC_XTP	23
T_REC_BXX	5
T_REC_HLD	7
T_REC_XHO	14
T_REC_BHO	0
T_REC_BXH	0
T_REC_STR	7
T_REC_BST	0
T_REC_XST	1
T_REC_XBS	1
T_REC_TTP	34
T_REC_THO	3
T_REC_SLD	7
T_REC_BSL	2
T_REC_ALL	359
T_NUM_TAP	318
T_NUM_BRK	10
T_NUM_HLD	24
T_NUM_SLD	7
T_NUM_ALL	359
T_JUDGE_TAP	326
T_JUDGE_HLD	154
T_JUDGE_SLD	9
T_JUDGE_ALL	489
TTM_EACHPAIRS	79
TTM_SCR_TAP	159000
TTM_SCR_BRK	26000
TTM_SCR_HLD	24000
TTM_SCR_SLD	10500
TTM_SCR_ALL	219500
TTM_SCR_S	211950
TTM_SCR_SS	218500
TTM_RAT_ACV	10045

