VERSION	0.00.00	1.04.00
FES_MODE	0
BPM_DEF	186.000	186.000	186.000	186.000
MET_DEF	4	4
RESOLUTION	384
CLK_DEF	384
COMPATIBLE_CODE	MA2

BPM	0	0	186.000
MET	0	0	4	4
MET	6	0	4	2
MET	6	192	4	4
MET	9	192	4	3
MET	10	96	4	4
MET	11	96	4	3
MET	12	0	4	4
MET	17	0	4	3
MET	17	288	4	4
MET	18	288	4	3
MET	19	192	4	4
MET	21	192	4	6
MET	27	192	8	11
MET	31	240	4	4
MET	33	240	4	3
MET	38	48	4	4
MET	41	48	4	3
MET	41	336	4	4
MET	42	336	4	3
MET	43	240	4	4
MET	44	240	4	3
MET	45	144	4	5
MET	46	240	4	4
MET	48	240	4	3
MET	49	144	4	4
MET	50	144	4	3
MET	51	48	4	4
MET	52	48	4	3
MET	52	336	4	5
MET	54	48	4	3
MET	57	336	4	2
MET	58	144	4	3
MET	60	240	4	2
MET	61	48	4	3
MET	63	144	4	2
MET	63	336	4	3
MET	67	240	4	7
MET	69	144	4	4
MET	71	144	4	3
MET	72	48	4	4
MET	73	48	4	3
MET	73	336	4	4
MET	74	336	4	3
MET	75	240	4	4
MET	76	240	4	3
MET	77	144	4	4
MET	80	144	4	3
MET	81	48	4	4
MET	82	48	4	3
MET	82	336	4	4
MET	87	336	4	3
MET	88	240	4	4
MET	89	240	4	3
MET	90	144	4	4
MET	95	144	4	3
MET	96	48	4	4
MET	97	48	4	3
MET	97	336	4	4
MET	98	336	4	3
MET	102	240	4	5
MET	103	336	4	4

EXHLD	2	0	0	288
EXHLD	4	0	7	288
EXTAP	6	192	0
NMTAP	7	0	0
NMTAP	7	192	1
NMTAP	8	0	1
NMTAP	8	192	2
NMTAP	9	0	2
NMHLD	9	192	3	288
NMHLD	11	96	4	288
NMTAP	13	0	3
NMTAP	13	0	4
NMTAP	13	192	3
NMTAP	13	192	4
NMTAP	14	0	5
NMTAP	14	192	5
NMTAP	15	0	6
NMTAP	15	192	6
NMTAP	16	0	7
NMTAP	16	192	7
NMHLD	17	0	7	288
NMTAP	18	96	0
NMHLD	18	288	0	288
NMTAP	20	0	0
NMTAP	20	192	0
NMTAP	20	192	7
NMTAP	21	0	0
NMTAP	21	0	7
EXSTR	21	192	7
NMSI_	21	192	7	96	288	4
EXSTR	23	0	3
NMSI_	23	0	3	96	288	0
EXSTR	24	192	7
NMSI_	24	192	7	96	288	4
EXSTR	26	0	3
NMSI_	26	0	3	96	288	0
NMTTP	27	192	7	B	0	L1
NMTTP	28	336	0	B	0	L1
NMTTP	30	96	6	B	0	L1
NMTHO	31	240	0	384	C	0	L1
EXHLD	33	240	0	288
EXHLD	33	240	1	288
EXHLD	35	48	6	288
EXHLD	35	48	7	288
BXTAP	36	240	0
BXTAP	36	240	7
NMTAP	38	48	0
NMTAP	38	240	0
NMTAP	39	48	0
NMTAP	39	240	0
NMTAP	40	48	7
NMTAP	40	240	7
NMTAP	41	48	0
NMTAP	41	48	7
EXTAP	41	336	1
NMTAP	42	144	1
NMTAP	42	336	0
NMTAP	42	336	1
NMTAP	43	240	6
NMTAP	44	48	6
NMTAP	44	240	6
NMTAP	44	240	7
NMTAP	45	48	6
NMTAP	45	48	7
NMTAP	45	240	5
NMTAP	45	336	5
NMTAP	46	48	5
NMTAP	46	240	5
NMTAP	47	240	4
NMTAP	47	336	4
NMTAP	48	48	4
NMTAP	48	240	3
NMTAP	48	240	4
NMTAP	49	144	2
NMTAP	49	240	2
NMTAP	49	336	2
NMTAP	50	144	2
NMTAP	51	48	1
NMTAP	51	144	1
NMTAP	51	240	1
NMTAP	52	48	0
NMTAP	52	48	7
NMTAP	52	144	0
NMTAP	52	144	7
NMTAP	52	240	0
NMTAP	52	240	7
NMSTR	52	336	0
NMSI_	52	336	0	96	384	3
NMSTR	52	336	7
NMSI_	52	336	7	96	384	4
EXHLD	55	240	4	576
EXHLD	55	240	5	576
EXHLD	58	336	2	552
EXHLD	58	336	3	552
EXHLD	61	240	0	480
EXHLD	61	240	1	480
EXHLD	64	48	6	576
EXHLD	64	48	7	576
NMTHO	66	336	0	288	C	1	L1
NMTAP	70	144	7
NMTAP	70	336	7
NMTAP	71	144	0
NMTAP	71	144	7
NMTAP	72	48	6
NMTAP	72	240	6
NMTAP	73	48	6
NMTAP	73	48	7
NMTAP	73	336	1
NMTAP	74	144	1
NMTAP	74	336	0
NMTAP	74	336	1
NMTAP	75	240	7
NMTAP	76	48	7
NMTAP	76	240	0
NMTAP	76	240	7
NMTAP	77	144	1
NMTAP	77	240	1
NMTAP	77	336	1
NMTAP	78	144	2
NMTAP	78	336	2
NMTAP	79	144	3
NMTAP	79	240	3
NMTAP	79	336	3
NMTAP	80	144	3
NMTAP	80	144	4
NMTAP	81	48	5
NMTAP	81	144	5
NMTAP	81	240	5
NMTAP	82	48	4
NMTAP	82	48	5
NMTAP	82	336	6
NMTAP	83	48	6
NMTAP	83	144	6
NMTAP	83	336	0
NMTAP	83	336	7
NMTTP	84	336	0	B	0	L1
NMTTP	84	336	7	B	0	L1
NMTTP	85	336	1	B	0	L1
NMTTP	85	336	6	B	0	L1
NMTHO	86	336	0	384	C	0	L1
NMTAP	88	240	7
NMHLD	89	240	0	288
NMHLD	89	240	7	288
EXTAP	91	144	0
EXTAP	91	144	7
EXTAP	91	240	0
EXTAP	91	240	7
EXTAP	91	336	0
EXTAP	91	336	7
BRTAP	92	144	6
NMTAP	92	240	6
NMTAP	92	336	6
NMTAP	93	48	6
NMTAP	93	144	5
NMTAP	93	240	5
NMTAP	93	336	4
NMTAP	93	336	5
BRTAP	94	144	3
NMTAP	94	240	3
NMTAP	94	336	3
NMTAP	95	48	3
NMTAP	95	144	2
NMTAP	95	240	2
NMTAP	95	336	2
NMHLD	96	48	2	192
NMHLD	96	48	3	192
EXTAP	97	48	2
EXTAP	97	48	3
NMHLD	97	336	4	192
NMHLD	97	336	5	192
EXTAP	98	336	4
EXTAP	98	336	5
BRTAP	99	240	6
NMTAP	99	336	6
NMTAP	100	48	7
NMTAP	100	144	7
NMTAP	100	240	0
NMTAP	100	336	0
NMTAP	101	48	1
NMTAP	101	144	1
NMTAP	101	240	0
NMTAP	101	336	0
NMTAP	102	48	7
NMTAP	102	144	7
EXHLD	102	240	0	480
EXHLD	102	240	7	480

T_REC_TAP	121
T_REC_BRK	3
T_REC_XTP	12
T_REC_BXX	2
T_REC_HLD	10
T_REC_XHO	16
T_REC_BHO	0
T_REC_BXH	0
T_REC_STR	2
T_REC_BST	0
T_REC_XST	4
T_REC_XBS	0
T_REC_TTP	7
T_REC_THO	3
T_REC_SLD	6
T_REC_BSL	0
T_REC_ALL	186
T_NUM_TAP	146
T_NUM_BRK	5
T_NUM_HLD	29
T_NUM_SLD	6
T_NUM_ALL	186
T_JUDGE_TAP	151
T_JUDGE_HLD	222
T_JUDGE_SLD	6
T_JUDGE_ALL	379
TTM_EACHPAIRS	37
TTM_SCR_TAP	73000
TTM_SCR_BRK	13000
TTM_SCR_HLD	29000
TTM_SCR_SLD	9000
TTM_SCR_ALL	124000
TTM_SCR_S	119800
TTM_SCR_SS	123500
TTM_RAT_ACV	10040

