VERSION	0.00.00	1.04.00
FES_MODE	0
BPM_DEF	160.000	160.000	160.000	160.000
MET_DEF	4	4
RESOLUTION	384
CLK_DEF	384
COMPATIBLE_CODE	MA2

BPM	0	0	160.000
MET	0	0	4	4

NMSTR	1	0	1
NMSCL	1	0	1	96	48	6
CNSI_	1	144	6	0	24	2
CNSCR	1	168	2	0	72	5
EXSTR	2	0	6
NMSXL	2	0	6	96	48	7
CNSI_	2	144	7	0	48	4
NMSTR	2	288	1
NMSXR	2	288	1	96	96	0
CNSI_	3	96	0	0	48	2
CNSCR	3	144	2	0	48	4
NMTAP	3	288	0
NMTAP	3	288	7
NMTAP	4	0	3
NMTAP	4	0	4
NMSTR	4	48	3
NMSI_	4	48	3	96	48	0
NMSTR	4	48	4
NMSI_	4	48	4	96	48	7
NMTAP	4	96	2
NMTAP	4	96	5
NMTAP	4	288	0
NMTAP	4	288	7
NMTAP	5	0	5
NMTAP	5	48	4
NMTAP	5	96	3
NMHLD	5	144	5	96
EXTAP	5	240	4
EXTAP	5	288	4
NMTAP	6	0	5
NMTAP	6	48	5
NMTAP	6	96	4
NMHLD	6	144	7	96
NMTAP	6	240	5
NMTAP	6	288	5
NMTAP	7	0	4
NMTAP	7	48	3
NMTAP	7	96	5
NMHLD	7	144	6	96
NMTAP	7	240	4
NMTAP	7	288	4
NMTAP	8	0	5
NMTAP	8	48	6
NMTAP	8	96	1
NMTAP	8	96	7
NMTAP	8	144	1
NMTAP	8	144	7
EXTAP	8	192	0
EXTAP	8	216	0
EXTAP	8	240	0
EXTAP	8	264	0
EXTAP	8	288	0
EXTAP	8	312	0
EXTAP	8	336	0
EXTAP	8	360	0
EXTAP	9	0	0
EXTAP	9	24	0
EXTAP	9	48	0
EXTAP	9	72	0
EXTAP	9	96	0
EXTAP	9	144	1
EXTAP	9	144	7
EXTAP	9	192	1
EXTAP	9	192	7
BXTAP	9	264	2
BXTAP	9	264	6
NMSTR	10	0	1
NMSI_	10	0	1	96	48	3
NMSTR	10	96	4
NMSI_	10	96	4	96	48	0
NMSTR	10	192	1
NMSI_	10	192	1	96	48	3
NMSTR	10	288	4
NMSI_	10	288	4	96	48	0
NMSTR	11	0	1
NMSI_	11	0	1	96	48	3
NMSTR	11	96	4
NMSI_	11	96	4	96	48	0
NMSTR	11	192	1
NMSI_	11	192	1	96	48	3
NMTTP	12	0	5	E	0	M1
NMTTP	12	48	4	E	0	M1
NMTTP	12	96	3	E	0	M1
NMTTP	12	144	2	E	0	M1
NMTTP	12	192	1	E	0	M1
NMTTP	12	240	0	E	0	M1
NMTTP	12	288	7	E	0	M1
NMSTR	13	0	1
NMSI_	13	0	1	96	48	3
NMSTR	13	96	4
NMSI_	13	96	4	96	48	0
NMSTR	13	192	1
NMSI_	13	192	1	96	48	3
NMSTR	13	288	4
NMSI_	13	288	4	96	48	0
NMSTR	14	0	1
NMSI_	14	0	1	96	48	3
NMSTR	14	96	4
NMSI_	14	96	4	96	48	0
NMSTR	14	192	1
NMSI_	14	192	1	96	48	3
NMTTP	15	0	5	E	0	M1
NMTTP	15	48	4	E	0	M1
NMTTP	15	96	3	E	0	M1
NMTTP	15	144	2	E	0	M1
NMTTP	15	192	1	E	0	M1
NMTTP	15	240	0	E	0	M1
NMTTP	15	288	7	E	0	M1
NMHLD	16	0	0	192
NMHLD	16	0	4	192
NMSTR	16	288	4
NMSI_	16	288	4	96	48	2
NMTAP	16	288	5
NMSTR	17	0	4
NMSI_	17	0	4	96	48	6
NMTAP	17	0	7
NMTAP	17	96	1
NMSTR	17	96	4
NMSI_	17	96	4	96	48	2
NMSTR	17	192	4
NMSI_	17	192	4	96	48	6
NMTAP	17	192	7
NMTAP	17	288	0
NMSTR	17	288	4
NMSI_	17	288	4	96	48	2
NMSTR	18	0	4
NMSI_	18	0	4	96	48	6
NMTAP	18	0	7
NMTAP	18	96	1
NMSTR	18	96	4
NMSI_	18	96	4	96	48	2
NMSTR	18	192	4
NMSI_	18	192	4	96	48	6
NMTAP	18	192	7
NMTAP	18	288	0
NMTAP	18	288	4
NMHLD	19	0	1	96
NMHLD	19	0	5	96
NMTAP	19	192	2
NMTAP	19	192	6
NMTAP	19	288	2
NMTAP	19	288	6
NMHLD	20	0	1	96
NMHLD	20	0	5	96
NMTAP	20	192	2
NMTAP	20	192	6
NMSTR	20	288	4
NMSI_	20	288	4	96	48	2
NMTAP	20	288	5
NMSTR	21	0	4
NMSI_	21	0	4	96	48	6
NMTAP	21	0	7
NMTAP	21	96	1
NMSTR	21	96	4
NMSI_	21	96	4	96	48	2
NMSTR	21	192	4
NMSI_	21	192	4	96	48	6
NMTAP	21	192	7
NMTAP	21	288	0
NMSTR	21	288	4
NMSI_	21	288	4	96	48	2
NMSTR	22	0	4
NMSI_	22	0	4	96	48	6
NMTAP	22	0	7
NMTAP	22	96	1
NMSTR	22	96	4
NMSI_	22	96	4	96	48	2
NMSTR	22	192	4
NMSI_	22	192	4	96	48	6
NMTAP	22	192	7
NMTAP	22	288	0
NMTAP	22	288	4
NMHLD	23	0	1	96
NMHLD	23	0	5	96
NMHLD	23	192	2	96
NMHLD	23	192	6	96
NMTAP	24	0	1
NMTAP	24	0	5
NMTAP	24	48	3
NMTAP	24	96	1
NMTAP	24	96	5
NMTAP	24	192	2
NMTAP	24	192	6
NMTAP	24	240	4
NMTAP	24	288	2
NMTAP	24	288	6
NMTAP	25	0	3
NMTAP	25	0	5
NMTAP	25	48	6
NMTAP	25	72	4
NMTAP	25	96	5
NMTAP	25	144	2
NMTAP	25	168	2
NMTAP	25	192	3
NMTAP	25	240	5
NMTAP	25	264	4
NMTAP	25	288	6
NMTAP	25	336	2
NMTAP	25	360	3
NMTAP	26	0	2
NMTAP	26	48	6
NMTAP	26	72	7
NMTAP	26	96	5
NMTAP	26	144	2
NMTAP	26	168	2
NMTAP	26	192	4
NMTAP	26	240	5
NMTAP	26	264	4
NMTAP	26	288	6
NMTAP	26	336	2
NMTAP	26	360	3
NMTAP	27	0	2
NMTAP	27	48	6
NMTAP	27	72	4
NMTAP	27	96	5
NMTAP	27	144	2
NMTAP	27	168	2
NMTAP	27	192	4
NMTAP	27	240	6
NMTAP	27	264	7
NMTAP	27	288	5
NMTAP	27	336	3
NMTAP	27	360	3
NMTAP	28	0	4
NMTAP	28	48	5
NMTAP	28	72	5
NMTAP	28	96	3
NMTAP	28	144	1
NMTAP	28	144	7
BRTAP	28	192	2
BRTAP	28	192	6
NMTAP	28	288	3
NMTAP	28	288	5
NMSTR	29	0	0
NMSI_	29	0	0	96	48	3
NMSTR	29	48	7
NMSI_	29	48	7	96	48	4
NMTAP	29	96	0
NMTAP	29	144	7
NMSTR	29	192	3
NMSI_	29	192	3	96	48	0
NMSTR	29	240	4
NMSI_	29	240	4	96	48	7
NMTAP	29	288	3
NMTAP	29	336	4
NMSTR	30	0	0
NMSI_	30	0	0	96	48	2
NMSTR	30	48	7
NMSI_	30	48	7	96	48	3
NMTAP	30	96	0
NMTAP	30	144	7
NMTTP	30	192	2	E	0	M1
NMTTP	30	240	1	E	0	M1
NMTTP	30	288	0	E	0	M1
NMHLD	31	0	0	288
NMTAP	31	0	4
NMTTP	31	96	3	E	0	M1
NMTTP	31	144	2	E	0	M1
NMTTP	31	192	1	E	0	M1
NMTTP	31	240	0	E	0	M1
NMTTP	31	288	7	E	0	M1
NMTTP	31	336	6	E	0	M1
NMSTR	32	0	1
NMSI_	32	0	1	96	48	3
NMTTP	32	0	5	E	0	M1
NMSTR	32	96	4
NMSI_	32	96	4	96	48	7
NMSTR	32	192	0
NMSI_	32	192	0	96	48	3
NMSTR	32	288	7
NMSI_	32	288	7	96	48	4
NMTAP	33	0	1
CNSXR	33	48	4	0	96	5
NMTAP	33	144	0
NMHLD	33	192	0	96
NMHLD	33	288	1	96
NMHLD	34	0	2	96
NMTAP	34	96	3
NMTAP	34	192	3
NMTAP	34	240	4
NMSTR	34	288	5
BRSI_	34	288	5	96	48	7
NMSTR	35	0	4
BRSI_	35	0	4	96	48	0
NMSTR	35	96	5
BRSI_	35	96	5	96	48	7
NMTAP	35	192	0
NMSTR	35	240	0
BRSI_	35	240	0	96	48	3
CNSXL	36	0	3	0	96	2
NMHLD	36	96	7	96
NMHLD	36	192	1	96
NMSTR	36	288	3
NMSXL	36	288	3	96	96	3
NMSXR	36	288	3	96	96	3
EXTAP	37	144	1
EXTAP	37	144	5
EXTAP	37	192	1
EXTAP	37	192	5
NMTTP	37	288	2	B	0	M1
NMTTP	37	288	2	E	0	M1
NMTTP	37	288	4	B	0	M1
NMTTP	37	288	5	E	0	M1
NMTTP	38	0	3	B	0	M1
NMTTP	38	0	3	E	0	M1
NMTTP	38	0	3	A	1	M1
NMTTP	38	0	4	E	0	M1
NMTAP	38	96	5
NMTAP	38	144	5
NMTAP	38	192	0
NMTAP	38	240	0
NMSTR	38	288	4
BRSI_	38	288	4	96	48	1
CNSI_	39	48	1	0	48	5
CNSI_	39	96	5	0	48	0
NMTAP	39	192	3
NMSTR	39	240	3
BRSF_	39	240	3	96	48	7
NMSTR	40	96	4
NMSI_	40	96	4	96	48	7
NMSTR	40	192	0
NMSI_	40	192	0	96	48	3
NMSTR	40	288	7
NMSI_	40	288	7	96	48	4
NMTAP	41	0	1
CNSXR	41	48	4	0	96	5
NMTAP	41	144	0
NMHLD	41	192	0	96
NMHLD	41	288	1	96
NMHLD	42	0	2	96
NMTAP	42	96	3
NMTAP	42	192	3
NMTAP	42	240	4
NMSTR	42	288	5
BRSI_	42	288	5	96	48	7
NMSTR	43	0	4
BRSI_	43	0	4	96	48	0
NMSTR	43	96	5
BRSI_	43	96	5	96	48	7
NMTAP	43	192	0
NMSTR	43	240	0
BRSI_	43	240	0	96	48	3
CNSXL	44	0	3	0	96	2
NMHLD	44	96	7	96
NMTAP	44	192	0
NMTAP	44	288	1
NMTAP	44	288	6
NMSTR	45	0	7
NMSUL	45	0	7	96	48	2
NMSTR	45	96	0
NMSUL	45	96	0	96	48	4
NMSTR	45	192	6
NMSI_	45	192	6	96	48	1
NMSTR	45	288	0
NMSCL	45	288	0	96	96	3
BRTAP	46	0	7
NMTAP	46	192	2
NMTAP	46	192	4
NMSTR	46	288	0
NMSI_	46	288	0	96	48	2
NMSTR	46	336	7
BRSI_	46	336	7	96	48	5
NMSTR	47	0	0
NMSI_	47	0	0	96	48	4
NMSTR	47	48	7
BRSI_	47	48	7	96	48	3
NMSTR	47	96	0
NMSCR	47	96	0	96	48	3
NMSTR	47	144	7
BRSCL	47	144	7	96	48	4
NMSTR	47	192	0
NMSI_	47	192	0	96	48	4
NMTAP	47	240	7
NMTAP	47	288	0
NMTAP	48	0	3
NMTAP	48	0	5
NMTAP	48	48	2
NMTAP	48	72	4
NMTAP	48	96	2
NMTAP	48	120	4
NMTAP	48	144	2
NMTAP	48	192	6
NMTAP	48	216	4
NMTAP	48	240	5
NMTAP	48	288	1
NMTAP	48	312	3
NMTAP	48	336	2
EXTAP	49	0	0
EXTAP	49	0	4
EXTAP	49	48	0
EXTAP	49	48	4
NMTAP	49	128	1
NMTAP	49	128	3
NMTAP	49	192	2
NMTAP	49	192	4
NMTAP	49	256	3
NMTAP	49	256	5
NMTAP	49	320	4
NMTAP	49	320	6
EXTAP	50	0	3
EXTAP	50	0	7
EXTAP	50	48	3
EXTAP	50	48	7
NMTAP	50	128	4
NMTAP	50	128	6
NMTAP	50	192	3
NMTAP	50	192	5
NMTAP	50	256	2
NMTAP	50	256	4
NMTAP	50	320	1
NMTAP	50	320	3
EXTAP	51	0	3
EXTAP	51	0	4
EXTAP	51	48	3
EXTAP	51	48	4
NMTAP	51	128	0
NMTAP	51	128	2
NMTAP	51	192	1
NMTAP	51	192	7
NMTAP	51	256	0
NMTAP	51	256	6
NMTAP	51	320	5
NMTAP	51	320	7
EXTAP	52	0	3
EXTAP	52	0	4
EXTAP	52	48	3
EXTAP	52	48	4
NMTAP	52	128	5
NMTAP	52	128	7
NMTAP	52	192	0
NMTAP	52	192	6
NMTAP	52	256	1
NMTAP	52	256	7
NMTAP	52	320	0
NMTAP	52	320	2
EXTAP	53	0	1
EXTAP	53	0	3
EXHLD	53	48	1	80
EXTAP	53	48	3
NMTAP	53	128	3
NMTAP	53	192	2
NMTAP	53	192	4
NMTAP	53	256	3
NMTAP	53	256	5
NMTAP	53	320	4
NMTAP	53	320	6
EXTAP	54	0	3
EXTAP	54	0	7
EXTAP	54	48	3
EXTAP	54	48	7
NMTAP	54	128	4
NMTAP	54	128	6
NMTAP	54	192	3
NMTAP	54	192	5
NMTAP	54	256	2
NMTAP	54	256	4
NMTAP	54	320	1
NMTAP	54	320	3
EXTAP	55	0	3
EXTAP	55	0	4
EXTAP	55	48	3
EXTAP	55	48	4
NMTAP	55	128	0
NMTAP	55	128	2
NMTAP	55	192	1
NMTAP	55	192	7
NMTAP	55	256	0
NMTAP	55	256	6
NMTAP	55	320	5
NMTAP	55	320	7
EXTAP	56	0	3
NMSTR	56	0	4
BRSXL	56	0	4	96	144	3
EXTAP	56	48	3
EXTAP	56	48	4
NMTAP	56	288	0
NMTAP	56	336	0
EXTAP	57	0	1
EXSTR	57	0	3
NMSI_	57	0	3	96	48	7
NMTAP	57	48	2
NMTAP	57	72	2
NMTAP	57	96	3
NMTAP	57	144	1
EXSTR	57	192	7
NMSI_	57	192	7	96	48	3
NMTAP	57	240	0
NMTAP	57	264	0
EXTAP	57	288	7
NMTAP	57	336	1
EXSTR	58	0	4
NMSI_	58	0	4	96	48	7
NMTAP	58	48	3
NMTAP	58	72	3
EXTAP	58	96	4
NMTAP	58	144	2
EXSTR	58	192	7
NMSI_	58	192	7	96	48	4
NMTAP	58	240	0
NMTAP	58	264	0
EXTAP	58	288	7
NMTAP	58	336	2
EXSTR	59	0	3
NMSCL	59	0	3	96	48	0
NMTAP	59	48	4
NMTAP	59	72	4
EXTAP	59	96	3
NMTAP	59	144	5
EXSTR	59	192	0
NMSCR	59	192	0	96	48	3
NMTAP	59	240	7
NMTAP	59	264	7
EXTAP	59	288	0
NMTAP	59	336	5
NMTTP	60	0	6	E	0	M1
NMTTP	60	48	5	E	0	M1
NMTTP	60	96	4	E	0	M1
NMTTP	60	144	3	E	0	M1
NMSTR	60	192	3
NMSI_	60	192	3	96	48	0
NMTAP	60	240	4
NMTAP	60	288	3
NMTAP	60	288	5
NMHLD	61	0	7	288
NMTAP	61	96	2
NMTAP	61	144	2
NMTAP	61	192	3
NMTAP	61	240	3
NMTAP	61	288	4
NMTAP	61	336	4
NMTAP	62	0	4
NMTAP	62	0	5
NMTAP	62	96	3
NMTAP	62	96	6
NMTAP	62	144	3
NMTAP	62	144	6
NMSTR	62	192	4
BRSI_	62	192	4	96	48	1
NMSTR	62	192	5
BRSI_	62	192	5	96	48	0
BRTAP	62	288	4
BRTAP	62	288	5
NMTTP	63	96	1	E	1	M1
NMTTP	63	160	2	E	1	M1
NMTTP	63	224	3	E	1	M1
NMSTR	64	0	0
NMSLR	64	0	0	96	192	5
NMSTR	64	0	7
NMSLR	64	0	7	96	192	6
NMTAP	65	0	5
NMTAP	65	24	4
NMTAP	65	48	6
NMHLD	65	96	6	48
NMSTR	65	144	4
NMSI_	65	144	4	96	48	1
NMSTR	65	168	4
NMSI_	65	168	4	96	48	7
NMTAP	66	0	2
NMTAP	66	24	3
NMTAP	66	48	1
NMHLD	66	96	1	48
NMSTR	66	144	4
NMSI_	66	144	4	96	48	7
NMTAP	66	240	0
NMTAP	66	288	0
NMTAP	67	0	2
NMTAP	67	24	3
NMTAP	67	48	1
NMHLD	67	96	1	48
NMSTR	67	144	3
NMSI_	67	144	3	96	48	6
NMSTR	67	168	3
NMSI_	67	168	3	96	48	0
BXTAP	68	0	5
NMTAP	68	24	4
EXTAP	68	48	6
EXHLD	68	96	6	48
EXSTR	68	144	3
NMSI_	68	144	3	96	48	0
NMTAP	68	240	7
NMTAP	68	288	7
NMTAP	69	0	5
NMTAP	69	24	4
NMTAP	69	48	6
NMHLD	69	96	6	48
NMTAP	69	144	4
NMTAP	69	168	4
NMTAP	69	192	5
NMTAP	69	240	3
NMTAP	69	240	4
NMTAP	69	288	3
NMTAP	69	288	4
NMTAP	69	336	2
NMTAP	70	0	1
NMTAP	70	24	3
NMTAP	70	48	0
NMSTR	70	96	0
NMSI_	70	96	0	96	48	4
NMTAP	70	144	0
NMSTR	70	192	5
NMSI_	70	192	5	96	48	7
NMTAP	70	240	5
NMTAP	70	288	3
NMTAP	70	336	2
NMTAP	71	0	2
NMTAP	71	24	3
NMTAP	71	48	1
NMHLD	71	96	1	48
NMTAP	71	144	3
NMTAP	71	168	3
NMTAP	71	192	2
NMTAP	71	240	3
NMTAP	71	240	4
NMTAP	71	288	3
NMTAP	71	288	4
NMTAP	71	336	5
NMTAP	72	0	6
NMTAP	72	24	4
NMTAP	72	48	7
NMSTR	72	96	7
NMSI_	72	96	7	96	48	3
NMTAP	72	144	7
NMSTR	72	192	2
NMSI_	72	192	2	96	48	0
NMTAP	72	240	2
NMTAP	72	288	4
NMTAP	72	336	4
NMTTP	73	72	5	B	0	M1
NMTTP	73	72	5	A	0	M1
NMTTP	73	72	6	E	1	M1
NMTTP	73	144	0	B	1	M1
NMTTP	73	144	1	B	0	M1
NMTTP	73	144	1	E	0	M1
NMTTP	73	216	2	B	0	M1
NMTTP	73	216	2	A	0	M1
NMTTP	73	216	3	E	1	M1
EXTAP	75	0	0
EXTAP	75	0	7
BXTAP	75	240	0
EXTAP	75	252	1
EXTAP	75	264	2
EXTAP	75	276	3
EXTAP	75	288	4
EXTAP	75	300	5
EXTAP	75	312	6
EXTAP	75	324	7
BXTAP	75	336	0
EXTAP	75	348	1
EXTAP	75	360	2
EXTAP	75	372	3
EXTAP	76	0	4
EXTAP	76	12	5
EXTAP	76	24	6
EXTAP	76	36	7
BXTAP	76	48	0
EXTAP	76	60	1
EXTAP	76	72	2
EXTAP	76	84	3
EXTAP	76	96	4
EXTAP	76	108	5
EXTAP	76	120	6
EXTAP	76	132	7
BXTAP	76	144	0
EXTAP	76	156	1
EXTAP	76	168	2
EXTAP	76	180	3
EXTAP	76	192	4
EXTAP	76	204	5
EXTAP	76	216	6
EXTAP	76	228	7
BXTAP	76	240	0
EXTAP	76	252	1
EXTAP	76	264	2
EXTAP	76	276	3
EXTAP	76	288	4
EXTAP	76	300	5
EXTAP	76	312	6
EXTAP	76	324	7
BXTAP	76	336	0
EXTAP	76	348	1
EXTAP	76	360	2
EXTAP	76	372	3
EXTAP	77	0	4
EXTAP	77	12	5
EXTAP	77	24	6
EXTAP	77	36	7
BXTAP	77	48	0
EXTAP	77	60	1
EXTAP	77	72	2
EXTAP	77	84	3
EXTAP	77	96	4
EXTAP	77	108	5
EXTAP	77	120	6
EXTAP	77	132	7
BXTAP	77	144	0
EXTAP	77	156	1
EXTAP	77	168	2
EXTAP	77	180	3
EXTAP	77	192	4
EXTAP	77	204	5
EXTAP	77	216	6
EXTAP	77	228	7
BXTAP	77	240	0
EXTAP	77	252	1
EXTAP	77	264	2
EXTAP	77	276	3
EXTAP	77	288	4
EXTAP	77	300	5
EXTAP	77	312	6
EXTAP	77	324	7
BXTAP	77	336	0
EXTAP	77	348	1
EXTAP	77	360	2
EXTAP	77	372	3
EXTAP	78	0	4
EXTAP	78	12	5
EXTAP	78	24	6
EXTAP	78	36	7
BXTAP	78	48	0
EXTAP	78	60	1
NMTTP	78	72	0	C	1	M1
EXTAP	78	72	2

T_REC_TAP	293
T_REC_BRK	5
T_REC_XTP	134
T_REC_BXX	14
T_REC_HLD	29
T_REC_XHO	2
T_REC_BHO	0
T_REC_BXH	0
T_REC_STR	84
T_REC_BST	0
T_REC_XST	8
T_REC_XBS	0
T_REC_TTP	49
T_REC_THO	0
T_REC_SLD	77
T_REC_BSL	16
T_REC_ALL	711
T_NUM_TAP	568
T_NUM_BRK	35
T_NUM_HLD	31
T_NUM_SLD	77
T_NUM_ALL	711
T_JUDGE_TAP	587
T_JUDGE_HLD	68
T_JUDGE_SLD	93
T_JUDGE_ALL	748
TTM_EACHPAIRS	106
TTM_SCR_TAP	284000
TTM_SCR_BRK	91000
TTM_SCR_HLD	31000
TTM_SCR_SLD	115500
TTM_SCR_ALL	521500
TTM_SCR_S	502500
TTM_SCR_SS	518000
TTM_RAT_ACV	10067

