VERSION	0.00.00	1.04.00
FES_MODE	0
BPM_DEF	160.000	160.000	160.000	160.000
MET_DEF	4	4
RESOLUTION	384
CLK_DEF	384
COMPATIBLE_CODE	MA2

BPM	0	0	160.000
MET	0	0	4	4

EXHLD	1	0	2	384
EXHLD	2	0	3	480
EXTAP	3	0	4
EXHLD	3	96	4	576
EXTAP	4	0	5
EXHLD	4	96	5	192
EXHLD	5	0	5	384
EXHLD	6	0	4	480
EXTAP	7	0	3
EXHLD	7	96	3	384
EXTAP	8	0	2
EXTAP	8	96	2
NMHLD	8	288	0	144
NMHLD	8	288	1	480
BXTAP	9	144	2
BXSTR	9	192	2
NMSI_	9	192	2	96	96	6
NMTAP	10	192	5
NMTAP	10	288	4
NMTAP	10	288	5
NMTAP	11	0	2
NMTAP	11	96	2
NMTAP	11	192	2
NMTAP	11	288	2
NMTAP	11	288	3
NMTAP	12	0	1
NMTAP	12	96	1
NMTAP	12	192	1
NMTAP	12	288	0
NMTAP	12	288	7
NMTAP	13	0	6
NMTAP	13	96	6
NMTAP	13	192	6
NMTAP	13	288	6
NMTAP	13	288	7
NMTAP	14	0	5
NMTAP	14	96	5
NMTAP	14	192	5
NMTAP	14	288	4
NMTAP	14	288	5
NMTAP	15	0	2
NMTAP	15	96	2
NMTAP	15	192	2
NMTAP	15	288	2
NMTAP	15	288	3
NMTAP	16	0	1
NMTAP	16	96	0
NMTAP	16	192	0
NMTAP	16	192	7
NMTAP	16	288	1
NMTAP	16	288	6
EXSTR	17	0	0
NMSI_	17	0	0	96	48	2
NMSTR	17	192	7
NMSI_	17	192	7	96	48	3
NMSTR	18	0	0
NMSI_	18	0	0	96	48	4
NMTAP	18	192	7
NMTAP	18	288	5
NMHLD	19	0	4	192
NMHLD	19	0	6	192
NMTAP	19	288	2
NMHLD	20	0	1	192
NMHLD	20	0	3	192
NMTAP	20	288	5
EXSTR	21	0	7
NMSI_	21	0	7	96	48	5
NMSTR	21	192	0
NMSI_	21	192	0	96	48	4
NMSTR	22	0	7
NMSI_	22	0	7	96	48	3
NMTAP	22	192	0
NMTAP	22	288	2
NMHLD	22	288	4	384
NMHLD	23	0	5	288
NMTAP	24	0	6
NMTAP	24	96	7
NMTAP	24	192	0
NMTAP	24	192	6
NMTAP	24	288	0
NMTAP	24	288	6
BXTAP	25	0	5
BXTAP	25	48	5
BXTAP	25	96	4
BXTAP	25	192	6
BXTAP	25	240	6
BXTAP	25	288	7
BXTAP	26	0	1
BXTAP	26	48	1
BXTAP	26	96	0
BXTAP	26	144	0
BXTAP	26	192	1
BXTAP	26	288	2
BXTAP	26	288	7
BXTAP	27	0	1
BXTAP	27	48	1
BXTAP	27	96	0
BXTAP	27	192	6
BXTAP	27	240	6
BXTAP	27	288	7
BXTAP	28	0	5
BXTAP	28	48	5
BXTAP	28	96	4
BXHLD	28	192	3	96
BXHLD	28	192	6	96
EXSTR	29	0	4
NMSI_	29	0	4	96	48	6
NMSTR	29	192	3
NMSI_	29	192	3	96	48	7
NMSTR	30	0	4
NMSI_	30	0	4	96	48	0
NMTAP	30	192	3
NMTAP	30	288	2
NMTAP	30	288	4
NMTAP	31	0	1
NMTAP	31	0	5
EXTAP	31	96	6
EXTAP	31	144	6
EXTAP	31	192	6
EXTAP	31	240	6
EXTAP	31	288	6
EXTAP	31	336	6
BXTAP	32	0	6
NMHLD	32	96	0	96
NMTAP	32	96	7
NMHLD	32	192	1	96
NMHLD	32	288	2	96
NMSTR	33	0	3
NMSUL	33	0	3	96	192	1
NMSTR	34	0	0
NMSUR	34	0	0	96	192	2
NMTAP	35	0	4
NMTAP	35	96	5
NMTAP	35	192	6
NMTAP	35	192	7
NMTAP	35	240	6
NMTAP	35	240	7
NMTAP	35	336	4
NMTAP	35	336	5
NMTAP	36	0	4
NMTAP	36	0	5
NMHLD	36	96	3	96
NMTAP	36	96	4
NMHLD	36	192	2	96
NMHLD	36	288	1	96
NMSTR	37	0	0
NMSUR	37	0	0	96	192	2
NMSTR	38	0	3
NMSUL	38	0	3	96	192	1
NMTAP	39	0	7
NMTAP	39	96	6
NMTAP	39	192	4
NMTAP	39	192	5
NMTAP	39	240	4
NMTAP	39	240	5
NMTAP	39	336	6
NMTAP	39	336	7
NMTAP	40	0	6
NMTAP	40	0	7
NMHLD	40	96	0	96
NMTAP	40	96	7
NMHLD	40	192	1	96
NMHLD	40	288	2	96
NMSTR	41	0	3
NMSXL	41	0	3	96	192	1
NMSTR	42	0	0
NMSXR	42	0	0	96	192	2
NMTAP	43	0	4
NMTAP	43	0	5
NMTAP	43	96	4
NMTAP	43	96	6
NMTAP	43	192	4
NMTAP	43	192	7
NMTAP	43	240	4
NMTAP	43	240	7
NMTAP	43	336	5
NMTAP	43	336	6
NMTAP	44	0	5
NMTAP	44	0	6
NMHLD	44	96	3	96
NMTAP	44	96	4
NMHLD	44	192	2	96
NMHLD	44	288	1	96
NMSTR	45	0	0
NMSXR	45	0	0	96	192	2
NMSTR	46	0	3
NMSXL	46	0	3	96	192	1
NMTAP	47	0	0
NMTAP	47	0	7
NMTAP	47	96	1
NMTAP	47	96	6
NMTAP	47	144	1
NMTAP	47	144	6
NMTAP	47	240	2
NMTAP	47	240	5
NMSTR	47	336	3
NMSCL	47	336	3	96	144	0
NMSTR	47	336	4
NMSCR	47	336	4	96	144	7
NMTAP	48	288	1
NMTAP	48	288	6
EXHLD	49	0	2	288
NMTTP	49	96	4	B	0	M1
NMTTP	49	192	0	C	0	M1
NMTTP	49	288	0	B	0	M1
NMHLD	50	0	5	288
NMTTP	50	96	3	B	0	M1
NMTTP	50	192	0	C	0	M1
NMTTP	50	288	7	B	0	M1
NMHLD	51	0	2	288
NMTTP	51	96	4	A	0	M1
NMTTP	51	192	0	C	0	M1
NMTTP	51	288	0	A	0	M1
NMHLD	52	0	5	288
NMTAP	52	192	3
NMTAP	52	288	2
EXHLD	53	0	1	288
NMTTP	53	96	3	B	0	M1
NMTTP	53	192	0	C	0	M1
NMTTP	53	288	7	B	0	M1
NMHLD	54	0	6	288
NMTTP	54	96	4	B	0	M1
NMTTP	54	192	0	C	0	M1
NMTTP	54	288	0	B	0	M1
NMHLD	55	0	1	288
NMTTP	55	96	3	A	0	M1
NMTTP	55	192	0	C	0	M1
NMTTP	55	288	7	A	0	M1
NMHLD	56	0	6	288
NMTAP	56	192	3
EXTAP	56	288	1
EXTAP	56	336	1
EXSTR	57	0	1
NMSI_	57	0	1	96	48	7
NMSTR	57	192	6
NMSI_	57	192	6	96	48	2
NMSTR	58	0	1
NMSI_	58	0	1	96	48	5
NMTAP	58	192	4
NMTAP	58	288	2
NMTAP	58	288	6
EXSTR	59	0	3
NMSI_	59	0	3	96	48	5
EXSTR	59	192	6
NMSI_	59	192	6	96	48	2
NMTAP	60	0	1
NMTAP	60	96	4
NMTAP	60	144	4
NMTAP	60	192	3
NMTAP	60	192	5
BRTAP	60	288	0
BRTAP	60	288	7
NMHLD	61	0	2	72
NMHLD	61	72	3	72
NMTAP	61	144	1
NMHLD	61	192	5	72
NMHLD	61	264	4	72
NMTAP	61	336	6
NMHLD	62	0	3	72
NMHLD	62	72	2	72
NMTAP	62	144	1
NMHLD	62	192	4	72
NMHLD	62	264	5	72
NMTAP	62	336	6
EXTAP	63	0	0
EXTAP	63	0	7
NMTAP	63	96	6
NMTAP	63	96	7
NMTAP	63	192	0
NMTAP	63	192	7
NMTAP	63	288	0
NMTAP	63	288	1
BRSTR	64	0	0
NMSXL	64	0	0	96	192	3
BRSTR	64	0	7
NMSXR	64	0	7	96	192	4
EXHLD	65	0	2	384
EXTAP	65	0	5
EXHLD	66	0	3	480
EXTAP	67	0	4
EXHLD	67	96	4	576
EXTAP	68	0	5
EXHLD	68	96	5	192
EXHLD	69	0	6	384
NMTAP	69	96	7
NMTAP	69	192	7
NMTAP	69	288	7
EXHLD	70	0	7	480
NMTAP	70	96	0
NMTAP	70	192	0
NMTAP	70	288	0
EXTAP	71	0	0
EXHLD	71	96	0	384
NMTAP	71	192	1
NMTAP	71	288	1
EXTAP	72	0	1
EXHLD	72	96	1	192
NMTAP	72	192	2
NMTAP	72	288	2
BXTAP	73	72	2
BXTAP	73	72	3
BXTAP	73	144	0
BXTAP	73	144	7
BXTAP	73	216	4
BXTAP	73	216	5
BXSTR	75	240	0
NMSF_	75	240	0	96	912	4

T_REC_TAP	128
T_REC_BRK	2
T_REC_XTP	20
T_REC_BXX	30
T_REC_HLD	34
T_REC_XHO	17
T_REC_BHO	0
T_REC_BXH	2
T_REC_STR	18
T_REC_BST	2
T_REC_XST	6
T_REC_XBS	2
T_REC_TTP	18
T_REC_THO	0
T_REC_SLD	28
T_REC_BSL	0
T_REC_ALL	307
T_NUM_TAP	190
T_NUM_BRK	38
T_NUM_HLD	51
T_NUM_SLD	28
T_NUM_ALL	307
T_JUDGE_TAP	226
T_JUDGE_HLD	259
T_JUDGE_SLD	28
T_JUDGE_ALL	513
TTM_EACHPAIRS	54
TTM_SCR_TAP	95000
TTM_SCR_BRK	98800
TTM_SCR_HLD	51000
TTM_SCR_SLD	42000
TTM_SCR_ALL	286800
TTM_SCR_S	274550
TTM_SCR_SS	283000
TTM_RAT_ACV	10134

