VERSION	0.00.00	1.04.00
FES_MODE	0
BPM_DEF	137.000	137.000	137.000	137.000
MET_DEF	4	4
RESOLUTION	384
CLK_DEF	384
COMPATIBLE_CODE	MA2

BPM	0	0	137.000
MET	0	0	4	4

NMTAP	1	192	3
NMHLD	1	216	3	48
NMTAP	1	264	4
NMTAP	1	288	3
NMTAP	1	312	4
NMTAP	1	336	3
NMTAP	2	0	2
NMTAP	2	0	4
NMSTR	2	48	3
NMSCL	2	48	3	96	96	7
NMTAP	2	96	4
NMTAP	2	144	5
NMTAP	2	240	6
NMHLD	2	288	6	96
NMTAP	3	0	5
NMSTR	3	48	4
NMSCR	3	48	4	96	96	0
NMTAP	3	96	3
NMTAP	3	144	2
NMTAP	3	240	1
NMHLD	3	288	1	96
NMTAP	4	0	2
NMSTR	4	48	3
NMSCL	4	48	3	96	96	7
NMTAP	4	96	4
NMTAP	4	144	5
NMTAP	4	240	6
NMHLD	4	288	6	96
NMTAP	5	0	4
NMTAP	5	48	3
NMTAP	5	48	5
NMTAP	5	96	2
NMTAP	5	96	4
NMTTP	5	144	2	E	0	M1
NMTTP	5	160	2	B	0	M1
NMTTP	5	176	4	B	0	M1
NMTTP	5	192	5	E	0	M1
NMTAP	5	240	7
NMTAP	5	288	0
NMTAP	5	288	6
NMTAP	6	0	2
NMSTR	6	48	3
NMSCL	6	48	3	96	48	1
NMTAP	6	96	4
NMTAP	6	144	5
CNSI_	6	192	1	0	48	7
NMTAP	6	240	6
NMHLD	6	288	6	96
NMTAP	7	0	5
NMSTR	7	48	4
NMSCR	7	48	4	96	48	6
NMTAP	7	96	3
NMTAP	7	144	2
CNSI_	7	192	6	0	48	0
NMTAP	7	240	1
NMHLD	7	288	1	96
NMTAP	8	0	2
NMSTR	8	48	3
NMSCL	8	48	3	96	48	1
NMTAP	8	96	4
NMTAP	8	144	5
CNSI_	8	192	1	0	48	7
NMTAP	8	240	6
NMHLD	8	288	6	96
NMTAP	9	0	4
NMTAP	9	48	3
NMTAP	9	48	5
NMTAP	9	96	2
NMTAP	9	96	4
NMTTP	9	144	3	E	0	M1
NMTTP	9	160	3	B	0	M1
NMTTP	9	176	5	B	0	M1
NMTTP	9	192	6	E	0	M1
NMTAP	9	240	0
NMSTR	9	288	1
NMSI_	9	288	1	96	48	3
NMTAP	9	288	7
NMHLD	10	0	5	96
NMSTR	10	96	4
NMSI_	10	96	4	96	48	7
NMHLD	10	192	6	96
NMTAP	10	288	0
NMTAP	10	336	0
NMTAP	11	0	7
NMTAP	11	48	6
NMSTR	11	96	4
NMSI_	11	96	4	96	48	0
NMTAP	11	96	5
NMTAP	11	144	6
NMHLD	11	192	7	96
EXTAP	11	288	0
NMHLD	12	0	1	48
NMHLD	12	0	3	48
NMHLD	12	96	3	48
NMHLD	12	96	4	48
NMTAP	12	192	5
NMTAP	12	216	4
NMTAP	12	264	6
NMTAP	12	288	7
NMTAP	12	336	0
NMTAP	12	336	6
NMTAP	13	0	7
NMTAP	13	48	6
NMSTR	13	96	5
NMSI_	13	96	5	96	48	0
NMTAP	13	144	4
NMHLD	13	192	3	96
EXTAP	13	288	0
NMSTR	14	0	1
NMSI_	14	0	1	96	48	4
NMTAP	14	96	4
CNSI_	14	144	4	0	48	0
NMTAP	14	144	5
NMSTR	14	192	6
NMSI_	14	192	6	96	48	2
NMTAP	14	288	0
NMTAP	14	336	0
NMTAP	15	0	1
NMTAP	15	48	2
NMTAP	15	96	3
NMSTR	15	96	4
NMSI_	15	96	4	96	48	0
NMTAP	15	144	2
NMHLD	15	192	1	96
EXTAP	15	288	0
BXHLD	16	0	2	48
NMHLD	16	0	4	48
BXHLD	16	96	3	48
NMHLD	16	96	5	48
NMTAP	16	192	6
NMTAP	16	216	7
NMTAP	16	264	1
NMSTR	16	288	0
NMSI_	16	288	0	96	48	2
NMSI_	16	288	0	96	48	6
NMTAP	16	336	0
CNSI_	17	48	2	0	48	4
CNSI_	17	48	6	0	48	4
CNSI_	17	96	4	0	48	2
CNSI_	17	96	4	0	48	6
CNSI_	17	144	2	0	48	0
CNSI_	17	144	6	0	48	0
NMTTP	17	288	4	B	0	M1
NMSTR	18	0	2
NMSI_	18	0	2	96	48	7
NMSTR	18	0	6
NMSI_	18	0	6	96	48	3
NMTAP	18	96	2
NMTAP	18	96	6
NMTAP	18	192	1
NMTAP	18	192	4
NMSTR	18	240	2
NMSCL	18	240	2	96	48	0
NMSTR	18	240	5
NMSI_	18	240	5	96	48	3
NMSTR	18	336	2
BRSXR	18	336	2	96	96	3
NMTAP	18	336	5
BXHLD	19	48	7	96
NMTAP	19	192	4
NMTAP	19	240	3
NMTAP	19	240	5
NMTAP	19	288	2
NMTAP	19	336	1
NMTAP	19	336	3
NMSTR	20	0	0
NMSI_	20	0	0	96	48	4
NMSTR	20	0	4
NMSI_	20	0	4	96	48	6
NMTAP	20	96	0
NMTAP	20	96	4
NMTAP	20	192	3
NMTAP	20	192	7
NMSTR	20	240	2
NMSI_	20	240	2	96	48	7
NMSTR	20	240	6
NMSI_	20	240	6	96	48	3
NMTAP	20	336	2
NMTAP	20	336	6
NMTAP	21	48	0
NMSTR	21	96	1
NMSI_	21	96	1	96	48	5
NMSTR	21	144	4
NMSI_	21	144	4	96	48	7
NMTAP	21	192	5
NMTTP	21	288	0	C	0	M1
NMSTR	22	0	1
NMSI_	22	0	1	96	48	4
NMSTR	22	0	5
NMSI_	22	0	5	96	48	0
NMTAP	22	96	1
NMTAP	22	96	5
NMTAP	22	192	3
NMTAP	22	192	7
NMSTR	22	240	2
NMSI_	22	240	2	96	48	0
NMSTR	22	240	6
NMSI_	22	240	6	96	48	3
NMTAP	22	336	2
NMSTR	22	336	6
BRSSL	22	336	6	96	96	2
BXHLD	23	48	0	96
NMTAP	23	192	3
NMTAP	23	240	2
NMTAP	23	240	4
NMTAP	23	288	5
NMTAP	23	336	4
NMTAP	23	336	6
NMSTR	24	0	3
NMSV_	24	0	3	96	48	1
NMSTR	24	0	7
NMSV_	24	0	7	96	48	5
NMTAP	24	96	3
NMTAP	24	96	7
EXTAP	24	192	2
EXTAP	24	192	6
NMTAP	24	240	3
NMTAP	24	288	4
NMTAP	24	288	5
NMTAP	24	336	3
BXTAP	25	0	2
NMTAP	25	0	7
NMTAP	25	48	3
NMTAP	25	96	0
BXTAP	25	96	5
NMTAP	25	144	4
NMTAP	25	192	1
BXTAP	25	192	7
NMTAP	25	240	3
NMSTR	25	288	0
BRSCR	25	288	0	96	24	3
BXTAP	25	288	6
NMTAP	25	336	4
BRTAP	26	0	0
BXHLD	26	0	5	144
BRTAP	26	72	0
NMTTP	26	88	0	B	0	M1
NMTTP	26	104	0	C	0	M1
NMTTP	26	112	4	B	0	M1
NMTTP	26	120	4	A	0	M1
BRTAP	26	144	0
NMTTP	26	152	1	A	0	M1
NMTTP	26	160	2	D	0	M1
NMTTP	26	168	2	A	0	M1
NMTTP	26	176	3	D	0	M1
NMTAP	26	240	6
NMSTR	26	288	7
BRSCL	26	288	7	96	24	4
NMTAP	26	336	3
BXHLD	27	0	2	144
BRTAP	27	0	7
BRTAP	27	72	7
NMTTP	27	88	7	B	0	M1
NMTTP	27	104	0	C	0	M1
NMTTP	27	112	3	B	0	M1
NMTTP	27	120	3	A	0	M1
BRTAP	27	144	7
NMTTP	27	152	6	A	0	M1
NMTTP	27	160	6	D	0	M1
NMTTP	27	168	5	A	0	M1
NMTTP	27	176	5	D	0	M1
NMTAP	27	240	1
NMTAP	27	288	0
NMTAP	27	288	4
NMTAP	27	336	5
NMHLD	28	0	2	72
NMHLD	28	0	6	72
NMTAP	28	96	2
NMTAP	28	96	6
NMTAP	28	144	5
NMTAP	28	192	3
NMTAP	28	192	4
NMTAP	28	240	1
NMTAP	28	288	4
NMTAP	28	288	5
NMTAP	28	336	6
BXTAP	29	0	3
NMTAP	29	0	5
NMTAP	29	48	0
NMTAP	29	96	2
BXTAP	29	96	4
NMTAP	29	144	7
BXTAP	29	192	1
NMTAP	29	192	3
NMTAP	29	240	0
BXTAP	29	288	2
NMSTR	29	288	7
BRSCL	29	288	7	96	24	4
BXHLD	30	0	1	144
BRTAP	30	0	7
BRTAP	30	72	7
NMTTP	30	88	7	B	0	M1
NMTTP	30	104	0	C	0	M1
NMTTP	30	112	3	B	0	M1
NMTTP	30	120	3	A	0	M1
BRTAP	30	144	7
NMTTP	30	152	6	A	0	M1
NMTTP	30	160	6	D	0	M1
NMTTP	30	168	5	A	0	M1
NMTTP	30	176	5	D	0	M1
NMTAP	30	240	1
NMSTR	30	288	0
BRSCR	30	288	0	96	24	3
NMTAP	30	336	4
BRTAP	31	0	0
BXHLD	31	0	6	144
BRTAP	31	72	0
NMTTP	31	88	0	B	0	M1
NMTTP	31	104	0	C	0	M1
NMTTP	31	112	4	B	0	M1
NMTTP	31	120	4	A	0	M1
BRTAP	31	144	0
NMTTP	31	152	1	A	0	M1
NMTTP	31	160	2	D	0	M1
NMTTP	31	168	2	A	0	M1
NMTTP	31	176	3	D	0	M1
NMTAP	31	240	6
NMTAP	31	288	3
NMTAP	31	288	7
NMTAP	31	336	2
NMHLD	32	0	1	72
NMTAP	32	72	3
NMTAP	32	96	2
NMTAP	32	144	5
NMTAP	32	192	4
NMTAP	32	192	6
NMTAP	32	240	3
NMTAP	32	240	7
NMTAP	32	288	2
NMTAP	32	336	1
NMTAP	32	336	3
NMHLD	33	0	4	96
NMTTP	33	48	4	E	0	M1
NMHLD	33	96	3	96
NMTTP	33	144	0	C	0	M1
NMHLD	33	192	5	96
NMTTP	33	240	0	E	0	M1
BRTAP	33	288	0
NMTTP	34	0	2	B	0	M1
NMTTP	34	0	3	B	0	M1
NMTTP	34	0	4	B	0	M1
NMTTP	34	0	4	E	0	M1
NMTTP	34	0	5	B	0	M1
NMTTP	34	0	6	E	0	M1
NMTTP	34	72	0	C	0	M1
NMTTP	34	72	1	B	0	M1
NMTTP	34	72	1	A	0	M1
NMTTP	34	72	7	B	0	M1
NMTTP	34	72	7	A	0	M1
NMTTP	34	144	0	B	0	M1
NMTTP	34	144	0	E	0	M1
NMTTP	34	144	0	D	0	M1
NMTTP	34	144	1	E	0	M1
NMTTP	34	144	1	D	0	M1
NMTTP	35	0	4	B	0	M1
NMTTP	35	0	5	E	0	M1
NMTTP	35	0	5	A	0	M1
NMTTP	35	0	6	E	0	M1
NMTTP	35	0	6	A	0	M1
NMTTP	35	0	7	B	0	M1
NMTTP	35	0	7	E	0	M1
NMTTP	35	72	0	B	0	M1
NMTTP	35	72	1	E	0	M1
NMTTP	35	72	1	A	0	M1
NMTTP	35	72	2	E	0	M1
NMTTP	35	72	2	A	0	M1
NMTTP	35	72	3	B	0	M1
NMTTP	35	72	3	E	0	M1
NMTHO	35	144	0	48	C	0	M1
BRTAP	35	288	0
BRTAP	35	288	7
NMTAP	36	0	2
NMSTR	36	48	3
NMSI_	36	48	3	96	48	1
NMTAP	36	96	4
NMTAP	36	144	5
CNSCL	36	192	1	0	48	7
NMTAP	36	240	6
NMHLD	36	288	6	96
NMTAP	37	0	5
NMSTR	37	48	4
NMSI_	37	48	4	96	48	6
NMTAP	37	96	3
NMTAP	37	144	2
CNSCR	37	192	6	0	48	0
NMTAP	37	240	1
NMHLD	37	288	1	96
NMTAP	38	0	2
NMSTR	38	48	3
NMSI_	38	48	3	96	48	1
NMTAP	38	96	4
NMTAP	38	144	5
CNSCL	38	192	1	0	48	7
NMTAP	38	240	6
NMHLD	38	288	6	96
NMTAP	39	0	4
NMTAP	39	48	3
NMTAP	39	48	5
NMTAP	39	96	2
NMTAP	39	96	4
NMTTP	39	144	2	E	0	M1
NMTTP	39	160	2	B	0	M1
NMTTP	39	176	4	B	0	M1
NMTTP	39	192	5	E	0	M1
NMTAP	39	240	7
NMTAP	39	288	0
NMTAP	39	288	6
NMTAP	40	0	5
NMSTR	40	48	4
NMSCR	40	48	4	96	48	6
NMTAP	40	96	3
NMTAP	40	144	2
CNSI_	40	192	6	0	48	0
NMTAP	40	240	1
NMHLD	40	288	1	96
NMTAP	41	0	2
NMSTR	41	48	3
NMSCL	41	48	3	96	48	1
NMTAP	41	96	4
NMTAP	41	144	5
CNSI_	41	192	1	0	48	7
NMTAP	41	240	6
NMHLD	41	288	6	96
NMTAP	42	0	5
NMSTR	42	48	4
NMSCR	42	48	4	96	48	6
NMTAP	42	96	3
NMTAP	42	144	2
CNSI_	42	192	6	0	48	0
NMTAP	42	240	1
NMHLD	42	288	1	96
NMTAP	43	0	3
NMTAP	43	48	2
NMTAP	43	48	4
NMTAP	43	96	3
NMTAP	43	96	5
NMTTP	43	144	5	E	0	M1
NMTTP	43	160	4	B	0	M1
NMTTP	43	176	2	B	0	M1
NMTTP	43	192	2	E	0	M1
NMTTP	43	240	0	C	0	M1
NMHLD	43	288	0	96
NMTAP	43	288	6
NMTAP	44	0	7
NMTAP	44	48	6
NMSTR	44	96	5
NMSI_	44	96	5	96	48	7
NMTAP	44	144	3
NMHLD	44	192	2	96
CNSI_	44	240	7	0	48	3
CNSI_	44	288	3	0	48	1
NMTAP	45	0	0
NMTAP	45	48	1
NMSTR	45	96	2
NMSI_	45	96	2	96	48	0
NMTAP	45	144	4
NMHLD	45	192	5	96
CNSI_	45	240	0	0	48	4
CNSI_	45	288	4	0	48	6
NMTAP	46	0	7
NMTAP	46	48	0
NMTAP	46	96	1
NMTAP	46	96	4
NMTAP	46	144	2
NMTAP	46	144	3
NMTAP	46	192	3
NMTAP	46	192	6
NMTAP	46	240	4
NMTAP	46	240	5
NMTAP	46	288	1
NMTAP	46	288	4
NMTAP	46	336	2
NMTAP	46	336	3
NMTTP	47	0	6	E	0	M1
NMTTP	47	0	6	A	0	M1
NMTTP	47	48	4	B	0	M1
NMTTP	47	48	5	E	0	M1
NMTTP	47	96	0	A	0	M1
NMTTP	47	96	1	E	0	M1
NMTTP	47	144	2	B	0	M1
NMTTP	47	144	2	E	0	M1
NMSTR	47	192	7
NMSF_	47	192	7	96	48	3
EXTAP	48	0	2
EXTAP	48	0	4
NMTAP	48	48	1
NMSTR	48	96	6
NMSI_	48	96	6	96	48	4
NMTAP	48	144	0
NMHLD	48	192	1	96
CNSI_	48	240	4	0	48	0
CNSI_	48	288	0	0	48	2
NMTAP	49	0	0
NMTAP	49	48	1
NMSTR	49	96	2
NMSI_	49	96	2	96	48	0
NMTAP	49	144	4
NMHLD	49	192	5	144
CNSI_	49	240	0	0	48	4
CNSI_	49	288	4	0	48	6
NMTAP	50	0	7
NMTAP	50	48	0
NMTAP	50	96	1
NMTAP	50	96	4
NMTAP	50	144	2
NMTAP	50	144	3
NMTAP	50	192	4
NMTAP	50	192	5
NMTAP	50	240	6
NMSTR	50	288	7
NMSLR	50	288	7	96	192	5
NMTAP	50	336	3
NMTAP	51	0	7
CNSI_	51	192	5	0	96	3
NMTAP	51	288	0
NMSTR	52	0	1
NMSI_	52	0	1	96	48	5
NMSTR	52	0	5
NMSI_	52	0	5	96	48	0
NMTAP	52	96	1
NMTAP	52	96	5
NMTAP	52	192	2
NMTAP	52	192	6
NMSTR	52	240	1
NMSI_	52	240	1	96	48	3
NMSTR	52	240	5
NMSCR	52	240	5	96	48	0
NMTAP	52	336	1
NMSTR	52	336	5
BRSXL	52	336	5	96	96	5
BXHLD	53	48	3	96
NMTAP	53	192	2
NMTAP	53	240	1
NMTAP	53	240	3
NMTAP	53	288	4
NMTAP	53	336	3
NMTAP	53	336	5
NMSTR	54	0	2
NMSI_	54	0	2	96	48	6
NMSTR	54	0	6
NMSI_	54	0	6	96	48	3
NMTAP	54	96	2
NMTAP	54	96	6
NMTAP	54	192	0
NMTAP	54	192	4
NMSTR	54	240	1
NMSI_	54	240	1	96	48	4
NMSTR	54	240	5
NMSI_	54	240	5	96	48	1
NMTAP	54	336	1
NMTAP	54	336	5
NMTAP	55	48	7
NMSTR	55	96	6
NMSCL	55	96	6	96	48	3
NMSTR	55	144	2
NMSI_	55	144	2	96	48	7
NMTAP	55	192	1
NMTTP	55	288	0	C	0	M1
NMSTR	56	0	2
NMSI_	56	0	2	96	48	4
NMSTR	56	0	6
NMSI_	56	0	6	96	48	0
NMTAP	56	96	2
NMTAP	56	96	6
NMTAP	56	192	3
NMTAP	56	192	7
NMSTR	56	240	2
NMSCL	56	240	2	96	48	7
NMSTR	56	240	6
NMSI_	56	240	6	96	48	3
NMTAP	56	336	2
NMSTR	56	336	6
BRSSL	56	336	6	96	96	2
BXHLD	57	48	0	96
NMTAP	57	192	1
NMTAP	57	240	0
NMTAP	57	240	2
NMTAP	57	288	4
NMTAP	57	336	3
NMTAP	57	336	5
NMSTR	58	0	2
NMSV_	58	0	2	96	48	7
NMSTR	58	0	6
NMSI_	58	0	6	96	48	3
NMTAP	58	96	2
NMTAP	58	96	6
NMTAP	58	192	0
NMTAP	58	192	4
NMTAP	58	240	1
NMTAP	58	240	3
NMTAP	58	288	2
NMTAP	58	288	4
NMTAP	58	336	3
NMTAP	58	336	5
BXTAP	59	0	1
EXTAP	59	0	7
NMTAP	59	48	3
NMTAP	59	96	0
BXTAP	59	96	6
NMTAP	59	144	4
BXTAP	59	192	2
NMTAP	59	192	7
NMTAP	59	240	3
NMSTR	59	288	0
BRSCR	59	288	0	96	24	3
BXTAP	59	288	6
NMTAP	59	336	4
BRTAP	60	0	0
BXHLD	60	0	5	144
BRTAP	60	72	0
NMTTP	60	80	7	A	0	M1
NMTTP	60	88	7	D	0	M1
NMTTP	60	96	6	A	0	M1
NMTTP	60	104	6	D	0	M1
BRTAP	60	144	0
BXTAP	60	152	1
BXTAP	60	160	2
BXTAP	60	168	3
BXTAP	60	176	4
NMTAP	60	240	6
NMSTR	60	288	7
BRSCL	60	288	7	96	24	4
NMTAP	60	336	3
BXHLD	61	0	2	144
BRTAP	61	0	7
BRTAP	61	72	7
NMTTP	61	80	0	A	0	M1
NMTTP	61	88	1	D	0	M1
NMTTP	61	96	1	A	0	M1
NMTTP	61	104	2	D	0	M1
BRTAP	61	144	7
BXTAP	61	152	6
BXTAP	61	160	5
BXTAP	61	168	4
BXTAP	61	176	3
NMTAP	61	240	1
NMTAP	61	288	0
NMTAP	61	288	4
NMTAP	61	336	5
NMHLD	62	0	2	72
NMHLD	62	0	6	72
NMTAP	62	96	2
NMTAP	62	96	6
NMTAP	62	144	3
NMTAP	62	144	5
NMTAP	62	192	2
NMTAP	62	192	4
NMTAP	62	240	1
NMTAP	62	288	3
NMTAP	62	288	5
NMTAP	62	336	7
NMTAP	63	0	0
BXTAP	63	0	6
NMTAP	63	48	3
BXTAP	63	96	1
NMTAP	63	96	7
NMTAP	63	144	4
BXTAP	63	192	0
NMTAP	63	192	6
NMTAP	63	240	3
BXTAP	63	288	1
NMSTR	63	288	7
BRSCL	63	288	7	96	24	4
BXHLD	64	0	2	144
BRTAP	64	0	7
BRTAP	64	72	7
NMTTP	64	88	0	A	0	M1
NMTTP	64	96	1	D	0	M1
NMTTP	64	104	1	A	0	M1
NMTTP	64	112	2	D	0	M1
BRTAP	64	144	7
BXTAP	64	152	6
BXTAP	64	160	5
BXTAP	64	168	4
BXTAP	64	176	3
NMTAP	64	240	1
NMSTR	64	288	0
BRSCR	64	288	0	96	24	3
NMTAP	64	336	4
BRTAP	65	0	0
BXHLD	65	0	5	144
BRTAP	65	72	0
NMTTP	65	80	7	A	0	M1
NMTTP	65	88	7	D	0	M1
NMTTP	65	96	6	A	0	M1
NMTTP	65	104	6	D	0	M1
BRTAP	65	144	0
BXTAP	65	152	1
BXTAP	65	160	2
BXTAP	65	168	3
BXTAP	65	176	4
NMTAP	65	240	6
NMTAP	65	288	1
NMTAP	65	288	7
NMTAP	65	336	5
NMTAP	66	0	3
NMHLD	66	0	6	72
NMTAP	66	72	4
NMTAP	66	96	5
NMTAP	66	144	2
NMTAP	66	144	3
NMTAP	66	192	1
NMTAP	66	192	4
NMTAP	66	240	0
NMTAP	66	288	6
NMTAP	66	288	7
NMTAP	66	336	5
NMTTP	67	0	3	B	0	M1
NMTTP	67	0	3	A	0	M1
NMTTP	67	0	4	B	0	M1
NMTTP	67	0	4	E	1	M1
NMTTP	67	0	4	A	0	M1
NMTTP	67	0	4	D	0	M1
NMTTP	67	96	0	B	0	M1
NMTTP	67	96	1	E	0	M1
NMTTP	67	96	1	A	0	M1
NMTTP	67	96	2	E	1	M1
NMTTP	67	96	2	A	0	M1
NMTTP	67	96	3	B	0	M1
NMTTP	67	96	3	E	0	M1
NMTTP	67	192	4	B	0	M1
NMTTP	67	192	5	E	0	M1
NMTTP	67	192	5	A	0	M1
NMTTP	67	192	6	E	1	M1
NMTTP	67	192	6	A	0	M1
NMTTP	67	192	7	B	0	M1
NMTTP	67	192	7	E	0	M1
NMTTP	67	288	0	C	1	M1
NMTTP	67	288	1	B	0	M1
NMTTP	67	288	2	B	0	M1
NMTTP	67	288	2	E	0	M1
NMTTP	67	288	2	D	0	M1
NMTTP	67	288	5	B	0	M1
NMTTP	67	288	6	B	0	M1
NMTTP	67	288	6	E	0	M1
NMTTP	67	288	6	D	0	M1
NMTAP	68	0	0
NMTAP	68	0	7
NMSTR	68	48	0
NMSCL	68	48	0	96	48	6
NMTAP	68	48	7
NMTAP	68	96	1
NMTAP	68	144	2
CNSI_	68	192	6	0	48	3
NMTAP	68	240	0
NMTAP	68	288	0
NMTAP	69	0	0
NMTAP	69	0	1
NMTAP	69	48	0
NMSTR	69	48	7
NMSI_	69	48	7	96	48	1
NMTAP	69	96	6
NMTAP	69	144	5
CNSCR	69	192	1	0	48	4
NMTAP	69	240	7
NMTAP	69	288	7
NMTAP	69	336	6
NMTAP	70	0	3
NMSTR	70	0	5
NMSI_	70	0	5	96	48	3
NMTAP	70	96	2
NMHLD	70	144	1	96
NMTAP	70	240	2
NMSTR	70	288	3
NMSI_	70	288	3	96	48	0
NMTAP	70	336	4
NMSTR	71	0	5
NMSI_	71	0	5	96	48	2
EXTAP	71	96	0
NMSTR	71	144	0
NMSCR	71	144	0	96	96	5
CNSI_	71	144	2	0	48	7
BRHLD	71	240	6	96
NMTAP	72	0	6
NMTAP	72	0	7
NMSTR	72	48	0
NMSCL	72	48	0	96	48	6
NMTAP	72	48	7
NMTAP	72	96	1
NMTAP	72	144	2
CNSI_	72	192	6	0	48	2
NMTAP	72	240	0
NMTAP	72	288	0
NMTAP	73	0	0
NMTAP	73	0	1
NMTAP	73	48	0
NMSTR	73	48	7
NMSCR	73	48	7	96	48	1
NMTAP	73	96	6
NMTAP	73	144	5
CNSI_	73	192	1	0	48	5
NMTAP	73	240	7
NMTAP	73	288	7
NMTAP	73	336	6
NMSTR	74	0	4
NMSXR	74	0	4	96	96	4
NMTAP	74	0	5
NMTAP	74	96	7
NMHLD	74	144	6	96
NMTAP	74	288	4
NMSTR	74	288	6
NMSI_	74	288	6	96	48	2
NMTAP	75	0	0
NMTAP	75	48	0
NMTAP	75	96	1
NMTAP	75	96	3
NMTAP	75	144	2
NMTAP	75	160	4
NMTAP	75	176	3
NMTAP	75	192	5
NMTAP	75	240	1
NMTAP	75	240	6
NMTTP	75	288	0	B	0	M1
NMTTP	75	288	0	C	0	M1
NMTTP	75	288	0	E	0	M1
NMTTP	75	288	0	A	0	M1
NMTTP	75	288	0	D	0	M1
NMTTP	75	288	3	B	0	M1
NMTTP	75	288	3	A	0	M1
NMTTP	75	288	4	B	0	M1
NMTTP	75	288	4	E	0	M1
NMTTP	75	288	4	A	0	M1
NMTTP	75	288	4	D	0	M1
NMTTP	75	288	7	B	0	M1
NMTTP	75	288	7	A	0	M1

T_REC_TAP	359
T_REC_BRK	27
T_REC_XTP	9
T_REC_BXX	32
T_REC_HLD	40
T_REC_XHO	0
T_REC_BHO	1
T_REC_BXH	14
T_REC_STR	80
T_REC_BST	0
T_REC_XST	0
T_REC_XBS	0
T_REC_TTP	151
T_REC_THO	1
T_REC_SLD	69
T_REC_BSL	12
T_REC_ALL	795
T_NUM_TAP	599
T_NUM_BRK	86
T_NUM_HLD	41
T_NUM_SLD	69
T_NUM_ALL	795
T_JUDGE_TAP	658
T_JUDGE_HLD	111
T_JUDGE_SLD	81
T_JUDGE_ALL	850
TTM_EACHPAIRS	136
TTM_SCR_TAP	299500
TTM_SCR_BRK	223600
TTM_SCR_HLD	41000
TTM_SCR_SLD	103500
TTM_SCR_ALL	667600
TTM_SCR_S	639250
TTM_SCR_SS	659000
TTM_RAT_ACV	10130

