VERSION	0.00.00	1.04.00
FES_MODE	0
BPM_DEF	137.000	137.000	137.000	137.000
MET_DEF	4	4
RESOLUTION	384
CLK_DEF	384
COMPATIBLE_CODE	MA2

BPM	0	0	137.000
MET	0	0	4	4

NMTAP	2	0	3
NMTAP	2	0	4
NMTAP	2	96	5
NMHLD	2	144	5	96
NMTAP	2	240	4
NMTAP	2	288	4
NMTAP	3	0	3
NMTAP	3	0	5
NMTAP	3	96	6
NMHLD	3	144	6	96
NMTAP	3	240	4
NMTAP	3	288	4
NMTAP	4	0	4
NMTAP	4	0	5
NMTAP	4	96	7
NMHLD	4	144	7	96
NMTAP	4	240	5
NMTAP	4	288	5
NMTAP	5	0	4
NMTAP	5	0	6
NMTAP	5	96	3
NMTAP	5	96	5
NMTAP	5	192	2
NMTAP	5	192	4
NMTAP	5	288	1
NMTAP	5	288	3
EXTAP	6	0	3
EXTAP	6	0	4
NMTAP	6	96	2
NMHLD	6	144	2	96
NMTAP	6	240	3
NMTAP	6	288	3
NMTAP	7	0	2
NMTAP	7	0	4
NMTAP	7	96	1
NMHLD	7	144	1	96
NMTAP	7	240	3
NMTAP	7	288	3
NMTAP	8	0	2
NMTAP	8	0	3
NMTAP	8	96	0
NMHLD	8	144	0	96
NMTAP	8	240	2
NMTAP	8	288	2
NMTAP	9	0	1
NMSTR	9	0	3
NMSI_	9	0	3	96	48	7
NMSTR	9	192	0
NMSI_	9	192	0	96	48	4
EXTAP	10	0	3
EXTAP	10	0	5
NMTAP	10	96	2
NMTAP	10	96	3
NMTAP	10	192	3
NMTAP	10	192	4
NMTAP	10	288	1
NMTAP	10	288	3
NMTAP	11	0	0
NMTAP	11	48	0
NMTAP	11	96	6
NMTAP	11	144	6
NMTAP	11	192	7
NMTAP	11	288	0
NMTAP	11	288	5
NMSTR	12	0	1
NMSCR	12	0	1	96	72	4
NMSTR	12	192	6
NMSUL	12	192	6	96	72	2
NMTAP	13	0	1
NMTAP	13	96	0
NMTAP	13	144	0
NMTAP	13	192	1
NMSTR	13	192	7
NMSI_	13	192	7	96	48	3
EXTAP	14	0	2
EXTAP	14	0	4
NMTAP	14	96	4
NMTAP	14	96	5
NMTAP	14	192	3
NMTAP	14	192	4
NMTAP	14	288	4
NMTAP	14	288	6
NMTAP	15	0	7
NMTAP	15	48	7
NMTAP	15	96	1
NMTAP	15	144	1
NMTAP	15	192	0
NMTAP	15	288	2
NMTAP	15	288	7
NMSTR	16	0	6
NMSCL	16	0	6	96	72	3
NMSTR	16	192	1
NMSUR	16	192	1	96	72	5
NMHLD	17	0	7	192
NMSTR	17	192	0
NMSI_	17	192	0	96	48	4
EXHLD	18	0	6	288
NMTAP	18	96	7
NMTAP	18	144	7
NMTAP	18	240	4
NMTAP	18	288	4
NMHLD	19	0	1	288
NMTAP	19	0	3
NMTAP	19	96	0
NMTAP	19	144	0
NMTAP	19	240	3
NMTAP	19	288	3
NMTAP	20	0	4
NMHLD	20	0	6	288
NMTAP	20	96	7
NMTAP	20	144	7
NMTAP	20	240	4
NMTAP	20	288	4
NMTAP	21	0	3
NMTAP	21	0	7
NMSTR	21	96	0
NMSI_	21	96	0	96	48	4
NMSTR	21	96	2
NMSI_	21	96	2	96	48	4
EXTAP	21	288	7
EXHLD	22	0	4	288
EXTAP	22	0	6
NMTAP	22	96	5
NMTAP	22	144	5
NMTAP	22	240	3
NMTAP	22	288	3
NMTAP	23	0	1
NMHLD	23	0	3	288
NMTAP	23	96	2
NMTAP	23	144	2
NMTAP	23	240	4
NMTAP	23	288	4
NMHLD	24	0	4	288
NMTAP	24	0	6
NMTAP	24	96	5
NMTAP	24	144	5
NMTAP	24	240	3
NMTAP	24	288	3
BRSTR	25	0	1
NMSI_	25	0	1	96	48	4
BRSTR	25	192	5
NMSI_	25	192	5	96	48	0
EXTAP	26	0	2
EXTAP	26	72	1
EXTAP	26	72	3
EXTAP	26	144	0
EXTAP	26	144	4
NMTAP	26	240	4
NMTAP	26	240	5
NMTAP	26	288	4
NMTAP	26	288	5
EXTAP	27	0	5
EXTAP	27	72	4
EXTAP	27	72	6
EXTAP	27	144	3
EXTAP	27	144	7
NMTAP	27	240	2
NMTAP	27	240	3
NMTAP	27	288	2
NMTAP	27	288	3
NMHLD	28	0	1	96
NMHLD	28	96	2	96
NMHLD	28	192	3	96
NMTAP	28	288	4
NMTAP	29	0	4
NMTAP	29	0	5
NMTAP	29	96	2
NMTAP	29	96	3
NMTAP	29	192	4
NMTAP	29	192	6
NMTAP	29	288	1
NMTAP	29	288	3
EXTAP	30	0	6
EXTAP	30	72	5
EXTAP	30	72	7
EXTAP	30	144	0
EXTAP	30	144	4
NMTAP	30	240	3
NMTAP	30	240	5
NMTAP	30	288	3
NMTAP	30	288	5
EXTAP	31	0	1
EXTAP	31	72	0
EXTAP	31	72	2
EXTAP	31	144	3
EXTAP	31	144	7
NMTAP	31	240	2
NMTAP	31	240	4
NMTAP	31	288	2
NMTAP	31	288	4
NMHLD	32	0	6	96
NMHLD	32	96	5	96
NMHLD	32	192	4	96
NMTAP	32	288	3
NMTAP	33	0	2
NMTAP	33	0	3
NMTAP	33	96	4
NMTAP	33	96	5
NMTAP	33	192	1
NMTAP	33	192	3
NMTAP	33	288	4
NMTAP	33	288	6
NMTAP	34	0	0
NMTAP	34	72	0
NMHLD	34	144	0	240
NMTAP	35	0	7
NMTAP	35	72	7
NMHLD	35	144	7	144
NMTTP	35	288	0	C	1	M1
EXTAP	36	0	0
EXTAP	36	0	7
NMTAP	36	96	1
NMHLD	36	144	1	96
NMTAP	36	240	0
NMTAP	36	288	0
NMTAP	37	0	1
NMTAP	37	0	7
NMTAP	37	96	6
NMHLD	37	144	6	96
NMTAP	37	240	7
NMTAP	37	288	7
NMTAP	38	0	0
NMTAP	38	0	6
NMTAP	38	96	2
NMHLD	38	144	2	96
NMTAP	38	240	3
NMTAP	38	288	3
NMTAP	39	0	1
NMTAP	39	0	4
NMTAP	39	96	0
NMTAP	39	192	3
NMTAP	39	192	6
NMTAP	39	288	7
EXTAP	40	0	0
EXTAP	40	0	7
NMTAP	40	96	6
NMHLD	40	144	6	96
NMTAP	40	240	7
NMTAP	40	288	7
NMTAP	41	0	0
NMTAP	41	0	6
NMTAP	41	96	1
NMHLD	41	144	1	96
NMTAP	41	240	0
NMTAP	41	288	0
NMTAP	42	0	1
NMTAP	42	0	7
NMTAP	42	96	5
NMHLD	42	144	5	96
NMTAP	42	240	4
NMTAP	42	288	4
NMTAP	43	0	3
NMTAP	43	0	6
NMTAP	43	96	5
NMTAP	43	192	1
NMTAP	43	192	4
NMTAP	43	288	2
EXTAP	44	0	3
EXTAP	44	0	4
NMTAP	44	96	4
NMTAP	44	96	5
NMHLD	44	192	6	48
NMHLD	44	288	5	48
NMHLD	44	288	7	48
EXTAP	45	0	3
EXTAP	45	0	4
NMTAP	45	96	2
NMTAP	45	96	3
NMHLD	45	192	1	48
NMHLD	45	288	0	48
NMHLD	45	288	2	48
EXTAP	46	0	3
EXTAP	46	0	4
NMTAP	46	96	4
NMTAP	46	96	5
NMTAP	46	192	6
NMTAP	46	240	6
NMTAP	46	288	7
NMTAP	47	0	1
NMTAP	47	48	1
NMSTR	47	96	0
NMSUL	47	96	0	96	96	4
NMSUR	47	96	0	96	96	4
EXTAP	48	0	3
EXTAP	48	0	5
NMTAP	48	96	1
NMTAP	48	96	3
NMHLD	48	192	7	48
NMHLD	48	288	0	48
NMHLD	48	288	6	48
EXTAP	49	0	2
EXTAP	49	0	4
NMTAP	49	96	4
NMTAP	49	96	6
NMHLD	49	192	0	48
NMHLD	49	288	1	48
NMHLD	49	288	7	48
EXTAP	50	0	3
EXTAP	50	0	5
NMTAP	50	96	2
NMTAP	50	96	4
NMHLD	50	192	1	48
NMHLD	50	192	3	48
NMHLD	50	288	4	48
NMHLD	50	288	6	48
NMSTR	51	0	7
NMSCL	51	0	7	96	72	4
NMSTR	51	192	0
NMSCR	51	192	0	96	72	3
BRHLD	52	0	6	240
NMTAP	52	96	4
NMTAP	52	144	4
NMTAP	52	240	0
NMTAP	52	288	1
NMTAP	52	288	7
EXTAP	53	0	3
EXHLD	53	0	5	240
NMTAP	53	96	4
NMTAP	53	144	4
NMTAP	53	240	0
NMTAP	53	288	1
NMTAP	53	288	7
NMHLD	54	0	4	240
NMTAP	54	96	3
NMTAP	54	144	3
NMTAP	54	240	0
NMTAP	54	288	1
NMTAP	54	288	7
NMTAP	55	0	3
NMTAP	55	0	4
NMSTR	55	96	0
NMSI_	55	96	0	96	48	4
NMSTR	55	96	6
NMSI_	55	96	6	96	48	4
EXTAP	55	288	7
BRHLD	56	0	1	240
BRTAP	56	0	5
NMTAP	56	96	3
NMTAP	56	144	3
NMTAP	56	240	7
NMTAP	56	288	0
NMTAP	56	288	6
EXHLD	57	0	2	240
EXTAP	57	0	4
NMTAP	57	96	3
NMTAP	57	144	3
NMTAP	57	240	7
NMTAP	57	288	0
NMTAP	57	288	6
NMHLD	58	0	3	240
NMTAP	58	96	4
NMTAP	58	144	4
NMTAP	58	240	7
NMTAP	58	288	0
NMTAP	58	288	6
NMTAP	59	0	1
NMTAP	59	48	1
NMTAP	59	96	4
NMTAP	59	144	4
NMTAP	59	192	3
NMTAP	59	240	3
NMTAP	59	288	6
NMTAP	59	336	6
EXTAP	60	0	4
EXTAP	60	0	5
EXTAP	60	72	3
EXTAP	60	72	6
BRTAP	60	144	0
BRTAP	60	144	4
NMTAP	60	240	6
NMTAP	60	240	7
NMTAP	60	288	6
NMTAP	60	288	7
EXTAP	61	0	2
EXTAP	61	0	3
EXTAP	61	72	1
EXTAP	61	72	4
BRTAP	61	144	3
BRTAP	61	144	7
NMTAP	61	240	0
NMTAP	61	240	1
NMTAP	61	288	0
NMTAP	61	288	1
NMHLD	62	0	6	96
NMHLD	62	96	4	96
NMHLD	62	192	2	96
NMTAP	62	288	0
NMTAP	63	0	1
NMTAP	63	0	3
NMTAP	63	96	4
NMTAP	63	96	5
NMTAP	63	192	2
NMTAP	63	192	3
NMTAP	63	288	4
NMTAP	63	288	6
EXTAP	64	0	0
EXTAP	64	0	1
EXTAP	64	72	2
EXTAP	64	72	7
BRTAP	64	144	0
BRTAP	64	144	4
NMTAP	64	240	2
NMTAP	64	240	3
NMTAP	64	288	2
NMTAP	64	288	3
EXTAP	65	0	6
EXTAP	65	0	7
EXTAP	65	72	0
EXTAP	65	72	5
BRTAP	65	144	3
BRTAP	65	144	7
NMTAP	65	240	4
NMTAP	65	240	5
NMTAP	65	288	4
NMTAP	65	288	5
NMHLD	66	0	1	96
NMHLD	66	96	3	96
NMHLD	66	192	5	96
NMTAP	66	288	7
NMTAP	67	0	4
NMTAP	67	0	6
NMTAP	67	96	0
NMTAP	67	96	1
NMTAP	67	192	6
NMTAP	67	192	7
NMTAP	67	288	1
NMSTR	67	288	3
NMSCL	67	288	3	96	288	4
NMTTP	68	0	0	C	1	M1
NMTAP	69	0	3
NMTAP	69	0	5
NMTAP	69	48	4
NMTAP	69	96	1
NMHLD	69	144	1	96
NMTAP	69	240	3
NMTAP	69	288	3
NMTAP	69	336	2
NMTAP	70	0	1
NMTAP	70	0	3
NMTAP	70	96	4
NMTAP	70	96	6
NMHLD	70	144	4	96
NMTAP	70	144	6
NMTAP	70	240	5
NMTAP	70	288	5
NMTAP	70	336	4
NMTAP	71	0	3
NMTAP	71	0	6
NMTAP	71	96	1
NMTAP	71	96	4
NMTAP	71	192	3
NMTAP	71	192	4
NMSTR	71	288	0
NMSCR	71	288	0	96	288	7
NMTAP	71	288	7
NMTTP	72	0	0	C	1	M1
NMTAP	73	0	2
NMTAP	73	0	4
NMTAP	73	48	3
NMTAP	73	96	6
NMHLD	73	144	6	96
NMTAP	73	240	4
NMTAP	73	288	4
NMTAP	73	336	5
NMTAP	74	0	4
NMTAP	74	0	6
NMTAP	74	96	1
NMTAP	74	96	3
NMTAP	74	144	1
NMHLD	74	144	3	96
NMTAP	74	240	2
NMTAP	74	288	2
NMTAP	74	336	3
NMTAP	75	0	2
NMTAP	75	0	4
NMTAP	75	96	1
NMTAP	75	96	5
NMSTR	75	192	0
NMSCR	75	192	0	96	48	3
NMSTR	75	192	6
NMSCL	75	192	6	96	48	3

T_REC_TAP	304
T_REC_BRK	9
T_REC_XTP	63
T_REC_HLD	55
T_REC_XHO	4
T_REC_STR	19
T_REC_BST	2
T_REC_XST	0
T_REC_TTP	3
T_REC_THO	0
T_REC_SLD	22
T_REC_ALL	481
T_NUM_TAP	389
T_NUM_BRK	11
T_NUM_HLD	59
T_NUM_SLD	22
T_NUM_ALL	481
T_JUDGE_TAP	400
T_JUDGE_HLD	150
T_JUDGE_SLD	22
T_JUDGE_ALL	572
TTM_EACHPAIRS	135
TTM_SCR_TAP	194500
TTM_SCR_BRK	28600
TTM_SCR_HLD	59000
TTM_SCR_SLD	33000
TTM_SCR_ALL	315100
TTM_SCR_S	304600
TTM_SCR_SS	314000
TTM_RAT_ACV	10035

