VERSION	0.00.00	1.04.00
FES_MODE	0
BPM_DEF	102.000	102.000	102.000	102.000
MET_DEF	4	4
RESOLUTION	384
CLK_DEF	384
COMPATIBLE_CODE	MA2

BPM	0	0	102.000
MET	0	0	4	4

NMSTR	1	0	1
NMSXR	1	0	1	96	144	4
NMHLD	1	96	5	192
BXTAP	1	288	3
NMSTR	2	0	6
NMSXL	2	0	6	96	144	3
NMHLD	2	96	2	192
NMTTP	2	288	2	B	0	M1
NMTTP	2	288	3	E	0	M1
NMSTR	3	0	1
NMSXR	3	0	1	96	144	4
NMHLD	3	96	5	192
BXTAP	3	288	3
NMSTR	4	0	5
NMSXR	4	0	5	96	144	0
NMHLD	4	96	2	192
NMTTP	4	288	1	B	0	M1
NMTTP	4	288	2	E	0	M1
NMTAP	5	0	7
NMTAP	5	48	6
NMTAP	5	96	3
NMTAP	5	96	5
NMTAP	5	192	0
NMTAP	5	240	1
NMTAP	5	288	2
NMTAP	5	288	4
NMSTR	6	0	3
NMSXL	6	0	3	96	96	4
NMTAP	6	48	3
NMTAP	6	96	5
CNSLL	6	192	4	0	48	0
NMSTR	6	192	7
NMSI_	6	192	7	96	48	3
NMTAP	6	288	7
NMTAP	7	0	0
NMTAP	7	48	1
NMTAP	7	96	2
NMTAP	7	96	4
NMTAP	7	192	7
NMTAP	7	240	6
NMTAP	7	288	3
NMTAP	7	288	5
NMSTR	8	0	4
NMSXR	8	0	4	96	96	3
NMTAP	8	48	4
NMTAP	8	96	3
NMSTR	8	192	0
NMSI_	8	192	0	96	48	4
CNSLR	8	192	3	0	48	7
NMTAP	8	288	0
NMTAP	9	0	4
NMTAP	9	0	6
NMTTP	9	96	5	A	0	M1
NMTTP	9	96	5	D	0	M1
NMTTP	9	96	6	A	0	M1
NMTTP	9	96	6	D	0	M1
NMTTP	9	96	7	D	0	M1
NMTAP	9	192	1
NMTAP	9	192	3
NMTTP	9	288	1	A	0	M1
NMTTP	9	288	1	D	0	M1
NMTTP	9	288	2	A	0	M1
NMTTP	9	288	2	D	0	M1
NMTTP	9	288	3	D	0	M1
NMTAP	10	0	4
NMTAP	10	0	6
NMTTP	10	96	5	A	0	M1
NMTTP	10	96	5	D	0	M1
NMTTP	10	96	6	A	0	M1
NMTTP	10	96	6	D	0	M1
NMTTP	10	96	7	D	0	M1
NMTAP	10	192	1
NMTAP	10	192	3
NMTTP	10	288	1	A	0	M1
NMTTP	10	288	1	D	0	M1
NMTTP	10	288	2	A	0	M1
NMTTP	10	288	2	D	0	M1
NMTTP	10	288	3	D	0	M1
NMSTR	11	0	1
NMSI_	11	0	1	96	48	5
NMSTR	11	0	7
NMSI_	11	0	7	96	48	3
NMTAP	11	48	2
NMTAP	11	48	6
NMSTR	11	192	0
NMSV_	11	192	0	96	48	3
NMSTR	11	192	6
NMSV_	11	192	6	96	48	3
NMTAP	11	240	1
NMTAP	11	240	5
NMTAP	12	0	0
NMTAP	12	0	6
NMTAP	12	48	0
NMTAP	12	48	6
NMSTR	12	96	1
NMSXR	12	96	1	96	96	0
NMSTR	12	96	5
NMSXR	12	96	5	96	96	4
NMTAP	12	144	1
NMTAP	12	144	5
NMTAP	12	336	4
NMTAP	12	368	4
NMTAP	13	0	2
NMTAP	13	32	2
NMTAP	13	48	3
NMTAP	13	80	3
NMTAP	13	96	1
NMTAP	13	128	1
NMTAP	13	144	5
NMTAP	13	176	5
NMTAP	13	192	3
NMTAP	13	224	3
NMTAP	13	240	6
NMTAP	13	272	6
EXSTR	13	288	4
NMSCL	13	288	4	96	48	1
NMSTR	14	0	5
NMSCR	14	0	5	96	48	7
NMTAP	14	48	5
NMSTR	14	96	0
NMSI_	14	96	0	96	48	4
NMTAP	14	144	0
NMHLD	14	192	7	96
NMTAP	14	288	1
NMTAP	14	320	1
NMTAP	14	368	2
NMTAP	14	368	3
NMTAP	15	32	6
NMTAP	15	80	4
NMTAP	15	80	5
NMTAP	15	128	0
NMTAP	15	176	2
NMTAP	15	176	4
NMTAP	15	224	7
NMTAP	15	272	3
NMTAP	15	272	5
NMTAP	15	320	0
NMTAP	15	336	7
NMTAP	15	368	7
NMTAP	16	0	0
NMTAP	16	32	0
NMTAP	16	48	5
NMTAP	16	80	5
NMTAP	16	96	3
NMTAP	16	128	2
NMTAP	16	128	6
EXTAP	16	176	4
BXSTR	16	192	3
BRSCL	16	192	3	96	48	0
BRSCR	16	192	3	96	48	7
BXTAP	16	224	2
BXTAP	16	224	5
BXTAP	16	256	2
BXTAP	16	256	5
NMTAP	17	0	0
NMTAP	17	0	7
NMTTP	17	48	0	C	0	M1
NMTTP	17	48	2	B	0	M1
NMTTP	17	48	2	A	0	M1
NMTTP	17	48	3	B	0	M1
NMTTP	17	48	3	A	0	M1
NMTTP	17	48	3	D	0	M1
NMTAP	17	96	0
NMTAP	17	96	7
NMTTP	17	144	0	C	0	M1
NMTTP	17	144	4	B	0	M1
NMTTP	17	144	4	A	0	M1
NMTTP	17	144	5	B	0	M1
NMTTP	17	144	5	A	0	M1
NMTTP	17	144	5	D	0	M1
NMTAP	17	192	1
NMTAP	17	192	7
NMTAP	17	224	1
NMTAP	17	224	7
NMTAP	17	272	0
NMTAP	17	272	6
NMTAP	17	288	0
NMTAP	17	288	6
NMTAP	17	336	7
NMTAP	17	368	7
NMTAP	18	0	0
NMTAP	18	48	2
NMTAP	18	48	4
NMTAP	18	96	3
NMTAP	18	96	5
NMTAP	18	144	4
NMTAP	18	144	6
BXTAP	18	192	6
BRTAP	18	192	7
BXTAP	18	224	4
BRTAP	18	224	5
BXTAP	18	256	2
BRTAP	18	256	3
BXTAP	18	288	0
BRTAP	18	288	1
NMSTR	19	0	5
NMSCR	19	0	5	96	48	0
NMTAP	19	32	5
NMTAP	19	48	4
EXTAP	19	96	3
EXTAP	19	144	3
NMSTR	19	192	2
NMSCL	19	192	2	96	48	7
NMTAP	19	224	2
NMTAP	19	240	3
EXTAP	19	288	4
EXTAP	19	336	4
NMTAP	20	0	4
NMSTR	20	0	5
BRSI_	20	0	5	96	48	7
NMTAP	20	48	3
NMTAP	20	48	4
NMTAP	20	96	4
NMTAP	20	96	5
NMTAP	20	144	3
NMSTR	20	192	2
NMSCL	20	192	2	96	48	0
NMTAP	20	224	2
NMTAP	20	240	3
EXTAP	20	272	3
EXTAP	20	288	2
NMTAP	21	0	0
NMTAP	21	0	7
NMTTP	21	48	0	C	0	M1
NMTTP	21	48	4	B	0	M1
NMTTP	21	48	4	A	0	M1
NMTTP	21	48	5	B	0	M1
NMTTP	21	48	5	A	0	M1
NMTTP	21	48	5	D	0	M1
NMTAP	21	96	0
NMTAP	21	96	7
NMTTP	21	144	0	C	0	M1
NMTTP	21	144	2	B	0	M1
NMTTP	21	144	2	A	0	M1
NMTTP	21	144	3	B	0	M1
NMTTP	21	144	3	A	0	M1
NMTTP	21	144	3	D	0	M1
NMTAP	21	192	0
NMTAP	21	192	6
NMTAP	21	224	0
NMTAP	21	224	6
NMTAP	21	272	1
NMTAP	21	272	7
NMTAP	21	288	1
NMTAP	21	288	7
NMTAP	21	336	0
NMTAP	21	368	0
NMTAP	22	0	7
NMTAP	22	48	4
NMTAP	22	48	6
NMTAP	22	96	3
EXSTR	22	96	5
NMSCR	22	96	5	96	96	1
NMTAP	22	144	2
NMTAP	22	144	4
NMTAP	22	192	2
NMTAP	22	224	3
NMTAP	22	256	4
NMTAP	22	288	5
NMSTR	23	0	2
NMSI_	23	0	2	96	48	7
NMTAP	23	32	2
NMTAP	23	48	3
EXTAP	23	96	4
EXTAP	23	144	4
CNSI_	23	144	7	0	48	3
NMSTR	23	192	5
NMSI_	23	192	5	96	48	0
NMTAP	23	224	5
NMTAP	23	240	4
EXTAP	23	288	3
CNSI_	23	336	0	0	48	4
EXTAP	23	336	3
NMSTR	24	0	2
NMSUL	24	0	2	96	96	1
NMTAP	24	48	3
EXTAP	24	96	4
EXTAP	24	144	5
CNSLL	24	192	1	0	48	5
EXTAP	24	192	6
CNSI_	24	240	5	0	48	3
BRTAP	24	336	0
BRTAP	24	336	7
BRTAP	24	368	0
BRTAP	24	368	7
NMTAP	25	80	5
NMTAP	25	96	4
NMTAP	25	128	2
NMTAP	25	144	3
NMHLD	25	176	1	208
NMTTP	25	192	3	A	0	M1
NMTTP	25	192	4	D	0	M1
NMTTP	25	240	5	E	0	M1
NMTTP	25	240	5	D	0	M1
NMTTP	25	288	2	B	0	M1
NMTTP	25	288	2	E	0	M1
NMTTP	25	336	0	D	0	M1
NMTTP	25	336	7	A	0	M1
NMTAP	26	0	5
NMTAP	26	80	2
NMTAP	26	96	3
NMTAP	26	128	5
NMTAP	26	144	4
NMHLD	26	176	6	208
NMTTP	26	192	4	A	0	M1
NMTTP	26	192	4	D	0	M1
NMTTP	26	240	3	E	0	M1
NMTTP	26	240	3	D	0	M1
NMTTP	26	288	5	B	0	M1
NMTTP	26	288	6	E	0	M1
NMTTP	26	336	0	A	0	M1
NMTTP	26	336	0	D	0	M1
NMTAP	27	0	2
NMTAP	27	80	5
NMTAP	27	96	4
NMTAP	27	128	2
NMTAP	27	144	3
NMHLD	27	176	1	208
NMTTP	27	192	3	A	0	M1
NMTTP	27	192	4	D	0	M1
NMTTP	27	240	5	E	0	M1
NMTTP	27	240	5	D	0	M1
NMTTP	27	288	2	B	0	M1
NMTTP	27	288	2	E	0	M1
NMTTP	27	336	0	D	0	M1
NMTTP	27	336	7	A	0	M1
NMTAP	28	0	6
NMTAP	28	80	2
NMTAP	28	96	3
NMTAP	28	128	5
NMTAP	28	144	4
NMHLD	28	176	6	208
NMTTP	28	192	4	A	0	M1
NMTTP	28	192	4	D	0	M1
NMTTP	28	240	3	E	0	M1
NMTTP	28	240	3	D	0	M1
NMTTP	28	288	5	B	0	M1
NMTTP	28	288	6	E	0	M1
NMTTP	28	336	0	A	0	M1
NMTTP	28	336	0	D	0	M1
BXTAP	29	0	1
NMHLD	29	80	2	96
NMHLD	29	96	3	48
NMHLD	29	176	5	96
NMHLD	29	192	4	48
NMHLD	29	272	2	96
NMHLD	29	288	3	48
NMTAP	29	368	5
NMSTR	30	0	4
NMSXR	30	0	4	96	96	6
NMTAP	30	80	6
NMHLD	30	96	6	96
CNSCR	30	192	6	0	48	1
EXTAP	30	288	3
EXTAP	30	288	5
NMTAP	30	368	0
NMTAP	31	32	2
NMTAP	31	48	3
NMTAP	31	80	1
NMTAP	31	96	0
NMTAP	31	128	6
NMTAP	31	144	7
NMTAP	31	176	5
NMSTR	31	192	4
NMSCR	31	192	4	96	48	7
NMTAP	31	240	3
NMTAP	31	240	5
NMSTR	31	288	4
NMSCL	31	288	4	96	48	1
NMTAP	31	336	3
NMSTR	32	0	4
NMSXL	32	0	4	96	96	3
NMTAP	32	48	5
NMHLD	32	96	0	96
EXTAP	32	224	2
EXTAP	32	240	2
EXTAP	32	288	1
EXTAP	32	288	3
NMHLD	32	368	1	96
NMHLD	33	0	0	48
NMHLD	33	80	6	96
NMHLD	33	96	7	48
NMHLD	33	176	2	96
NMHLD	33	192	3	48
NMHLD	33	272	5	96
NMHLD	33	288	4	48
NMTAP	33	368	2
NMSTR	34	0	3
NMSXL	34	0	3	96	96	1
NMTAP	34	80	1
NMHLD	34	96	1	96
CNSCL	34	192	1	0	48	6
NMTAP	34	288	6
NMTAP	34	288	7
NMTAP	34	320	5
NMTAP	34	352	3
NMTAP	34	352	4
NMTAP	35	0	2
NMTAP	35	32	0
NMTAP	35	32	1
NMTAP	35	64	7
NMTAP	35	96	4
NMSTR	35	96	5
NMSXL	35	96	5	96	96	3
NMTAP	35	128	6
NMHLD	35	160	7	128
NMTAP	36	0	6
NMTAP	36	32	6
NMTAP	36	48	4
NMTAP	36	80	4
NMTAP	36	96	3
NMTAP	36	128	3
NMTAP	36	144	1
NMTAP	36	176	1
NMTAP	36	192	6
NMTAP	36	224	6
NMTAP	36	240	7
NMTAP	36	272	7
NMTAP	36	288	0
NMTAP	36	320	0
NMTAP	36	336	1
NMTAP	36	368	1
NMTAP	37	0	6
NMTAP	37	32	6
NMTAP	37	48	4
NMTAP	37	80	4
NMTAP	37	96	3
NMTAP	37	128	3
NMTAP	37	144	1
NMTAP	37	176	1
NMTAP	37	192	5
NMTAP	37	224	5
NMTAP	37	240	3
NMTAP	37	272	3
NMSTR	37	288	4
NMSUL	37	288	4	96	96	3
NMTAP	37	336	2
NMTAP	37	336	5
BXSTR	38	192	0
BRSCR	38	192	0	96	48	3
BXSTR	38	192	7
BRSCL	38	192	7	96	48	4
BRTAP	38	224	3
BRTAP	38	224	4
BRTAP	38	256	1
BRTAP	38	256	6
BRTAP	38	288	0
BRTAP	38	288	7
NMTAP	39	0	1
NMTAP	39	0	7
NMTTP	39	48	0	C	0	M1
NMTTP	39	48	4	B	0	M1
NMTTP	39	48	4	A	0	M1
NMTTP	39	48	5	B	0	M1
NMTTP	39	48	5	A	0	M1
NMTTP	39	48	5	D	1	M1
NMTAP	39	96	0
NMTAP	39	96	6
NMTTP	39	144	0	C	0	M1
NMTTP	39	144	2	B	0	M1
NMTTP	39	144	2	A	0	M1
NMTTP	39	144	3	B	0	M1
NMTTP	39	144	3	A	0	M1
NMTTP	39	144	3	D	1	M1
NMTAP	39	192	7
NMTAP	39	224	7
EXTAP	39	240	1
NMTAP	39	272	1
NMTAP	39	288	3
NMTAP	39	320	3
EXTAP	39	336	5
NMTAP	39	368	5
NMTAP	40	0	7
EXTAP	40	48	4
EXTAP	40	48	6
NMTAP	40	96	2
NMTAP	40	96	4
EXTAP	40	144	1
EXTAP	40	144	3
BXTAP	40	192	0
BRTAP	40	192	1
BXTAP	40	224	2
BRTAP	40	224	3
BXTAP	40	256	4
BRTAP	40	256	5
BXTAP	40	288	6
BRTAP	40	288	7
EXTAP	40	336	3
EXTAP	40	336	4
NMSTR	41	0	2
NMSCL	41	0	2	96	48	7
NMTAP	41	32	1
EXTAP	41	48	5
NMTAP	41	96	3
EXTAP	41	144	3
NMSTR	41	192	5
NMSCR	41	192	5	96	48	0
NMTAP	41	224	6
EXTAP	41	240	2
NMTAP	41	288	4
EXTAP	41	336	4
BRSTR	42	0	2
BRSI_	42	0	2	96	48	0
NMTAP	42	0	5
EXTAP	42	48	3
EXTAP	42	48	4
NMTAP	42	96	2
NMTAP	42	96	5
EXTAP	42	144	4
NMTAP	42	192	3
NMSTR	42	192	5
NMSCR	42	192	5	96	48	0
NMTAP	42	224	3
NMTAP	42	224	5
EXTAP	42	272	4
NMTAP	43	0	0
NMTAP	43	0	6
NMTTP	43	48	0	C	0	M1
NMTTP	43	48	2	B	0	M1
NMTTP	43	48	2	A	0	M1
NMTTP	43	48	3	B	0	M1
NMTTP	43	48	3	A	0	M1
NMTTP	43	48	3	D	0	M1
NMTAP	43	96	1
NMTAP	43	96	7
NMTTP	43	144	0	C	0	M1
NMTTP	43	144	4	B	0	M1
NMTTP	43	144	4	A	0	M1
NMTTP	43	144	5	B	0	M1
NMTTP	43	144	5	A	0	M1
NMTTP	43	144	5	D	0	M1
NMTAP	43	192	0
NMTAP	43	192	1
NMTAP	43	224	2
NMTAP	43	224	7
NMTAP	43	272	3
NMTAP	43	272	5
NMSTR	43	288	2
NMSXL	43	288	2	96	96	2
NMTAP	43	288	6
NMTTP	44	0	0	C	1	M1
EXSTR	44	96	6
NMSCR	44	96	6	96	96	2
NMTAP	44	192	2
NMTAP	44	224	3
NMTAP	44	256	4
NMTAP	44	288	5
NMSTR	45	0	5
NMSI_	45	0	5	96	48	0
NMTAP	45	32	5
NMTAP	45	48	4
EXTAP	45	96	3
CNSUL	45	144	0	0	48	4
EXTAP	45	144	3
NMSTR	45	192	2
NMSI_	45	192	2	96	48	7
NMTAP	45	224	2
NMTAP	45	240	3
EXTAP	45	288	4
EXTAP	45	336	4
CNSUR	45	336	7	0	48	3
NMSTR	46	0	5
NMSUR	46	0	5	96	96	6
NMTAP	46	48	4
EXTAP	46	96	3
EXTAP	46	144	2
EXTAP	46	192	1
CNSLR	46	192	6	0	48	2
CNSI_	46	240	2	0	48	4
NMTAP	46	336	0
NMTAP	46	336	7
NMTAP	46	368	0
NMTAP	46	368	7
BRTAP	47	48	1
BRTAP	47	48	6
NMTAP	47	96	5
NMTAP	47	128	5
NMTAP	47	144	7
NMTAP	47	176	7
NMTAP	47	192	0
NMTAP	47	224	0
NMTAP	47	240	2
NMTAP	47	272	2
NMTAP	47	288	7
NMTAP	47	320	7
NMTAP	47	336	0
NMSTR	48	0	1
NMSI_	48	0	1	96	48	6
NMTAP	48	0	4
NMTAP	48	48	1
NMSTR	48	48	4
NMSI_	48	48	4	96	48	7
NMSTR	48	96	1
NMSXL	48	96	1	96	96	4
NMTAP	48	192	1
EXTAP	48	288	7
NMHLD	49	0	1	48
NMHLD	49	48	3	48
NMHLD	49	96	4	48
NMTAP	49	144	6
NMHLD	49	192	6	48
NMHLD	49	240	4	48
NMHLD	49	288	3	48
NMTAP	49	336	1
NMSTR	50	0	0
NMSCR	50	0	0	96	48	3
NMTAP	50	48	3
NMTAP	50	96	0
NMSTR	50	96	4
NMSI_	50	96	4	96	48	0
NMTAP	50	144	5
NMTAP	50	192	4
NMTAP	50	192	6
NMSTR	50	288	7
NMSXL	50	288	7	96	96	2
NMTAP	50	300	6
NMTAP	50	312	5
NMTAP	50	324	4
NMTAP	50	336	3
NMTAP	50	348	2
NMTAP	50	360	1
NMTAP	50	372	0
NMTAP	51	0	7
CNSLL	51	96	2	0	48	6
CNSI_	51	144	6	0	48	4
NMTAP	51	240	6
NMTAP	51	272	6
NMTAP	51	288	5
NMTAP	51	288	7
NMTAP	51	336	1
NMTAP	51	368	1
NMTAP	52	0	0
NMTAP	52	0	2
NMTAP	52	48	6
NMTAP	52	48	7
NMTAP	52	96	1
NMTAP	52	96	4
NMTAP	52	144	0
NMTAP	52	176	0
NMSTR	52	192	1
NMSI_	52	192	1	96	48	4
NMSTR	52	192	7
NMSI_	52	192	7	96	48	4
NMTAP	52	240	2
NMTAP	52	240	6
EXTAP	52	288	1
EXTAP	52	288	7
NMSTR	53	0	2
NMSI_	53	0	2	96	48	0
NMSTR	53	0	3
NMSI_	53	0	3	96	48	7
NMTAP	53	32	1
NMTAP	53	32	4
NMTAP	53	48	1
NMTAP	53	48	4
BXTAP	53	96	2
BXTAP	53	96	3
NMSTR	53	192	4
NMSI_	53	192	4	96	48	0
NMSTR	53	192	5
NMSI_	53	192	5	96	48	7
NMTAP	53	224	3
NMTAP	53	224	6
NMTAP	53	240	3
NMTAP	53	240	6
BXTAP	53	288	4
BXTAP	53	288	5
NMTAP	54	0	0
NMTAP	54	0	7
NMTAP	54	32	1
NMTAP	54	32	3
NMTAP	54	64	4
NMTAP	54	64	6
NMTAP	54	96	0
NMTAP	54	96	7
NMTAP	54	128	1
NMTAP	54	128	3
NMTAP	54	160	4
NMTAP	54	160	6
NMSTR	54	192	0
NMSI_	54	192	0	96	48	4
NMSTR	54	192	7
NMSI_	54	192	7	96	48	3
NMSTR	54	288	0
NMSCR	54	288	0	96	32	3
NMSTR	54	288	7
NMSCL	54	288	7	96	32	4
NMTTP	55	8	1	D	0	M1
NMTTP	55	8	7	D	0	M1
NMTTP	55	16	2	D	0	M1
NMTTP	55	16	6	D	0	M1
NMTTP	55	24	3	D	0	M1
NMTTP	55	24	5	D	0	M1

T_REC_TAP	329
T_REC_BRK	20
T_REC_XTP	46
T_REC_BXX	19
T_REC_HLD	33
T_REC_XHO	0
T_REC_BHO	0
T_REC_BXH	0
T_REC_STR	53
T_REC_BST	1
T_REC_XST	3
T_REC_XBS	3
T_REC_TTP	111
T_REC_THO	0
T_REC_SLD	55
T_REC_BSL	6
T_REC_ALL	679
T_NUM_TAP	542
T_NUM_BRK	49
T_NUM_HLD	33
T_NUM_SLD	55
T_NUM_ALL	679
T_JUDGE_TAP	585
T_JUDGE_HLD	144
T_JUDGE_SLD	61
T_JUDGE_ALL	790
TTM_EACHPAIRS	113
TTM_SCR_TAP	271000
TTM_SCR_BRK	127400
TTM_SCR_HLD	33000
TTM_SCR_SLD	82500
TTM_SCR_ALL	513900
TTM_SCR_S	493750
TTM_SCR_SS	509000
TTM_RAT_ACV	10096

