VERSION	0.00.00	1.04.00
FES_MODE	0
BPM_DEF	102.000	102.000	102.000	102.000
MET_DEF	4	4
RESOLUTION	384
CLK_DEF	384
COMPATIBLE_CODE	MA2

BPM	0	0	102.000
MET	0	0	4	4

NMHLD	1	0	1	96
NMTAP	1	0	4
NMSTR	1	96	3
NMSI_	1	96	3	96	48	7
CNSI_	1	240	7	0	48	4
NMTAP	1	288	2
NMTAP	2	0	3
NMHLD	2	0	6	96
NMSTR	2	96	4
NMSV_	2	96	4	96	48	3
CNSI_	2	240	3	0	48	0
NMTAP	2	288	5
NMHLD	3	0	1	96
NMTAP	3	0	4
NMSTR	3	96	3
NMSI_	3	96	3	96	48	7
CNSCL	3	240	7	0	48	4
NMTAP	3	288	2
NMTAP	4	0	3
NMHLD	4	0	6	96
NMTAP	4	96	4
NMTAP	4	192	3
NMTAP	4	192	4
BRTAP	4	288	1
BRTAP	4	288	6
NMTAP	5	0	2
NMHLD	5	48	2	144
NMTAP	5	96	3
NMTAP	5	192	3
NMTAP	5	240	3
NMTAP	5	240	4
NMTAP	5	288	4
NMHLD	5	288	5	96
NMTAP	6	0	4
NMTAP	6	48	3
NMTAP	6	48	4
NMHLD	6	96	2	96
NMTAP	6	96	3
NMSTR	6	192	3
NMSI_	6	192	3	96	48	0
NMTAP	6	240	3
NMTAP	6	240	4
NMTAP	6	288	5
NMTAP	7	0	5
NMHLD	7	48	5	144
NMTAP	7	96	4
NMTAP	7	192	4
NMTAP	7	240	3
NMTAP	7	240	4
NMHLD	7	288	2	96
NMTAP	7	288	3
NMTAP	8	0	3
NMTAP	8	48	3
NMTAP	8	48	4
NMTAP	8	96	4
NMHLD	8	96	5	96
NMSTR	8	192	4
NMSI_	8	192	4	96	48	7
NMTAP	8	240	3
NMTAP	8	240	4
NMTAP	8	288	2
NMHLD	9	0	0	48
NMHLD	9	0	7	48
NMHLD	9	96	0	48
NMHLD	9	96	1	48
NMHLD	9	192	0	48
NMHLD	9	192	7	48
NMHLD	9	288	6	48
NMHLD	9	288	7	48
NMHLD	10	0	4	48
NMHLD	10	0	5	48
NMHLD	10	96	3	48
NMHLD	10	96	4	48
NMHLD	10	192	2	48
NMHLD	10	192	3	48
NMTAP	10	288	3
NMTAP	10	288	4
NMSTR	11	0	1
NMSI_	11	0	1	96	48	5
NMSTR	11	0	7
NMSI_	11	0	7	96	48	3
NMTAP	11	48	1
NMTAP	11	48	7
NMSTR	11	192	0
NMSV_	11	192	0	96	48	3
NMSTR	11	192	6
NMSV_	11	192	6	96	48	3
NMTAP	11	240	0
NMTAP	11	240	6
NMTAP	12	0	1
NMTAP	12	0	7
NMTAP	12	48	1
NMTAP	12	48	7
NMTAP	12	96	2
NMTAP	12	96	6
NMTAP	12	144	2
NMTAP	12	144	6
NMTAP	12	192	3
NMTAP	12	192	5
NMTAP	12	240	3
NMTAP	12	240	5
NMSTR	12	288	4
NMSCR	12	288	4	96	48	7
NMSTR	13	0	3
NMSCL	13	0	3	96	48	0
NMSTR	13	96	7
NMSCL	13	96	7	96	48	4
NMSTR	13	192	0
NMSCR	13	192	0	96	48	3
NMTAP	13	288	4
NMTAP	14	0	3
NMTAP	14	0	5
NMTAP	14	48	6
NMTAP	14	96	7
NMTAP	14	144	0
NMTAP	14	192	1
NMTAP	14	240	2
NMTAP	14	288	3
NMTAP	14	288	4
NMTAP	14	336	5
NMTAP	15	0	4
NMTAP	15	0	6
NMTAP	15	48	2
NMTAP	15	96	1
NMTAP	15	96	3
NMTAP	15	144	5
NMTAP	15	192	4
NMTAP	15	192	6
NMTAP	15	240	2
NMTAP	15	288	1
NMTAP	15	288	3
NMTAP	15	336	5
NMTAP	16	0	5
NMTAP	16	48	3
NMTAP	16	96	3
NMTAP	16	96	4
EXTAP	16	192	0
EXTAP	16	192	7
EXTAP	16	224	0
EXTAP	16	224	7
EXTAP	16	256	0
EXTAP	16	256	7
BRTAP	16	288	1
BRTAP	16	288	6
NMSTR	17	0	1
NMSI_	17	0	1	96	48	4
NMTAP	17	48	1
NMSTR	17	96	5
NMSI_	17	96	5	96	48	0
NMTAP	17	144	5
NMSTR	17	192	3
NMSI_	17	192	3	96	48	7
NMTAP	17	240	3
NMTAP	17	288	4
NMTAP	17	336	5
NMTAP	18	0	6
NMTAP	18	48	7
NMSTR	18	96	0
NMSSL	18	96	0	96	96	4
NMTAP	18	144	1
NMSTR	19	0	1
NMSI_	19	0	1	96	48	5
NMTAP	19	48	1
NMSTR	19	96	6
NMSI_	19	96	6	96	48	2
NMTAP	19	144	6
NMSTR	19	192	0
NMSI_	19	192	0	96	48	3
NMTAP	19	240	0
NMSTR	19	288	7
NMSI_	19	288	7	96	48	4
NMTAP	19	336	7
NMTAP	20	0	3
NMTAP	20	48	2
NMTAP	20	96	1
NMTAP	20	144	0
NMSTR	20	192	0
NMSCR	20	192	0	96	48	3
NMSTR	20	192	7
NMSCL	20	192	7	96	48	4
NMTAP	20	240	0
NMTAP	20	240	7
NMSTR	21	0	6
NMSI_	21	0	6	96	48	3
NMTAP	21	48	6
NMSTR	21	96	2
NMSI_	21	96	2	96	48	7
NMTAP	21	144	2
NMSTR	21	192	4
NMSI_	21	192	4	96	48	0
NMTAP	21	240	4
NMTAP	21	288	3
NMTAP	21	336	2
NMTAP	22	0	1
NMTAP	22	48	0
NMSTR	22	96	7
NMSSR	22	96	7	96	96	3
NMTAP	22	144	6
NMSTR	23	0	6
NMSI_	23	0	6	96	48	2
NMTAP	23	48	6
NMSTR	23	96	1
NMSI_	23	96	1	96	48	5
NMTAP	23	144	1
NMSTR	23	192	7
NMSI_	23	192	7	96	48	4
NMTAP	23	240	7
NMSTR	23	288	0
NMSI_	23	288	0	96	48	3
NMTAP	23	336	0
NMTAP	24	0	4
NMTAP	24	48	5
NMTAP	24	96	6
NMTAP	24	144	7
NMTAP	24	192	0
NMTAP	24	192	7
NMSTR	24	240	0
NMSCR	24	240	0	96	48	3
NMSTR	24	240	7
NMSCL	24	240	7	96	48	4
EXTAP	24	288	1
EXTAP	24	288	6
NMTAP	25	96	3
NMTAP	25	96	5
NMTTP	25	192	5	A	0	M1
NMTTP	25	192	6	A	0	M1
NMTTP	25	192	6	D	0	M1
NMTTP	25	240	4	B	0	M1
NMTTP	25	240	5	B	0	M1
NMTTP	25	240	6	B	0	M1
NMTTP	25	288	1	B	0	M1
NMTTP	25	288	2	B	0	M1
NMTTP	25	288	3	B	0	M1
NMTTP	25	336	1	A	0	M1
NMTTP	25	336	2	A	0	M1
NMTTP	25	336	2	D	0	M1
NMTAP	26	0	7
NMTAP	26	96	2
NMTAP	26	96	4
NMTTP	26	192	1	A	0	M1
NMTTP	26	192	2	A	0	M1
NMTTP	26	192	2	D	0	M1
NMTTP	26	240	1	B	0	M1
NMTTP	26	240	2	B	0	M1
NMTTP	26	240	3	B	0	M1
NMTTP	26	288	4	B	0	M1
NMTTP	26	288	5	B	0	M1
NMTTP	26	288	6	B	0	M1
NMTTP	26	336	5	A	0	M1
NMTTP	26	336	6	A	0	M1
NMTTP	26	336	6	D	0	M1
NMTAP	27	0	0
NMTAP	27	96	3
NMTAP	27	96	5
NMTTP	27	192	5	A	0	M1
NMTTP	27	192	6	A	0	M1
NMTTP	27	192	6	D	0	M1
NMTTP	27	240	4	B	0	M1
NMTTP	27	240	5	B	0	M1
NMTTP	27	240	6	B	0	M1
NMTTP	27	288	1	B	0	M1
NMTTP	27	288	2	B	0	M1
NMTTP	27	288	3	B	0	M1
NMTTP	27	336	1	A	0	M1
NMTTP	27	336	2	A	0	M1
NMTTP	27	336	2	D	0	M1
NMTAP	28	0	7
NMTAP	28	96	2
NMTAP	28	96	4
NMTTP	28	192	1	A	0	M1
NMTTP	28	192	2	A	0	M1
NMTTP	28	192	2	D	0	M1
NMTTP	28	240	1	B	0	M1
NMTTP	28	240	2	B	0	M1
NMTTP	28	240	3	B	0	M1
NMTTP	28	288	4	B	0	M1
NMTTP	28	288	5	B	0	M1
NMTTP	28	288	6	B	0	M1
NMTTP	28	336	5	A	0	M1
NMTTP	28	336	6	A	0	M1
NMTTP	28	336	6	D	0	M1
NMHLD	29	0	0	80
NMTAP	29	80	7
NMHLD	29	96	7	80
NMTAP	29	176	6
NMHLD	29	192	6	80
NMTAP	29	272	5
NMHLD	29	288	5	80
NMTAP	29	368	4
NMHLD	30	0	4	80
NMTAP	30	80	3
NMHLD	30	96	3	80
NMTAP	30	176	2
NMTAP	30	192	2
NMTAP	30	240	2
NMTAP	30	240	3
NMTAP	30	288	1
NMTAP	30	288	4
NMHLD	31	0	2	96
NMTAP	31	48	3
NMHLD	31	96	5	96
NMTAP	31	144	4
NMHLD	31	192	1	96
NMTAP	31	240	0
NMHLD	31	288	6	96
NMTAP	31	336	7
NMTAP	32	0	1
NMTAP	32	96	3
NMTAP	32	96	4
NMTAP	32	144	2
NMTAP	32	144	5
NMTAP	32	192	1
NMTAP	32	192	6
NMTAP	32	224	0
NMTAP	32	240	7
EXTAP	32	288	2
EXTAP	32	288	5
NMHLD	33	0	7	80
NMTAP	33	80	0
NMHLD	33	96	0	80
NMTAP	33	176	1
NMHLD	33	192	1	80
NMTAP	33	272	2
NMHLD	33	288	2	80
NMTAP	33	368	3
NMHLD	34	0	3	80
NMTAP	34	80	4
NMHLD	34	96	4	80
NMTAP	34	176	5
NMTAP	34	192	5
EXTAP	34	288	3
EXTAP	34	288	6
NMTAP	34	320	3
NMTAP	34	320	6
NMTAP	34	352	3
NMTAP	34	352	6
EXTAP	35	0	2
EXTAP	35	0	5
NMTAP	35	32	2
NMTAP	35	32	5
NMTAP	35	64	2
NMTAP	35	64	5
EXTAP	35	96	1
EXTAP	35	96	4
NMTAP	35	128	1
NMTAP	35	128	4
NMTAP	35	160	1
NMTAP	35	160	4
EXHLD	35	192	2	48
EXHLD	35	192	5	48
NMTAP	35	288	3
NMTAP	35	288	4
NMTAP	36	0	0
NMTAP	36	0	7
NMTAP	36	48	6
NMTAP	36	96	4
NMTAP	36	96	5
NMTAP	36	144	3
NMTAP	36	192	2
NMTAP	36	192	4
NMTAP	36	240	1
NMTAP	36	288	0
NMTAP	36	320	0
NMTAP	36	336	7
NMTAP	36	368	7
NMTAP	37	0	0
NMTAP	37	48	1
NMTAP	37	96	2
NMTAP	37	96	3
NMTAP	37	144	4
NMTAP	37	192	3
NMTAP	37	192	5
NMTAP	37	240	6
NMTAP	37	288	7
NMTAP	37	320	7
NMTAP	37	336	0
NMTAP	37	368	0
NMHLD	38	0	7	192
BXTAP	38	192	0
BXTAP	38	224	1
BXTAP	38	224	6
BXTAP	38	256	3
BXTAP	38	256	4
BXTAP	38	288	2
BXTAP	38	288	5
NMTAP	39	0	3
NMTAP	39	0	6
NMTAP	39	48	2
NMSTR	39	96	1
NMSI_	39	96	1	96	48	4
NMTAP	39	96	4
NMTAP	39	144	0
NMSTR	39	192	6
NMSCL	39	192	6	96	48	3
NMTAP	39	240	7
NMTAP	39	288	2
NMTAP	39	336	2
NMSTR	40	0	1
NMSI_	40	0	1	96	48	5
NMTAP	40	48	0
NMSTR	40	96	6
NMSI_	40	96	6	96	48	3
NMTAP	40	144	7
NMTAP	40	192	2
NMTAP	40	224	2
NMTAP	40	256	2
EXTAP	40	288	1
EXTAP	40	288	3
NMSTR	41	0	2
NMSI_	41	0	2	96	48	5
NMTAP	41	0	4
NMTAP	41	48	1
NMSTR	41	96	6
NMSCL	41	96	6	96	48	3
NMTAP	41	144	7
NMSTR	41	192	1
NMSI_	41	192	1	96	48	4
NMTAP	41	240	0
NMTAP	41	288	5
NMTAP	41	336	5
NMSTR	42	0	6
NMSI_	42	0	6	96	48	3
NMTAP	42	48	7
NMSTR	42	96	1
NMSXL	42	96	1	96	96	4
NMTAP	42	144	0
NMHLD	42	192	7	96
NMSTR	43	0	6
NMSI_	43	0	6	96	48	4
NMSTR	43	0	7
NMSI_	43	0	7	96	48	3
NMTAP	43	48	0
NMTAP	43	48	5
EXTAP	43	96	6
EXTAP	43	96	7
NMSTR	43	192	0
NMSI_	43	192	0	96	48	4
NMSTR	43	192	1
NMSI_	43	192	1	96	48	3
NMTAP	43	240	2
NMTAP	43	240	7
EXTAP	43	288	0
EXTAP	43	288	1
NMSTR	44	0	6
NMSI_	44	0	6	96	48	4
NMSTR	44	0	7
NMSI_	44	0	7	96	48	3
NMTAP	44	48	0
NMTAP	44	48	5
EXTAP	44	96	6
EXTAP	44	96	7
NMSTR	44	192	0
NMSI_	44	192	0	96	48	4
NMSTR	44	192	1
NMSI_	44	192	1	96	48	3
NMTAP	44	240	2
NMTAP	44	240	7
EXTAP	44	288	0
EXTAP	44	288	1
NMTAP	45	0	6
NMTAP	45	48	4
NMTAP	45	96	3
NMTAP	45	96	5
NMTAP	45	144	2
NMTAP	45	144	6
NMTAP	45	192	1
NMTAP	45	240	3
NMTAP	45	288	2
NMTAP	45	288	4
NMTAP	45	336	1
NMTAP	45	336	5
NMTAP	46	0	6
NMTAP	46	48	6
NMSTR	46	96	0
NMSCR	46	96	0	96	96	7
NMTAP	46	144	0
BRTAP	46	192	7
BXHLD	46	336	0	96
BRTAP	47	48	7
NMTAP	47	96	2
NMTAP	47	96	6
NMTAP	47	144	2
NMTAP	47	144	6
NMTAP	47	192	5
NMTAP	47	240	4
NMTAP	47	240	6
NMTAP	47	288	2
NMTAP	47	336	1
NMTAP	47	336	3
NMSTR	48	0	0
NMSI_	48	0	0	96	48	3
NMTAP	48	48	1
NMSTR	48	96	4
NMSI_	48	96	4	96	48	7
NMTAP	48	144	5
NMSTR	48	192	3
NMSI_	48	192	3	96	48	0
NMTAP	48	240	2
EXTAP	48	288	7
NMTAP	49	0	0
NMTAP	49	0	7
NMTAP	49	48	6
NMTAP	49	96	1
NMTAP	49	96	5
NMTAP	49	144	1
NMTAP	49	144	5
NMTAP	49	192	2
NMTAP	49	240	1
NMTAP	49	240	3
NMTAP	49	288	5
NMTAP	49	336	4
NMTAP	49	336	6
NMTAP	50	0	7
NMSTR	50	48	7
NMSI_	50	48	7	96	48	3
NMTAP	50	96	2
NMSTR	50	144	1
NMSCR	50	144	1	96	48	4
NMTAP	50	192	0
NMSTR	50	240	6
NMSI_	50	240	6	96	48	2
NMTAP	50	288	7
EXTAP	50	336	2
NMTAP	51	0	1
NMSTR	51	48	1
NMSI_	51	48	1	96	48	4
NMTAP	51	96	0
NMSTR	51	144	6
NMSCL	51	144	6	96	48	3
NMTAP	51	192	7
NMSTR	51	240	1
NMSI_	51	240	1	96	48	5
NMTAP	51	288	0
NMTAP	51	336	5
NMTAP	52	0	6
NMSTR	52	48	6
NMSI_	52	48	6	96	48	2
NMTAP	52	96	7
NMTAP	52	144	0
NMTAP	52	192	0
NMTAP	52	240	1
NMTAP	52	288	2
NMTAP	52	288	4
NMSTR	53	0	6
NMSI_	53	0	6	96	48	3
NMSTR	53	0	7
NMSI_	53	0	7	96	48	2
NMTAP	53	48	0
NMTAP	53	48	5
EXTAP	53	96	6
EXTAP	53	96	7
NMSTR	53	192	0
NMSI_	53	192	0	96	48	5
NMSTR	53	192	1
NMSI_	53	192	1	96	48	4
NMTAP	53	240	2
NMTAP	53	240	7
EXTAP	53	288	0
EXTAP	53	288	1
NMTAP	54	0	6
NMTAP	54	0	7
NMTAP	54	32	5
NMTAP	54	64	4
NMTAP	54	96	2
NMTAP	54	96	3
NMTAP	54	128	1
NMTAP	54	160	0
NMTAP	54	192	0
NMSTR	54	192	7
NMSI_	54	192	7	96	48	3
NMSTR	54	288	1
NMSI_	54	288	1	96	48	5
NMTAP	54	288	7
NMTAP	55	0	1
BRTAP	55	0	6

T_REC_TAP	299
T_REC_BRK	7
T_REC_XTP	32
T_REC_BXX	7
T_REC_HLD	42
T_REC_XHO	2
T_REC_BHO	0
T_REC_BXH	1
T_REC_STR	67
T_REC_BST	0
T_REC_XST	0
T_REC_XBS	0
T_REC_TTP	48
T_REC_THO	0
T_REC_SLD	67
T_REC_BSL	0
T_REC_ALL	572
T_NUM_TAP	446
T_NUM_BRK	15
T_NUM_HLD	44
T_NUM_SLD	67
T_NUM_ALL	572
T_JUDGE_TAP	460
T_JUDGE_HLD	156
T_JUDGE_SLD	67
T_JUDGE_ALL	683
TTM_EACHPAIRS	120
TTM_SCR_TAP	223000
TTM_SCR_BRK	39000
TTM_SCR_HLD	44000
TTM_SCR_SLD	100500
TTM_SCR_ALL	406500
TTM_SCR_S	392850
TTM_SCR_SS	405000
TTM_RAT_ACV	10037

