VERSION	0.00.00	1.04.00
FES_MODE	0
BPM_DEF	102.000	102.000	102.000	102.000
MET_DEF	4	4
RESOLUTION	384
CLK_DEF	384
COMPATIBLE_CODE	MA2

BPM	0	0	102.000
MET	0	0	4	4

NMTAP	1	0	4
NMHLD	1	96	5	192
NMTAP	1	288	4
NMTAP	2	0	3
NMHLD	2	96	2	192
NMTAP	2	288	3
NMTAP	3	0	4
NMHLD	3	96	5	192
NMTAP	3	288	4
NMTAP	4	0	3
NMHLD	4	96	2	192
NMTAP	4	288	3
NMTAP	5	0	4
NMTAP	5	48	4
NMTAP	5	96	3
NMTAP	5	96	5
NMTAP	5	192	2
NMTAP	5	240	2
NMTAP	5	288	1
NMTAP	5	288	3
NMTAP	6	0	4
NMTAP	6	48	4
NMTAP	6	96	3
NMHLD	6	96	5	96
NMTAP	6	192	4
NMTAP	6	288	4
NMTAP	6	288	5
NMTAP	7	0	3
NMTAP	7	48	3
NMTAP	7	96	2
NMTAP	7	96	4
NMTAP	7	192	5
NMTAP	7	240	5
NMTAP	7	288	4
NMTAP	7	288	6
NMTAP	8	0	3
NMTAP	8	48	3
NMHLD	8	96	2	96
NMTAP	8	96	4
NMTAP	8	192	3
NMTAP	8	288	2
NMTAP	8	288	3
NMHLD	9	0	1	288
NMTTP	9	96	3	E	0	M1
NMTTP	9	192	4	E	0	M1
NMTTP	9	288	5	E	0	M1
NMHLD	10	0	6	192
NMTTP	10	96	4	B	0	M1
NMTTP	10	192	3	B	0	M1
NMTAP	10	288	0
NMTAP	10	288	7
NMSTR	11	0	0
NMSI_	11	0	0	96	48	4
NMSTR	11	0	7
NMSI_	11	0	7	96	48	3
NMSTR	11	192	0
NMSI_	11	192	0	96	48	4
NMSTR	11	192	7
NMSV_	11	192	7	96	48	4
EXTAP	12	0	3
EXTAP	12	0	5
EXTAP	12	48	3
EXTAP	12	48	5
EXTAP	12	96	3
EXTAP	12	96	5
NMTAP	12	192	2
NMTAP	12	192	4
NMTAP	12	240	2
NMTAP	12	240	4
NMTAP	12	288	2
NMTAP	12	288	4
NMHLD	13	0	1	96
NMHLD	13	96	3	96
NMHLD	13	192	4	96
NMHLD	13	288	6	96
NMTAP	14	0	0
NMTAP	14	48	0
NMTAP	14	96	2
NMTAP	14	96	3
NMTAP	14	192	7
NMTAP	14	240	7
NMTAP	14	288	4
NMTAP	14	288	5
NMTAP	15	0	3
NMTAP	15	0	6
NMTAP	15	96	4
NMTAP	15	96	5
NMTAP	15	192	1
NMTAP	15	192	4
NMTAP	15	288	2
NMTAP	15	288	3
NMTAP	16	0	3
NMTAP	16	0	4
NMTAP	16	96	2
NMTAP	16	96	5
NMTTP	16	192	0	C	1	M1
NMTTP	16	192	3	B	0	M1
NMTTP	16	192	4	B	0	M1
BRTAP	16	288	0
BRTAP	16	288	7
NMHLD	17	0	1	48
NMHLD	17	0	3	48
NMHLD	17	96	4	48
NMHLD	17	96	6	48
NMTAP	17	192	1
NMTAP	17	192	3
NMTAP	17	240	1
NMTAP	17	240	3
NMTAP	17	288	0
NMTAP	17	288	4
NMHLD	18	0	6	96
NMSTR	18	96	7
NMSSR	18	96	7	96	144	3
NMHLD	19	0	2	48
NMHLD	19	0	4	48
NMTAP	19	96	1
NMTAP	19	96	5
NMHLD	19	192	3	48
NMHLD	19	192	5	48
NMTAP	19	288	2
NMTAP	19	288	6
NMTAP	20	0	1
NMTAP	20	48	1
NMTAP	20	96	2
NMTAP	20	96	3
NMTAP	20	192	6
NMTAP	20	240	6
NMTAP	20	288	4
NMTAP	20	288	5
NMHLD	21	0	4	48
NMHLD	21	0	6	48
NMHLD	21	96	1	48
NMHLD	21	96	3	48
NMTAP	21	192	4
NMTAP	21	192	6
NMTAP	21	240	4
NMTAP	21	240	6
NMTAP	21	288	3
NMTAP	21	288	7
NMHLD	22	0	1	96
NMSTR	22	96	3
NMSLR	22	96	3	96	96	7
NMHLD	23	0	0	48
NMHLD	23	0	6	48
NMTAP	23	96	1
NMTAP	23	96	5
NMHLD	23	192	1	48
NMHLD	23	192	7	48
NMTAP	23	288	2
NMTAP	23	288	6
NMTAP	24	0	1
NMTAP	24	48	1
NMTAP	24	96	0
NMTAP	24	144	7
NMHLD	24	192	6	192
BXTAP	24	336	0
NMTAP	25	96	6
NMTAP	25	96	7
EXTAP	25	192	5
NMTAP	25	240	4
EXTAP	25	288	3
NMTAP	25	336	2
NMHLD	26	0	1	96
NMTAP	26	96	0
EXTAP	26	192	2
NMTAP	26	240	3
EXTAP	26	288	4
NMTAP	26	336	5
NMHLD	27	0	6	96
NMTAP	27	96	7
EXTAP	27	192	5
NMTAP	27	240	4
EXTAP	27	288	3
NMTAP	27	336	2
NMHLD	28	0	1	96
NMTAP	28	96	0
EXTAP	28	192	2
NMTAP	28	240	3
EXTAP	28	288	4
NMTAP	28	336	5
NMSTR	29	0	5
NMSCL	29	0	5	96	48	2
NMTAP	29	96	1
NMHLD	29	192	0	96
NMTAP	29	288	3
NMTAP	29	336	4
NMSTR	30	0	2
NMSCR	30	0	2	96	48	5
NMTAP	30	96	6
NMHLD	30	192	7	96
NMTAP	30	288	4
NMTAP	30	336	3
NMSTR	31	0	6
NMSI_	31	0	6	96	48	3
NMHLD	31	96	2	96
NMTAP	31	192	3
NMTAP	31	240	4
NMTAP	31	288	4
NMSTR	32	0	1
NMSI_	32	0	1	96	48	4
NMHLD	32	96	5	96
NMTAP	32	192	4
NMTAP	32	240	3
NMTAP	32	288	3
NMTAP	32	288	4
NMSTR	33	0	2
NMSCR	33	0	2	96	48	5
NMTAP	33	96	6
NMHLD	33	192	7	96
NMTAP	33	288	4
NMTAP	33	336	3
NMSTR	34	0	5
NMSCL	34	0	5	96	48	2
NMTAP	34	96	1
NMHLD	34	192	0	96
NMTAP	34	288	7
NMTAP	35	0	5
NMTAP	35	0	6
NMTAP	35	96	3
NMTAP	35	96	4
NMTAP	35	192	1
NMTAP	35	192	2
NMTAP	35	288	0
NMTAP	35	288	7
NMTAP	36	0	7
NMTAP	36	48	6
NMTAP	36	96	5
NMTAP	36	144	4
NMTAP	36	192	3
NMTAP	36	240	2
NMTAP	36	288	1
NMTAP	36	336	0
NMTAP	37	0	0
NMTAP	37	48	1
NMTAP	37	96	2
NMTAP	37	144	3
NMTAP	37	192	4
NMTAP	37	240	5
NMTAP	37	288	6
NMTAP	37	336	7
NMTHO	38	0	0	192	C	1	M1
NMTTP	38	0	3	B	0	M1
NMTTP	38	0	4	B	0	M1
BRTAP	38	288	0
BRTAP	38	288	7
NMTAP	39	0	4
NMTAP	39	0	6
NMTAP	39	48	4
NMTAP	39	48	6
NMTAP	39	96	1
NMTAP	39	96	3
NMTAP	39	144	1
NMTAP	39	144	3
NMTAP	39	192	4
NMTAP	39	192	6
NMTAP	39	240	4
NMTAP	39	240	6
NMTAP	39	288	3
NMTAP	39	288	7
NMTAP	39	336	2
NMTAP	40	0	1
NMTAP	40	0	3
NMTAP	40	48	5
NMTAP	40	96	4
NMTAP	40	96	6
NMTAP	40	144	2
EXTAP	40	192	2
EXTAP	40	224	3
EXTAP	40	256	4
EXTAP	40	288	5
NMTAP	41	0	3
NMTAP	41	0	5
NMTAP	41	48	2
NMTAP	41	48	6
NMTAP	41	96	2
NMTAP	41	96	6
NMTAP	41	144	5
NMTAP	41	192	2
NMTAP	41	192	4
NMTAP	41	240	1
NMTAP	41	240	5
NMTAP	41	288	1
NMTAP	41	288	5
NMTAP	41	336	2
NMTAP	42	0	3
NMTAP	42	0	4
NMTAP	42	48	3
NMTAP	42	48	4
NMTAP	42	96	5
NMTAP	42	144	5
NMSTR	42	192	6
NMSCL	42	192	6	96	48	3
NMSTR	42	192	7
NMSCR	42	192	7	96	48	2
NMHLD	43	0	1	48
NMHLD	43	0	3	48
NMHLD	43	96	4	48
NMHLD	43	96	6	48
NMTAP	43	192	1
NMTAP	43	192	3
NMTAP	43	240	1
NMTAP	43	240	3
NMTAP	43	288	0
NMTAP	43	288	4
NMHLD	44	0	6	96
NMSTR	44	96	4
NMSLL	44	96	4	96	96	0
NMHLD	45	0	3	48
NMHLD	45	0	5	48
NMTAP	45	96	2
NMTAP	45	96	6
NMHLD	45	192	2	48
NMHLD	45	192	4	48
NMTAP	45	288	1
NMTAP	45	288	5
NMTAP	46	0	6
NMTAP	46	48	6
NMTAP	46	96	7
NMTAP	46	144	0
NMHLD	46	192	1	144
BXTAP	46	336	7
EXTAP	47	48	0
EXTAP	47	48	6
EXTAP	47	96	0
EXTAP	47	96	6
NMHLD	47	192	5	96
NMTAP	47	288	7
NMHLD	48	0	2	96
NMTAP	48	96	0
NMTAP	48	192	7
NMTAP	48	240	0
NMTAP	48	240	6
NMTAP	48	288	1
NMTAP	48	288	5
NMSTR	49	0	6
NMSI_	49	0	6	96	48	2
NMTAP	49	96	0
NMSTR	49	192	1
NMSI_	49	192	1	96	48	5
NMTAP	49	288	7
NMSTR	50	0	6
NMSCL	50	0	6	96	48	3
NMTAP	50	96	0
NMSTR	50	192	2
NMSCL	50	192	2	96	48	7
NMTAP	50	288	4
NMTAP	51	0	5
NMTAP	51	48	5
NMTAP	51	96	4
NMTAP	51	96	6
NMHLD	51	144	4	48
NMHLD	51	144	6	48
NMHLD	51	240	1	48
NMHLD	51	240	3	48
NMTAP	51	336	4
NMTAP	51	336	6
NMHLD	52	0	4	96
NMHLD	52	0	6	96
NMTAP	52	144	1
NMHLD	52	192	1	96
NMTAP	52	288	3
NMTAP	53	0	4
NMTAP	53	0	5
NMTTP	53	96	6	B	0	M1
NMTTP	53	96	6	E	0	M1
NMTTP	53	96	6	D	1	M1
NMTAP	53	192	2
NMTAP	53	192	3
NMTTP	53	288	1	B	0	M1
NMTTP	53	288	2	E	0	M1
NMTTP	53	288	2	D	1	M1
NMHLD	54	0	6	96
NMHLD	54	96	4	96
NMHLD	54	192	3	96
BRSTR	54	288	1
NMSUR	54	288	1	96	48	5
NMTTP	55	0	0	C	0	M1

T_REC_TAP	229
T_REC_BRK	4
T_REC_XTP	22
T_REC_BXX	2
T_REC_HLD	62
T_REC_XHO	0
T_REC_BHO	0
T_REC_BXH	0
T_REC_STR	19
T_REC_BST	1
T_REC_XST	0
T_REC_XBS	0
T_REC_TTP	17
T_REC_THO	1
T_REC_SLD	20
T_REC_BSL	0
T_REC_ALL	377
T_NUM_TAP	287
T_NUM_BRK	7
T_NUM_HLD	63
T_NUM_SLD	20
T_NUM_ALL	377
T_JUDGE_TAP	294
T_JUDGE_HLD	234
T_JUDGE_SLD	20
T_JUDGE_ALL	548
TTM_EACHPAIRS	91
TTM_SCR_TAP	143500
TTM_SCR_BRK	18200
TTM_SCR_HLD	63000
TTM_SCR_SLD	30000
TTM_SCR_ALL	254700
TTM_SCR_S	246400
TTM_SCR_SS	254000
TTM_RAT_ACV	10027

