VERSION	0.00.00	1.04.00
FES_MODE	0
BPM_DEF	170.000	170.000	170.000	170.000
MET_DEF	4	4
RESOLUTION	384
CLK_DEF	384
COMPATIBLE_CODE	MA2

BPM	0	0	170.000
MET	0	0	4	4

NMTAP	1	288	3
NMTAP	1	288	4
NMTAP	2	0	2
NMHLD	2	0	5	192
NMTAP	2	144	2
NMHLD	2	192	1	192
NMTAP	2	336	3
NMHLD	3	0	4	192
NMTAP	3	144	3
NMHLD	3	192	2	192
NMTAP	3	336	4
NMHLD	4	0	5	192
NMTAP	4	144	2
NMHLD	4	192	1	192
NMTAP	4	336	3
NMHLD	5	0	4	192
NMTAP	5	144	3
NMTAP	5	192	3
NMTAP	5	288	3
NMTAP	5	288	4
NMHLD	6	0	2	192
NMTAP	6	0	5
NMTAP	6	144	5
NMHLD	6	192	6	192
NMTAP	6	336	4
NMHLD	7	0	3	192
NMTAP	7	144	4
NMHLD	7	192	5	192
NMTAP	7	336	3
NMTAP	8	0	3
NMTAP	8	96	2
NMTAP	8	96	4
NMTAP	8	192	4
NMTAP	8	192	6
NMSTR	8	288	0
NMSI_	8	288	0	96	48	4
NMTAP	8	288	4
BXTAP	9	0	0
NMSTR	9	0	7
NMSI_	9	0	7	96	48	3
NMSTR	9	96	1
NMSI_	9	96	1	96	48	5
BXTAP	9	96	7
BXTAP	9	192	1
NMSTR	9	192	6
NMSI_	9	192	6	96	48	2
NMSTR	9	288	0
NMSI_	9	288	0	96	48	4
BXTAP	9	288	6
BXTAP	10	0	0
NMSTR	10	0	7
NMSI_	10	0	7	96	48	3
NMSTR	10	96	1
NMSI_	10	96	1	96	48	5
BXTAP	10	96	7
BXTAP	10	192	1
NMSTR	10	192	6
NMSI_	10	192	6	96	48	2
NMTAP	10	288	1
BXTAP	10	288	6
BXSTR	11	0	0
NMSI_	11	0	0	96	48	4
BXTAP	11	48	0
BXSTR	11	96	6
NMSI_	11	96	6	96	48	2
BXTAP	11	144	6
BXSTR	11	192	1
NMSI_	11	192	1	96	48	5
BXTAP	11	240	1
BXSTR	11	288	7
NMSI_	11	288	7	96	48	3
BXTAP	11	336	7
NMHLD	12	0	1	96
NMHLD	12	96	3	96
NMHLD	12	192	4	96
NMHLD	12	288	6	96
NMSTR	13	0	0
NMSI_	13	0	0	96	48	4
NMHLD	13	96	5	96
NMTAP	13	192	3
NMTAP	13	264	4
NMTAP	13	264	6
NMTAP	13	336	4
NMTAP	13	336	6
NMTAP	14	48	2
NMTAP	14	96	1
NMTAP	14	144	0
NMTAP	14	192	3
NMTAP	14	240	4
NMTAP	14	288	5
NMTAP	14	336	6
NMSTR	15	0	7
NMSI_	15	0	7	96	48	3
NMHLD	15	96	2	96
NMTAP	15	192	4
NMTAP	15	264	3
NMTAP	15	264	5
NMTAP	15	336	3
NMTAP	15	336	5
NMTAP	16	48	2
NMTAP	16	48	6
NMTAP	16	96	2
NMTAP	16	96	6
NMTAP	16	144	1
NMSTR	16	192	0
NMSV_	16	192	0	96	48	3
NMSTR	16	192	7
NMSV_	16	192	7	96	48	4
NMTAP	16	240	1
NMTAP	16	240	6
NMHLD	17	0	1	576
NMHLD	17	0	7	576
NMSTR	19	0	1
NMSCR	19	0	1	96	48	4
NMTAP	19	144	5
NMSTR	19	192	6
NMSCL	19	192	6	96	48	3
NMTAP	19	336	2
NMSTR	20	48	0
NMSI_	20	48	0	96	48	4
NMTAP	20	144	5
NMTAP	20	192	5
NMTAP	20	288	4
NMTAP	21	0	3
NMTAP	21	0	5
NMTAP	21	144	1
NMTAP	21	144	3
NMTAP	21	192	1
NMTAP	21	192	3
NMTAP	21	336	2
NMTAP	21	336	4
NMTAP	22	48	3
NMTAP	22	48	5
NMTAP	22	144	4
NMTAP	22	144	6
NMSTR	22	192	4
NMSI_	22	192	4	96	48	0
NMTAP	22	192	6
NMTAP	22	288	7
NMTAP	23	0	0
NMTAP	23	0	7
NMTAP	23	144	1
NMTAP	23	144	3
NMTAP	23	192	1
NMTAP	23	192	3
NMTAP	23	336	4
NMTAP	23	336	5
NMSTR	24	0	4
NMSI_	24	0	4	96	48	1
NMTAP	24	0	5
NMSTR	24	96	7
NMSI_	24	96	7	96	48	3
NMTAP	24	192	1
NMTAP	24	192	7
BRTAP	24	288	0
BRTAP	24	288	4
NMSTR	25	0	5
NMSCL	25	0	5	96	48	2
NMTAP	25	96	1
NMTAP	25	144	1
NMSTR	25	192	0
NMSI_	25	192	0	96	48	4
NMTAP	25	288	7
NMSTR	25	336	7
NMSI_	25	336	7	96	48	5
NMTAP	26	48	1
NMSTR	26	96	1
NMSI_	26	96	1	96	48	3
NMTAP	26	192	4
NMTAP	26	240	4
NMTAP	26	288	3
NMTAP	26	288	5
NMSTR	27	0	2
NMSCR	27	0	2	96	48	5
NMTAP	27	96	6
NMTAP	27	144	6
NMSTR	27	192	7
NMSI_	27	192	7	96	48	4
NMTAP	27	288	3
NMSTR	27	336	3
NMSI_	27	336	3	96	48	0
NMTAP	28	48	7
NMHLD	28	96	7	96
NMTAP	28	192	0
NMTTP	28	240	6	A	0	M1
NMTTP	28	240	7	E	0	M1
NMTTP	28	240	7	D	0	M1
NMTTP	28	288	1	E	0	M1
NMTTP	28	288	1	A	0	M1
NMTTP	28	288	1	D	0	M1
NMSTR	29	0	2
NMSI_	29	0	2	96	48	5
NMTAP	29	96	7
NMTAP	29	144	7
NMSTR	29	192	6
NMSI_	29	192	6	96	48	1
NMTAP	29	288	0
NMSTR	29	336	0
NMSCR	29	336	0	96	48	3
NMTAP	30	48	7
NMSTR	30	96	7
NMSV_	30	96	7	96	48	4
NMTAP	30	192	3
NMTAP	30	240	3
NMTAP	30	288	2
NMTAP	30	288	5
NMSTR	31	0	1
NMSCR	31	0	1	96	48	4
NMSTR	31	96	6
NMSCR	31	96	6	96	48	1
NMSTR	31	192	3
NMSCR	31	192	3	96	48	6
NMTAP	31	288	0
NMHLD	31	336	0	96
NMTAP	32	48	7
NMSTR	32	96	7
NMSF_	32	96	7	96	48	3
EXTAP	32	288	1
EXTAP	32	288	5
EXTAP	33	0	0
EXTAP	33	0	6
NMTAP	33	96	1
NMTAP	33	144	3
NMTAP	33	192	4
NMTAP	33	240	5
NMTAP	33	264	4
NMTAP	33	288	6
NMTAP	33	336	3
NMTAP	33	336	7
NMTAP	34	0	3
NMTAP	34	0	7
NMSTR	34	96	1
NMSCL	34	96	1	96	48	7
NMTAP	34	96	4
NMTAP	34	192	1
NMTAP	34	192	3
NMSTR	34	288	1
NMSCL	34	288	1	96	48	7
NMTAP	34	288	4
NMTAP	35	0	1
NMTAP	35	0	3
NMTAP	35	96	4
NMTAP	35	144	5
NMHLD	35	192	6	96
NMTAP	35	288	4
NMSTR	35	336	4
NMSI_	35	336	4	96	48	1
NMTAP	36	48	5
CNSLR	36	96	1	0	96	7
NMTAP	36	96	5
NMTAP	36	192	6
EXTAP	36	240	0
EXTAP	36	240	6
EXTAP	36	288	0
EXTAP	36	288	6
EXTAP	37	0	1
EXTAP	37	0	7
NMTAP	37	96	6
NMTAP	37	144	4
NMTAP	37	192	3
NMTAP	37	240	2
NMTAP	37	264	3
NMTAP	37	288	1
NMTAP	37	336	0
NMTAP	37	336	4
NMTAP	38	0	0
NMTAP	38	0	4
NMTAP	38	96	3
NMSTR	38	96	6
NMSCL	38	96	6	96	48	4
NMTAP	38	192	0
NMTAP	38	192	6
NMTAP	38	288	3
NMSTR	38	288	6
NMSCL	38	288	6	96	48	4
NMTAP	39	0	0
NMTAP	39	0	6
NMTAP	39	96	0
NMTAP	39	144	1
NMTAP	39	192	2
NMTAP	39	192	4
NMTAP	39	288	5
NMTAP	39	336	5
BRTAP	40	48	6
BRTAP	40	48	7
BRTAP	40	96	4
BRTAP	40	96	5
BRTAP	40	144	2
BRTAP	40	144	3
BRTAP	40	192	0
BRTAP	40	192	1
NMSTR	40	288	1
NMSI_	40	288	1	96	48	4
NMSTR	40	288	5
NMSI_	40	288	5	96	48	0
NMTAP	41	0	1
NMTAP	41	0	5
BRTAP	41	96	2
BRTAP	41	96	6
NMTAP	41	192	1
NMTAP	41	240	0
NMSTR	41	288	7
NMSCL	41	288	7	96	48	4
NMTAP	41	336	6
NMSTR	42	0	0
NMSCR	42	0	0	96	48	3
NMTAP	42	48	1
NMSTR	42	96	7
NMSF_	42	96	7	96	48	3
EXTAP	42	288	2
EXTAP	42	288	4
EXTAP	42	336	1
EXTAP	42	336	5
EXTAP	43	0	0
NMSTR	43	0	6
NMSI_	43	0	6	96	48	2
NMTAP	43	96	2
NMSTR	43	144	3
NMSCL	43	144	3	96	48	0
NMTAP	43	240	3
NMSTR	43	240	4
NMSI_	43	240	4	96	96	6
NMTAP	43	336	4
NMTAP	44	48	3
CNSLR	44	48	6	0	48	2
NMTAP	44	96	3
NMTAP	44	192	1
NMTAP	44	192	3
NMTAP	44	240	2
NMTAP	44	240	4
NMSTR	44	288	3
NMSCL	44	288	3	96	48	0
NMTAP	44	288	5
NMTAP	45	0	3
NMSTR	45	0	6
NMSCL	45	0	6	96	48	3
NMSTR	45	96	0
NMSI_	45	96	0	96	48	4
NMTAP	45	96	6
NMTAP	45	192	0
NMSTR	45	192	7
NMSCL	45	192	7	96	48	4
NMTAP	45	288	2
NMTAP	45	288	7
NMTAP	45	336	2
NMTAP	46	0	2
NMSTR	46	0	4
NMSI_	46	0	4	96	48	0
NMTAP	46	96	3
NMTAP	46	96	4
NMSTR	46	192	4
NMSI_	46	192	4	96	48	0
NMSTR	46	192	7
NMSI_	46	192	7	96	48	3
EXTAP	46	288	4
EXTAP	46	288	7
NMHLD	47	0	5	672
NMSTR	47	96	4
NMSCR	47	96	4	96	96	3
NMTTP	48	0	7	D	0	M1
NMTTP	48	8	7	A	0	M1
NMTTP	48	16	0	D	0	M1
NMTTP	48	24	0	A	0	M1
NMTTP	48	32	1	D	0	M1
NMTTP	48	40	1	A	0	M1
NMTTP	48	48	2	D	0	M1
NMTTP	48	192	7	D	0	M1
NMTTP	48	200	7	A	0	M1
NMTTP	48	208	0	D	0	M1
NMTTP	48	216	0	A	0	M1
NMTTP	48	224	1	D	0	M1
NMTTP	48	232	1	A	0	M1
NMTTP	48	240	2	D	0	M1
NMTAP	48	288	4
NMTAP	48	336	4
NMTAP	49	0	3
NMTAP	49	0	6
NMSTR	49	96	2
NMSCL	49	96	2	96	48	6
NMSTR	49	192	6
NMSCR	49	192	6	96	48	2
NMTAP	49	240	4
NMTAP	49	288	4
NMTAP	50	0	5
NMTAP	50	48	6
NMTAP	50	96	1
NMTAP	50	96	7
NMSTR	50	192	2
NMSCL	50	192	2	96	48	0
NMSTR	50	192	6
NMSCL	50	192	6	96	48	4
NMTAP	50	288	2
NMTAP	50	288	6
NMSTR	51	0	1
NMSCL	51	0	1	96	48	7
NMSTR	51	0	5
NMSCL	51	0	5	96	48	3
NMTAP	51	96	1
NMTAP	51	96	5
NMSTR	51	192	0
NMSCL	51	192	0	96	48	6
NMSTR	51	192	4
NMSCL	51	192	4	96	48	2
NMTAP	51	288	0
NMTAP	51	288	4
CNSI_	51	336	2	0	48	5
CNSI_	51	336	6	0	48	1
EXTAP	52	96	2
EXTAP	52	96	6
NMTAP	52	192	1
NMTAP	52	240	1
NMSTR	52	288	3
NMSCR	52	288	3	96	96	7
NMSTR	53	0	7
NMSCR	53	0	7	96	96	3
NMTAP	53	96	3
NMTAP	53	192	7
NMTAP	53	288	1
NMHLD	53	288	5	96
NMHLD	54	0	3	96
NMHLD	54	96	1	96
NMTAP	54	192	0
NMSTR	54	288	6
NMSI_	54	288	6	96	48	2
NMSTR	55	0	3
NMSI_	55	0	3	96	48	0
NMTAP	55	0	6
NMTAP	55	96	3
NMSTR	55	96	4
NMSI_	55	96	4	96	48	7
NMSTR	55	192	2
NMSI_	55	192	2	96	48	5
NMTAP	55	192	4
NMTAP	55	288	2
NMSTR	55	288	6
NMSI_	55	288	6	96	48	1
NMTAP	56	0	3
NMTAP	56	0	6
NMTAP	56	96	0
NMTAP	56	96	4
NMSTR	56	192	3
BRSI_	56	192	3	96	48	1
NMSTR	56	192	5
BRSI_	56	192	5	96	48	7
NMTAP	56	240	2
NMTAP	56	240	6
BXTAP	57	0	1
BXTAP	57	0	7
NMTAP	57	96	5
NMTAP	57	144	5
NMTAP	57	192	4
NMHLD	57	192	6	72
NMHLD	57	264	5	72
NMTAP	57	336	4
NMTAP	58	48	3
NMSTR	58	96	2
NMSXR	58	96	2	96	144	3
NMTAP	58	144	5
NMTAP	58	192	5
NMTAP	58	288	4
NMTAP	59	0	6
NMTAP	59	48	7
NMTAP	59	96	0
NMSTR	59	144	1
NMSUL	59	144	1	96	48	4
NMTAP	59	240	6
CNSLL	59	288	4	0	48	0
NMTAP	59	288	7
NMHLD	59	336	7	96
NMTAP	60	48	4
NMTAP	60	96	3
NMTAP	60	144	2
NMSTR	60	192	1
NMSCR	60	192	1	96	48	4
NMTAP	60	192	5
EXTAP	60	240	6
EXTAP	60	288	6
NMTAP	61	0	3
NMTAP	61	0	7
NMTAP	61	96	2
NMTAP	61	144	2
NMHLD	61	192	1	72
NMTAP	61	192	3
NMHLD	61	264	2	72
NMTAP	61	336	3
NMTAP	62	48	4
NMSTR	62	96	5
NMSXL	62	96	5	96	144	4
NMTAP	62	144	2
NMTAP	62	192	2
NMTAP	62	288	3
NMTAP	63	0	1
NMTAP	63	48	0
NMTAP	63	96	7
NMTAP	63	144	3
NMTAP	63	144	6
NMTAP	63	240	1
NMTAP	63	288	0
NMHLD	63	336	0	96
NMTAP	64	48	7
NMTAP	64	96	0
NMTAP	64	96	7
NMTAP	64	144	3
NMTAP	64	144	4
NMTAP	64	192	1
NMTAP	64	192	6
NMSTR	64	288	0
NMSCR	64	288	0	96	192	5
NMTAP	65	0	7
NMTAP	65	96	7
NMTAP	65	192	7
NMTAP	65	288	7
NMHLD	65	336	4	240
NMTAP	66	0	7
NMTAP	66	96	7
NMTAP	66	192	7
NMTTP	66	288	4	E	0	M1
NMTAP	66	288	7
NMTTP	67	0	3	E	0	M1
NMTAP	67	0	7
NMTTP	67	96	5	B	0	M1
NMTAP	67	96	7
NMTTP	67	192	1	B	0	M1
NMTAP	67	192	7
NMTTP	67	288	0	A	0	M1
NMTAP	67	288	7
NMTAP	68	0	7
NMTAP	68	96	7
NMTAP	68	192	7
NMTAP	68	288	1
NMSTR	68	288	7
NMSCL	68	288	7	96	192	2
NMTAP	69	0	0
NMTAP	69	96	0
NMTAP	69	192	0
NMTAP	69	288	0
NMHLD	69	336	3	144
NMTAP	70	0	0
NMTAP	70	96	0
NMTAP	70	192	0
EXTAP	70	192	3
NMTAP	70	288	0
NMTTP	70	288	4	E	0	M1
NMTAP	71	0	0
NMTTP	71	0	5	E	0	M1
NMTAP	71	96	0
NMTTP	71	96	2	B	0	M1
NMTAP	71	192	0
NMTTP	71	192	6	B	0	M1
NMTAP	71	288	0
NMTTP	71	288	7	A	0	M1
NMTAP	72	0	0
NMTAP	72	96	0
NMTAP	72	192	0
NMTAP	72	288	1
NMSTR	72	288	7
NMSCL	72	288	7	96	96	4
NMTAP	73	0	2
NMTAP	73	96	2
NMTAP	73	192	3
NMSTR	73	288	3
NMSCL	73	288	3	96	96	0
NMTAP	74	0	5
NMTAP	74	96	6
NMTAP	74	192	6
NMSTR	74	288	7
NMSV_	74	288	7	96	48	4
BRSV_	74	288	7	96	48	2
NMSTR	75	96	0
NMSI_	75	96	0	96	48	3
BRSI_	75	96	0	96	48	5
NMSTR	75	288	7
NMSCL	75	288	7	96	48	4
BRSCR	75	288	7	96	48	2
NMTAP	76	96	1
NMHLD	76	96	5	96
NMHLD	76	192	4	96
NMHLD	76	288	7	96
NMHLD	77	0	0	96
NMHLD	77	96	2	96
NMHLD	77	192	6	96
NMTAP	77	288	2
NMTAP	78	0	3
NMTAP	78	0	7
NMTAP	78	48	3
NMTAP	78	48	7
NMTAP	78	96	0
NMTAP	78	96	4
NMTAP	78	144	0
NMTAP	78	144	4
NMTAP	78	192	1
NMTAP	78	192	5
NMTAP	78	240	2
NMTAP	78	240	6
NMSTR	78	288	3
NMSI_	78	288	3	96	48	0
NMSTR	78	288	7
NMSI_	78	288	7	96	48	4
NMTAP	79	0	3
NMTAP	79	0	7
BRTAP	79	96	1
BRTAP	79	96	5
NMTAP	79	192	6
NMTAP	79	240	7
NMSTR	79	288	0
NMSCR	79	288	0	96	48	3
NMTAP	79	336	1
NMSTR	80	0	7
NMSCL	80	0	7	96	48	4
NMTAP	80	48	6
NMSTR	80	96	0
NMSF_	80	96	0	96	48	4
EXTAP	80	288	3
EXTAP	80	288	5
EXTAP	80	336	2
EXTAP	80	336	6
NMSTR	81	0	1
NMSI_	81	0	1	96	48	5
EXTAP	81	0	7
NMTAP	81	96	5
NMSTR	81	144	4
NMSCR	81	144	4	96	48	7
NMSTR	81	240	3
NMSV_	81	240	3	96	96	1
NMTAP	81	240	4
NMTAP	81	336	7
CNSCL	82	48	1	0	48	5
NMTAP	82	192	4
NMTAP	82	192	6
NMTAP	82	240	4
NMTAP	82	240	6
NMTAP	82	288	2
NMSTR	82	288	4
NMSCR	82	288	4	96	48	7
NMSTR	83	0	1
NMSCR	83	0	1	96	48	4
NMTAP	83	48	0
NMSTR	83	96	7
NMSI_	83	96	7	96	48	3
NMTAP	83	144	6
NMSTR	83	192	0
NMSCR	83	192	0	96	48	3
NMSTR	83	288	5
NMSCR	83	288	5	96	48	0
NMTAP	83	336	4
NMSTR	84	0	3
NMSI_	84	0	3	96	48	7
NMTAP	84	48	2
NMTAP	84	96	4
NMSTR	84	192	0
NMSI_	84	192	0	96	48	4
NMSTR	84	192	3
NMSI_	84	192	3	96	48	7
EXTAP	84	288	0
EXTAP	84	288	3
NMHLD	85	0	2	672
NMSTR	85	96	3
NMSCL	85	96	3	96	96	4
NMTTP	86	0	1	D	0	M1
NMTTP	86	8	0	A	0	M1
NMTTP	86	16	0	D	0	M1
NMTTP	86	24	7	A	0	M1
NMTTP	86	32	7	D	0	M1
NMTTP	86	40	6	A	0	M1
NMTTP	86	48	6	D	0	M1
NMTTP	86	192	1	D	0	M1
NMTTP	86	200	0	A	0	M1
NMTTP	86	208	0	D	0	M1
NMTTP	86	216	7	A	0	M1
NMTTP	86	224	7	D	0	M1
NMTTP	86	232	6	A	0	M1
NMTTP	86	240	6	D	0	M1
NMTAP	86	288	3
NMTAP	86	336	3
NMTAP	87	0	1
NMTAP	87	0	4
NMSTR	87	96	5
NMSCR	87	96	5	96	48	1
NMSTR	87	192	1
NMSCL	87	192	1	96	48	5
NMTAP	87	240	3
NMTAP	87	288	3
NMTAP	88	0	2
NMTAP	88	48	1
NMTAP	88	96	0
NMTAP	88	96	6
NMSTR	88	192	1
NMSCR	88	192	1	96	48	3
NMSTR	88	192	5
NMSCR	88	192	5	96	48	7
BXTAP	88	288	1
BXTAP	88	288	5
NMSTR	89	0	2
NMSCR	89	0	2	96	48	4
NMSTR	89	0	6
NMSCR	89	0	6	96	48	0
BXTAP	89	96	2
BXTAP	89	96	6
NMSTR	89	192	3
NMSCR	89	192	3	96	48	5
NMSTR	89	192	7
NMSCR	89	192	7	96	48	1
BXTAP	89	288	3
BXTAP	89	288	7
CNSI_	89	336	1	0	48	6
CNSI_	89	336	5	0	48	2
EXTAP	90	96	1
EXTAP	90	96	5
NMTAP	90	192	6
NMTAP	90	240	6
NMSTR	90	288	4
NMSLL	90	288	4	96	96	0
NMSTR	91	0	0
NMSLL	91	0	0	96	96	4
NMTAP	91	96	4
NMTAP	91	192	0
NMHLD	91	288	2	96
NMTAP	91	288	6
NMHLD	92	0	0	96
NMHLD	92	96	7	96
NMTAP	92	192	5
NMSTR	92	288	0
NMSV_	92	288	0	96	48	3
NMSTR	92	288	4
NMSV_	92	288	4	96	48	7
NMTAP	93	0	0
NMTAP	93	0	4
NMSTR	93	96	2
NMSI_	93	96	2	96	48	7
NMSTR	93	96	6
NMSCL	93	96	6	96	48	3
NMTAP	93	192	2
NMTAP	93	192	6
NMSTR	93	288	1
NMSCR	93	288	1	96	48	4
NMSTR	93	288	5
NMSCR	93	288	5	96	24	6
NMTAP	94	0	1
NMTAP	94	0	5
CNSI_	94	24	6	0	24	0
NMTAP	94	96	3
NMTAP	94	96	7
NMTAP	94	192	1
NMTAP	94	192	5
NMTAP	94	240	1
NMTAP	94	240	5
NMHLD	94	288	1	288
NMTAP	94	288	5
NMTAP	95	0	3
NMTAP	95	144	5
NMHLD	95	192	6	144
NMTAP	95	336	4
NMTAP	96	48	3
NMTAP	96	48	4
NMTAP	96	144	1
NMTAP	96	144	3
NMTAP	96	192	1
NMTAP	96	192	3
NMSTR	96	288	3
NMSXR	96	288	3	96	48	1
NMSTR	96	288	5
NMSCR	96	288	5	96	48	0

T_REC_TAP	353
T_REC_BRK	14
T_REC_XTP	31
T_REC_BXX	20
T_REC_HLD	46
T_REC_XHO	0
T_REC_BHO	0
T_REC_BXH	0
T_REC_STR	117
T_REC_BST	0
T_REC_XST	0
T_REC_XBS	4
T_REC_TTP	44
T_REC_THO	0
T_REC_SLD	119
T_REC_BSL	5
T_REC_ALL	753
T_NUM_TAP	545
T_NUM_BRK	43
T_NUM_HLD	46
T_NUM_SLD	119
T_NUM_ALL	753
T_JUDGE_TAP	583
T_JUDGE_HLD	167
T_JUDGE_SLD	124
T_JUDGE_ALL	874
TTM_EACHPAIRS	153
TTM_SCR_TAP	272500
TTM_SCR_BRK	111800
TTM_SCR_HLD	46000
TTM_SCR_SLD	178500
TTM_SCR_ALL	608800
TTM_SCR_S	586400
TTM_SCR_SS	604500
TTM_RAT_ACV	10071

