VERSION	0.00.00	1.04.00
FES_MODE	0
BPM_DEF	170.000	170.000	170.000	170.000
MET_DEF	4	4
RESOLUTION	384
CLK_DEF	384
COMPATIBLE_CODE	MA2

BPM	0	0	170.000
MET	0	0	4	4

NMHLD	2	0	5	144
NMTAP	2	144	4
NMHLD	2	192	4	144
NMTAP	2	336	3
NMHLD	3	0	3	144
NMTAP	3	144	2
NMHLD	3	192	2	144
NMTAP	3	336	3
NMHLD	4	0	3	144
NMTAP	4	144	4
NMHLD	4	192	4	144
NMTAP	4	336	5
NMHLD	5	0	5	144
NMTAP	5	144	4
NMTAP	5	192	4
NMTAP	5	288	3
NMHLD	6	0	2	144
NMTAP	6	144	3
NMHLD	6	192	3	144
NMTAP	6	336	4
NMHLD	7	0	4	144
NMTAP	7	144	5
NMHLD	7	192	5	144
NMTAP	7	336	3
NMHLD	8	0	3	144
NMTAP	8	144	4
NMHLD	8	192	4	96
NMTAP	8	288	3
EXTAP	9	0	3
EXTAP	9	0	4
EXTAP	9	96	3
EXTAP	9	96	4
EXTAP	9	192	3
EXTAP	9	192	4
EXTAP	9	288	3
EXTAP	9	288	4
EXTAP	10	0	2
EXTAP	10	0	5
EXTAP	10	96	2
EXTAP	10	96	5
EXTAP	10	192	2
EXTAP	10	192	5
EXTAP	10	288	2
EXTAP	10	288	5
BXTAP	11	0	1
BXTAP	11	0	6
BXTAP	11	48	1
BXTAP	11	48	6
BXTAP	11	96	1
BXTAP	11	96	6
BXTAP	11	144	1
BXTAP	11	144	6
BXTAP	11	192	1
BXTAP	11	192	6
BXTAP	11	240	1
BXTAP	11	240	6
BXTAP	11	288	1
BXTAP	11	288	6
NMTTP	12	0	0	B	0	M1
NMTTP	12	0	1	E	0	M1
NMTTP	12	96	2	B	0	M1
NMTTP	12	96	3	E	0	M1
NMTTP	12	192	0	C	0	M1
NMTTP	12	288	6	B	0	M1
NMTTP	12	288	7	E	0	M1
NMTTP	13	0	4	B	0	M1
NMTTP	13	0	5	E	0	M1
NMTAP	13	96	2
NMTAP	13	144	2
NMTAP	13	192	3
EXTAP	13	264	1
EXTAP	13	264	3
EXTAP	13	336	1
EXTAP	13	336	3
NMTAP	14	48	4
NMTAP	14	96	4
NMTAP	14	144	3
NMHLD	14	192	3	96
NMTAP	14	288	5
NMTAP	15	0	3
NMTAP	15	0	5
NMTAP	15	96	5
NMTAP	15	144	5
NMTAP	15	192	4
EXTAP	15	264	4
EXTAP	15	264	6
EXTAP	15	336	4
EXTAP	15	336	6
NMTAP	16	48	3
NMTAP	16	96	3
NMTAP	16	144	4
NMTAP	16	192	4
NMTAP	16	288	3
NMTAP	16	288	5
NMSTR	17	0	0
NMSI_	17	0	0	96	480	4
NMTAP	18	192	5
NMTAP	18	288	6
NMSTR	19	0	7
NMSI_	19	0	7	96	480	3
NMTAP	20	192	2
NMTAP	20	288	1
NMTAP	21	0	1
NMTAP	21	0	3
NMTAP	21	144	4
NMTAP	21	144	6
NMTAP	21	192	4
NMTAP	21	192	6
NMTAP	21	336	3
NMTAP	21	336	4
NMTAP	22	48	3
NMTAP	22	48	4
NMTAP	22	144	2
NMTAP	22	144	5
NMHLD	22	192	2	96
NMHLD	22	192	5	96
NMTAP	23	0	3
NMTAP	23	0	6
NMTAP	23	144	1
NMTAP	23	144	4
NMTAP	23	192	1
NMTAP	23	192	4
EXTAP	23	336	0
EXTAP	23	336	7
EXTAP	24	0	0
EXTAP	24	0	7
NMTAP	24	96	2
NMTAP	24	96	5
EXTAP	24	192	3
EXTAP	24	192	4
NMTAP	24	288	1
NMTAP	24	288	6
NMSTR	25	0	5
NMSCL	25	0	5	96	48	2
NMTAP	25	96	1
NMSTR	25	192	1
NMSCL	25	192	1	96	48	6
NMTAP	25	288	5
NMSTR	26	0	5
NMSI_	26	0	5	96	48	3
NMSTR	26	96	0
NMSI_	26	96	0	96	48	4
NMTAP	26	192	5
NMTAP	26	288	3
NMTAP	26	288	5
NMSTR	27	0	2
NMSCR	27	0	2	96	48	5
NMTAP	27	96	6
NMSTR	27	192	6
NMSCR	27	192	6	96	48	1
NMTAP	27	288	2
NMSTR	28	0	3
NMSSR	28	0	3	96	144	7
EXTAP	28	240	5
EXTAP	28	288	5
NMSTR	29	0	2
NMSCR	29	0	2	96	48	5
NMTAP	29	96	6
NMSTR	29	192	6
NMSCR	29	192	6	96	48	1
NMTAP	29	288	2
NMSTR	30	0	2
NMSI_	30	0	2	96	48	4
NMSTR	30	96	7
NMSI_	30	96	7	96	48	3
NMTAP	30	192	2
NMTAP	30	288	2
NMTAP	30	288	4
NMSTR	31	0	5
NMSCL	31	0	5	96	48	2
NMTAP	31	96	1
NMSTR	31	192	1
NMSCL	31	192	1	96	48	6
NMTAP	31	288	5
NMSTR	32	0	4
NMSI_	32	0	4	96	48	7
NMSTR	32	96	0
NMSI_	32	96	0	96	48	3
EXTAP	32	192	7
NMTAP	32	288	2
NMTAP	32	288	6
NMTTP	33	0	4	B	0	M1
NMTTP	33	0	4	E	0	M1
NMTTP	33	0	5	B	0	M1
NMTTP	33	0	5	A	0	M1
NMSTR	33	96	2
NMSXR	33	96	2	96	144	3
NMTAP	33	144	2
NMTAP	33	192	3
NMTTP	34	0	4	B	0	M1
NMTTP	34	0	4	E	0	M1
NMTTP	34	0	5	B	0	M1
NMTTP	34	0	5	A	0	M1
NMHLD	34	96	6	96
NMTAP	34	192	7
NMHLD	34	288	1	96
NMTAP	35	0	0
NMTAP	35	96	2
NMTAP	35	144	2
NMTAP	35	192	4
NMTAP	35	288	4
NMTAP	35	288	5
NMSTR	35	336	4
NMSUL	35	336	4	96	144	3
NMTAP	35	336	5
NMTAP	36	288	1
NMTAP	36	288	5
NMTTP	37	0	2	B	0	M1
NMTTP	37	0	2	A	0	M1
NMTTP	37	0	3	B	0	M1
NMTTP	37	0	4	E	0	M1
NMSTR	37	96	5
NMSXL	37	96	5	96	144	4
NMTAP	37	144	5
NMTAP	37	192	4
NMTTP	38	0	2	B	0	M1
NMTTP	38	0	2	A	0	M1
NMTTP	38	0	3	B	0	M1
NMTTP	38	0	4	E	0	M1
NMHLD	38	96	1	96
NMTAP	38	96	7
NMTAP	38	192	4
NMTAP	38	288	0
NMHLD	38	288	6	96
NMTAP	39	0	3
NMTAP	39	96	5
NMTAP	39	144	5
NMTAP	39	192	4
NMTAP	39	288	2
NMTAP	39	288	3
NMTAP	39	336	2
NMTAP	39	336	3
EXTAP	40	48	0
EXTAP	40	48	7
EXTAP	40	96	0
EXTAP	40	96	7
EXTAP	40	144	0
EXTAP	40	144	7
EXTAP	40	192	0
EXTAP	40	192	7
NMSTR	40	288	1
NMSI_	40	288	1	96	48	4
NMSTR	40	288	6
NMSI_	40	288	6	96	48	3
EXTAP	41	0	1
EXTAP	41	0	6
NMTAP	41	96	2
NMTAP	41	96	5
NMTAP	41	192	6
NMTAP	41	240	6
NMTAP	41	288	0
NMTAP	41	336	0
NMTAP	42	0	3
NMTAP	42	48	3
NMSTR	42	96	1
NMSI_	42	96	1	96	48	4
NMSI_	42	96	1	96	48	5
NMTAP	42	288	6
NMTAP	42	336	6
NMTAP	43	0	0
NMTAP	43	96	2
NMTAP	43	96	4
NMTAP	43	144	2
NMTAP	43	144	4
NMSTR	43	240	5
NMSCR	43	240	5	96	96	1
NMTAP	43	336	3
CNSV_	44	48	1	0	48	3
NMTAP	44	192	0
NMTAP	44	240	0
NMSTR	44	288	7
NMSI_	44	288	7	96	48	3
NMSTR	45	0	1
NMSI_	45	0	1	96	48	5
NMSTR	45	96	6
NMSI_	45	96	6	96	48	2
NMSTR	45	192	0
NMSI_	45	192	0	96	48	4
NMSTR	45	288	5
NMSI_	45	288	5	96	48	2
NMSTR	46	0	1
NMSI_	46	0	1	96	48	6
NMSTR	46	96	4
NMSI_	46	96	4	96	48	7
NMSTR	46	192	3
NMSI_	46	192	3	96	48	0
NMSTR	46	288	7
NMSCL	46	288	7	96	192	1
EXHLD	47	0	0	192
NMSTR	47	288	0
NMSI_	47	288	0	96	48	2
NMSTR	47	288	7
NMSI_	47	288	7	96	48	3
EXTAP	48	0	0
EXTAP	48	0	7
NMSTR	48	96	0
NMSI_	48	96	0	96	48	4
NMSTR	48	96	7
NMSI_	48	96	7	96	48	5
EXTAP	48	192	0
EXTAP	48	192	7
NMTAP	48	288	3
NMTAP	49	0	2
NMTAP	49	0	3
NMTAP	49	96	0
NMTAP	49	96	1
NMTAP	49	192	7
NMTAP	49	240	7
NMSTR	49	288	0
NMSXL	49	288	0	96	96	0
NMSTR	50	192	6
NMSI_	50	192	6	96	48	4
NMSTR	50	192	7
NMSI_	50	192	7	96	48	3
EXTAP	50	288	6
EXTAP	50	288	7
NMSTR	51	0	0
NMSI_	51	0	0	96	48	4
NMSTR	51	0	1
NMSI_	51	0	1	96	48	3
EXTAP	51	96	0
EXTAP	51	96	1
NMSTR	51	192	6
NMSI_	51	192	6	96	48	4
NMSTR	51	192	7
NMSI_	51	192	7	96	48	3
EXTAP	51	288	6
EXTAP	51	288	7
NMTAP	52	0	2
NMTAP	52	96	1
NMTAP	52	96	7
NMHLD	52	192	6	96
NMHLD	52	288	4	96
NMHLD	53	0	3	96
NMHLD	53	96	1	96
NMTAP	53	192	7
NMHLD	53	288	2	96
NMHLD	54	0	0	96
NMHLD	54	96	7	96
NMHLD	54	192	5	96
NMTAP	54	288	3
BRTAP	55	0	2
BRTAP	55	0	3
BRTAP	55	96	0
BRTAP	55	96	1
BRTAP	55	192	6
BRTAP	55	192	7
BRTAP	55	288	4
BRTAP	55	288	5
BRTAP	56	0	2
BRTAP	56	0	3
BRSTR	56	96	0
NMSF_	56	96	0	96	96	4
BRTAP	56	96	1
EXTAP	57	0	2
EXTAP	57	0	6
NMTAP	57	96	5
NMTAP	57	144	5
NMTAP	57	192	3
NMTAP	57	264	2
NMTAP	57	264	4
NMTAP	57	336	2
NMTAP	57	336	4
NMTAP	58	48	1
NMTAP	58	96	1
NMTAP	58	144	3
NMTAP	58	192	2
NMTAP	58	192	3
NMTAP	58	288	1
NMTAP	58	288	4
NMTAP	59	0	0
NMTAP	59	48	0
NMTAP	59	96	7
NMSTR	59	144	7
NMSCL	59	144	7	96	96	2
NMTAP	59	240	2
NMHLD	59	336	1	96
NMTAP	60	48	3
NMSTR	60	96	3
NMSI_	60	96	3	96	48	7
NMSTR	60	192	0
NMSI_	60	192	0	96	48	4
EXTAP	60	288	7
NMTAP	61	0	3
NMTAP	61	0	6
NMTAP	61	96	2
NMTAP	61	144	2
NMTAP	61	192	4
NMTAP	61	264	3
NMTAP	61	264	5
NMTAP	61	336	3
NMTAP	61	336	5
NMTAP	62	48	6
NMTAP	62	96	6
NMTAP	62	144	4
NMTAP	62	192	4
NMTAP	62	192	5
NMTAP	62	288	3
NMTAP	62	288	6
NMTAP	63	0	7
NMTAP	63	48	7
NMTAP	63	96	0
NMSTR	63	144	0
NMSLR	63	144	0	96	96	4
NMTAP	63	240	5
NMHLD	63	336	6	96
EXTAP	64	48	5
EXTAP	64	96	4
EXTAP	64	144	3
EXTAP	64	192	2
EXTAP	64	192	5
NMSTR	64	288	4
NMSCR	64	288	4	96	480	2
NMTAP	65	0	3
NMTAP	65	96	3
NMTAP	65	192	3
NMTAP	65	288	3
NMTAP	66	0	3
NMTAP	66	96	3
NMTAP	66	192	3
NMSTR	66	288	2
NMSCL	66	288	2	96	480	4
NMTAP	66	288	3
NMTAP	67	0	3
NMTAP	67	96	3
NMTAP	67	192	3
NMTAP	67	288	3
NMTAP	68	0	3
NMTAP	68	96	3
NMTAP	68	192	3
NMSTR	68	288	3
NMSCL	68	288	3	96	480	5
NMTAP	69	0	4
NMTAP	69	96	4
NMTAP	69	192	4
NMTAP	69	288	4
NMTAP	70	0	4
NMTAP	70	96	4
NMTAP	70	192	4
NMTAP	70	288	4
NMSTR	70	288	5
NMSCR	70	288	5	96	480	3
NMTAP	71	0	4
NMTAP	71	96	4
NMTAP	71	192	4
NMTAP	71	288	4
NMTAP	72	0	4
NMTAP	72	96	4
NMTAP	72	192	4
NMSTR	72	288	3
NMSI_	72	288	3	96	192	0
NMTAP	72	288	4
NMTAP	73	0	4
NMTAP	73	96	4
NMTAP	73	192	4
NMTAP	73	288	0
NMSTR	73	288	4
NMSI_	73	288	4	96	192	7
NMTAP	74	0	0
NMTAP	74	96	0
NMSTR	74	192	0
NMSI_	74	192	0	96	48	4
NMTAP	74	288	7
NMSTR	75	0	7
NMSI_	75	0	7	96	48	3
NMTAP	75	96	1
NMSTR	75	192	0
NMSI_	75	192	0	96	48	4
NMTAP	75	288	6
NMTAP	76	0	7
NMSTR	76	96	7
NMSCL	76	96	7	96	96	3
NMSTR	76	192	3
NMSCL	76	192	3	96	96	7
NMSTR	76	288	7
NMSCL	76	288	7	96	96	3
NMSTR	77	0	3
NMSCL	77	0	3	96	96	7
NMSTR	77	96	7
NMSCL	77	96	7	96	96	3
NMSTR	77	192	3
NMSCL	77	192	3	96	96	7
NMTAP	77	288	7
NMTAP	78	0	2
NMTAP	78	48	2
NMTAP	78	96	6
NMTAP	78	144	6
NMTAP	78	192	0
NMTAP	78	216	7
NMTAP	78	240	0
NMTAP	78	264	7
NMTAP	78	288	0
NMTAP	78	312	7
NMTAP	78	336	0
NMTAP	78	360	7
NMTAP	79	0	0
NMTTP	79	96	0	C	1	M1
NMTTP	79	96	2	B	0	M1
NMTTP	79	96	3	B	0	M1
NMTTP	79	96	4	B	0	M1
NMTTP	79	96	5	B	0	M1
NMTAP	79	192	0
NMTAP	79	240	0
NMTAP	79	288	7
NMTAP	79	336	7
NMTAP	80	0	4
NMTAP	80	48	4
NMSTR	80	96	6
NMSI_	80	96	6	96	48	2
NMSI_	80	96	6	96	48	3
NMTAP	80	288	0
NMTAP	80	336	0
NMTAP	81	0	7
NMTAP	81	96	2
NMTAP	81	96	4
NMTAP	81	144	2
NMTAP	81	144	4
NMSTR	81	240	5
NMSCR	81	240	5	96	96	1
NMTAP	81	336	3
CNSV_	82	48	1	0	48	3
NMTAP	82	192	0
NMTAP	82	240	0
NMSTR	82	288	7
NMSI_	82	288	7	96	48	3
NMSTR	83	0	1
NMSI_	83	0	1	96	48	5
NMSTR	83	96	6
NMSI_	83	96	6	96	48	2
NMSTR	83	192	0
NMSI_	83	192	0	96	48	4
NMSTR	83	288	5
NMSI_	83	288	5	96	48	1
NMSTR	84	0	2
NMSI_	84	0	2	96	48	6
NMSTR	84	96	7
NMSI_	84	96	7	96	48	4
NMSTR	84	192	3
NMSI_	84	192	3	96	48	0
NMSTR	84	288	7
NMSCL	84	288	7	96	192	1
EXHLD	85	0	0	192
NMSTR	85	288	0
NMSI_	85	288	0	96	48	4
NMSTR	85	288	7
NMSI_	85	288	7	96	48	5
EXTAP	86	0	0
EXTAP	86	0	7
NMSTR	86	96	0
NMSI_	86	96	0	96	48	2
NMSTR	86	96	7
NMSI_	86	96	7	96	48	3
EXTAP	86	192	0
EXTAP	86	192	7
NMTAP	86	288	4
NMTAP	87	0	3
NMTAP	87	0	5
NMTAP	87	96	3
NMTAP	87	96	5
NMTAP	87	192	2
NMTAP	87	240	2
NMSTR	87	288	3
NMSXL	87	288	3	96	144	3
NMSTR	88	192	0
NMSI_	88	192	0	96	48	4
NMSTR	88	192	1
NMSI_	88	192	1	96	48	3
EXTAP	88	288	0
EXTAP	88	288	1
NMSTR	89	0	6
NMSI_	89	0	6	96	48	4
NMSTR	89	0	7
NMSI_	89	0	7	96	48	3
EXTAP	89	96	6
EXTAP	89	96	7
NMSTR	89	192	0
NMSI_	89	192	0	96	48	4
NMSTR	89	192	1
NMSI_	89	192	1	96	48	3
EXTAP	89	288	0
EXTAP	89	288	1
NMTAP	90	0	5
NMTAP	90	96	0
NMTAP	90	96	7
NMHLD	90	192	1	96
NMHLD	90	288	3	96
NMHLD	91	0	4	96
NMHLD	91	96	6	96
NMTAP	91	192	0
NMHLD	91	288	5	96
NMHLD	92	0	7	96
NMHLD	92	96	0	96
NMHLD	92	192	2	96
NMTAP	92	288	4
NMTAP	93	0	3
NMTAP	93	0	5
NMTAP	93	96	3
NMTAP	93	96	5
NMTAP	93	192	2
NMTAP	93	192	4
NMTAP	93	288	2
NMTAP	93	288	4
NMTAP	94	0	3
NMTAP	94	0	6
NMTAP	94	48	3
NMTAP	94	48	6
NMTAP	94	96	3
NMTAP	94	96	6
NMTAP	94	192	1
NMTAP	94	192	4
NMTAP	94	240	1
NMTAP	94	240	4
NMTAP	94	288	1
NMTAP	94	288	4
NMHLD	95	0	5	144
NMTAP	95	144	4
NMHLD	95	192	4	144
NMTAP	95	336	3
NMTAP	96	48	3
NMTAP	96	48	4
NMTAP	96	144	2
NMHLD	96	192	2	96
NMSTR	96	288	3
NMSCR	96	288	3	96	48	5

T_REC_TAP	277
T_REC_BRK	11
T_REC_XTP	71
T_REC_BXX	14
T_REC_HLD	41
T_REC_XHO	2
T_REC_BHO	0
T_REC_BXH	0
T_REC_STR	86
T_REC_BST	1
T_REC_XST	0
T_REC_XBS	0
T_REC_TTP	30
T_REC_THO	0
T_REC_SLD	89
T_REC_BSL	0
T_REC_ALL	622
T_NUM_TAP	464
T_NUM_BRK	26
T_NUM_HLD	43
T_NUM_SLD	89
T_NUM_ALL	622
T_JUDGE_TAP	490
T_JUDGE_HLD	104
T_JUDGE_SLD	89
T_JUDGE_ALL	683
TTM_EACHPAIRS	115
TTM_SCR_TAP	232000
TTM_SCR_BRK	67600
TTM_SCR_HLD	43000
TTM_SCR_SLD	133500
TTM_SCR_ALL	476100
TTM_SCR_S	459300
TTM_SCR_SS	473500
TTM_RAT_ACV	10054

